#VERSION:0.83;
#TITLE:POTENTIAL;
#SUBTITLE:;
#ARTIST:TAG;
#TITLETRANSLIT:;
#SUBTITLETRANSLIT:;
#ARTISTTRANSLIT:;
#GENRE:;
#ORIGIN:;
#CREDIT:;
#BANNER:;
#BACKGROUND:;
#PREVIEWVID:;
#JACKET:;
#CDIMAGE:;
#DISCIMAGE:;
#LYRICSPATH:;
#CDTITLE:;
#MUSIC:POTENTIAL.ogg;
#OFFSET:-0.404000;
#SAMPLESTART:0.404000;
#SAMPLELENGTH:15.000000;
#SELECTABLE:YES;
#DISPLAYBPM:*;
#BPMS:0.000=25.000,
4.000=23.750,
4.500=21.875,
5.000=20.000,
6.000=200.000,
40.000=400.000,
216.000=800.000,
236.000=150.000,
300.000=155.000,
304.000=160.000,
308.000=165.000,
312.000=170.000,
316.000=180.000,
320.000=185.000,
324.000=190.000,
328.000=195.000,
332.000=400.000,
348.000=800.000,
380.000=400.000,
572.000=200.000,
580.000=400.000,
588.000=800.000,
604.000=400.000;
#STOPS:6.000=1.500;
#DELAYS:;
#WARPS:;
#TIMESIGNATURES:0.000=4=4;
#TICKCOUNTS:0.000=4;
#COMBOS:0.000=1;
#SPEEDS:0.000=1.000=0.000=0;
#SCROLLS:0.000=1.000;
#FAKES:;
#LABELS:0.000=Song Start;
#BGCHANGES:;
#KEYSOUNDS:;
#ATTACKS:
;

//---------------dance-single - ----------------
#NOTEDATA:;
#CHARTNAME:;
#STEPSTYPE:dance-single;
#DESCRIPTION:;
#CHARTSTYLE:;
#DIFFICULTY:Easy;
#METER:18;
#RADARVALUES:1.119544,3.933104,0.889080,0.387180,0.838890,1093.000000,969.000000,124.000000,54.000000,0.000000,0.000000,0.000000,0.000000,0.000000,1.119544,3.933104,0.889080,0.387180,0.838890,1093.000000,969.000000,124.000000,54.000000,0.000000,0.000000,0.000000,0.000000,0.000000;
#CREDIT:Dr.Bright;
#DISPLAYBPM:*;
#NOTES:
// measure 0
1000
0100
0010
1000
0001
0100
0010
0100
0001
0010
0100
0001
1000
0010
0100
0010
0010
1000
0001
0010
0100
1000
0001
1000
0100
0001
1000
0100
0010
0001
1000
0001
0001
0010
0100
0001
1000
0010
0100
0010
1000
0100
0010
1000
0001
0100
0010
0100
0100
0001
1000
0100
0010
0001
1000
0001
0010
1000
0001
0010
0100
1000
0001
1000
,  // measure 1
0020
0000
0230
0000
2300
0000
0002
0000
0000
3003
0000
0000
0000
0000
0000
0000
,  // measure 2
1000
0001
1000
0001
1000
0000
0001
0010
0100
0010
0001
0000
1000
0100
0010
0100
,  // measure 3
1000
0000
0001
0010
0100
0010
0001
0000
1000
0100
1000
0100
0001
0100
0001
0100
,  // measure 4
0001
1000
0001
1000
0001
0000
1000
0100
0010
0100
1000
0000
0001
0010
0100
0010
,  // measure 5
0001
0000
1000
0100
0010
0100
1000
0000
0001
0010
0001
0010
1000
0010
1000
0010
,  // measure 6
0200
0000
0000
0020
0000
0000
0000
0000
,  // measure 7
0000
0000
0000
0000
0000
0000
0000
0330
,  // measure 8
1001
0001
0000
1001
0010
0000
1001
0100
,  // measure 9
0000
0000
1001
0000
1000
0000
0000
0000
1000
0100
0010
0001
1000
0100
0010
0001
,  // measure 10
1000
1000
0010
0001
,  // measure 11
0100
0010
1000
0010
0100
0000
0101
0000
,  // measure 12
0001
0101
0100
0101
,  // measure 13
1000
0001
1000
0001
1000
0001
2000
0000
,  // measure 14
0000
0000
0010
3000
,  // measure 15
0001
0100
0001
0100
0000
0000
1001
0000
,  // measure 16
1000
1001
0001
0101
,  // measure 17
0100
0010
0100
0001
1000
0001
1000
0010
,  // measure 18
0001
0001
0100
1000
,  // measure 19
0010
0100
0001
0100
0010
0000
1010
0000
,  // measure 20
1000
1010
0010
1010
,  // measure 21
0001
1000
0001
1000
0001
1000
0002
0000
,  // measure 22
0000
0000
0100
0003
,  // measure 23
1000
0010
1000
0010
0000
0000
1001
0000
,  // measure 24
0001
1001
1000
1010
,  // measure 25
0010
0100
0010
1000
0001
1000
0001
0100
,  // measure 26
0020
0200
0000
0000
0300
0000
0130
1000
,  // measure 27
0100
0001
0010
0001
0010
0100
0001
1000
,  // measure 28
0001
0010
0100
1000
0001
0010
0100
1000
,  // measure 29
0001
0010
0100
1000
0001
0010
0100
1000
,  // measure 30
0110
0000
0011
0002
,  // measure 31
0003
1001
0000
1010
,  // measure 32
1000
0100
0001
0100
0010
0001
0010
1000
,  // measure 33
0001
0010
1000
0010
0100
1000
0100
0001
,  // measure 34
0200
0020
0000
0000
0030
0000
0310
0001
,  // measure 35
0010
1000
0100
1000
0100
0010
1000
0001
,  // measure 36
1000
0100
0010
0001
1000
0100
0010
0001
,  // measure 37
1000
0100
0010
0001
1000
0100
0010
0001
,  // measure 38
2100
0010
0001
0100
,  // measure 39
0010
0001
0100
3010
,  // measure 40
0001
0010
1000
0010
0100
1000
0100
0001
,  // measure 41
1000
0100
0001
0100
0010
0001
0010
1000
,  // measure 42
1001
1001
0000
1010
,  // measure 43
0000
1001
0000
0101
,  // measure 44
0000
1001
1001
0110
,  // measure 45
1001
0000
1001
1001
,  // measure 46
0000
1010
0000
1001
,  // measure 47
0000
0101
0000
1001
,  // measure 48
1001
0101
1001
1010
,  // measure 49
1001
1001
0000
0101
,  // measure 50
0000
1001
0000
1010
,  // measure 51
0000
1001
1001
0110
,  // measure 52
1001
0000
1001
1001
,  // measure 53
0000
0101
0000
2002
,  // measure 54
0000
3003
1001
0000
,  // measure 55
1001
0000
0000
0000
0000
0000
0000
0000
1010
0000
0000
0000
,  // measure 56
0000
0000
0000
0000
0101
0000
0000
0000
0000
0000
0000
0000
,  // measure 57
1010
0000
0000
0000
0000
0000
0000
0000
0011
0000
0000
0000
,  // measure 58
0000
0000
0000
0000
1010
0000
0000
0000
0000
0000
0000
0000
,  // measure 59
0220
0000
0000
0000
,  // measure 60
0000
0000
0000
0000
,  // measure 61
0000
0000
0000
0000
,  // measure 62
0000
0000
0000
0000
0000
0000
0000
0330
,  // measure 63
1000
0100
0010
0100
1000
0100
0010
0100
,  // measure 64
1000
0100
0010
0100
1000
0100
0010
0100
,  // measure 65
0001
0010
0100
0010
0001
0010
0100
0010
0001
0010
0100
0010
0001
0010
0100
0010
,  // measure 66
1001
0000
0000
0110
0000
0000
1001
0000
1100
0000
0000
0110
0000
0000
0011
0000
,  // measure 67
1000
0100
1000
0000
0010
0001
0000
0001
0010
0000
0000
0010
0100
0010
1000
0100
,  // measure 68
0001
0010
0001
0000
0100
1000
0000
1000
0100
0000
0000
0100
0010
0100
0001
0010
,  // measure 69
0100
0001
0100
0000
1000
0010
0000
0010
1000
0000
0000
1000
0001
1000
0100
0001
,  // measure 70
0010
1000
0010
0000
0001
0100
0000
0100
0001
0000
0000
0001
1000
0001
0010
1000
,  // measure 71
1000
0100
1000
0000
0010
0001
0000
0001
0010
0000
0000
0010
0100
0010
1000
0100
,  // measure 72
0001
0010
0001
0000
0100
1000
0000
1000
0100
0000
0000
0100
0010
0100
0001
0010
,  // measure 73
0100
0001
0100
0000
1000
0010
0000
0010
1000
0000
0000
1000
0001
1000
0100
0001
,  // measure 74
0010
1000
0010
0000
0001
0100
0000
0100
0001
0000
0000
0001
1000
0001
0010
1000
,  // measure 75
1001
0100
0010
0100
1000
0100
0010
0000
0100
1000
0000
1000
0100
0000
0010
0010
,  // measure 76
1001
0010
0100
0010
0001
0010
0100
0000
0010
0001
0000
0001
0010
0000
0100
0100
,  // measure 77
1001
0100
0010
0100
1000
0100
0010
0000
0100
1000
0000
1000
0100
0000
0010
0010
,  // measure 78
1001
0010
0100
0010
0001
0010
0100
0000
0010
0001
0000
0001
0010
0000
0100
0100
,  // measure 79
1001
0100
0010
0100
1000
0100
0010
0000
0100
1000
0000
1000
0100
0000
0010
0010
,  // measure 80
1001
0010
0100
0010
0001
0010
0100
0000
0010
0001
0000
0001
0010
0000
0100
0100
,  // measure 81
1001
0100
0010
0100
1000
0100
0010
0000
0100
1000
0000
1000
0100
0000
0010
0010
,  // measure 82
1001
0010
0100
0010
0001
0010
0100
0000
0010
0001
0000
0001
0010
0000
0100
0100
,  // measure 83
1000
0001
1000
0001
1000
0001
1000
0001
,  // measure 84
1000
0001
1000
0001
1000
0001
1000
0001
,  // measure 85
1000
0001
1000
0001
1000
0001
1000
0001
,  // measure 86
1000
0001
1000
0001
1000
0001
1000
0001
,  // measure 87
1000
0000
0100
0000
0010
0000
0001
0000
0010
0000
0100
0000
,  // measure 88
1000
0000
0100
0000
0010
0000
0001
0000
0010
0000
0100
0000
,  // measure 89
1000
0000
0100
0000
0010
0000
0001
0000
0010
0000
0100
0000
,  // measure 90
1000
0000
0100
0000
0010
0000
0001
0000
0010
0000
0100
0000
,  // measure 91
1000
0000
0100
0000
0010
0000
0001
0000
0010
0000
0100
0000
,  // measure 92
1000
0000
1000
0001
,  // measure 93
1000
0001
1000
0000
,  // measure 94
2002
0000
0000
3003
,  // measure 95
1000
0010
1000
0001
1000
0000
1001
0000
,  // measure 96
0001
0010
0000
0000
0010
0100
0000
0000
,  // measure 97
1010
0010
0011
0001
,  // measure 98
0101
0100
1100
1000
,  // measure 99
0001
0100
0001
1000
0001
0000
1001
0000
,  // measure 100
1000
0100
0000
0000
0100
0010
0000
0000
,  // measure 101
0101
0100
1100
1000
,  // measure 102
1010
0010
0011
0001
,  // measure 103
0010
0001
0010
0100
0010
0000
0110
0000
,  // measure 104
0100
0001
0000
0000
0001
1000
0000
0000
,  // measure 105
0100
1000
0100
0010
0100
0000
0110
0000
,  // measure 106
0010
1000
0000
0000
1000
0001
0100
0000
,  // measure 107
0100
1000
0100
0010
0100
0000
0110
0000
,  // measure 108
0010
1000
0000
0000
1000
0001
0000
0000
,  // measure 109
2200
0000
0000
3300
0000
0000
2002
0000
,  // measure 110
0000
3003
0000
0000
0202
0000
0000
0303
,  // measure 111
2002
0000
0000
3003
,  // measure 112
0001
0010
0000
0000
0010
0100
0000
0000
,  // measure 113
0022
0000
0000
0033
0000
0000
2002
0000
,  // measure 114
0000
3003
0000
0000
2020
0000
0000
3030
,  // measure 115
0001
0100
0001
1000
0001
0000
1001
0000
,  // measure 116
1000
0100
0000
0000
0100
0010
0000
0000
,  // measure 117
0101
0100
1100
1000
,  // measure 118
1010
0010
0011
0001
,  // measure 119
0010
0001
0010
0100
0010
0000
0110
0000
,  // measure 120
0100
0001
0000
0000
0001
1000
0000
0000
,  // measure 121
0100
1000
0100
0010
0100
0000
0110
0000
,  // measure 122
0010
1000
0000
0000
1000
0001
0100
0000
,  // measure 123
1000
0100
0001
0010
0100
0010
0001
0100
,  // measure 124
0001
0010
1000
0100
0010
0100
1000
0010
,  // measure 125
0100
0001
0010
1000
0001
1000
0010
0001
,  // measure 126
0010
1000
0100
0001
1000
0001
0100
1000
,  // measure 127
0010
0100
0010
0100
0010
0000
1000
0010
,  // measure 128
1000
0010
1000
0000
0001
0010
0100
1000
,  // measure 129
0100
0000
0010
0001
0010
0100
1000
0000
,  // measure 130
1000
0000
0000
0100
0000
0000
0010
0000
0000
0001
0000
0000
1000
0000
0001
0000
1000
0000
0001
0000
1000
0000
0001
0000
,  // measure 131
0100
0010
0100
0010
0100
0000
0001
0100
,  // measure 132
0001
0100
0001
0000
1000
0100
0010
0001
,  // measure 133
0010
0000
0100
1000
0100
0010
0001
0000
,  // measure 134
0001
0000
0000
0010
0000
0000
0100
0000
0000
1000
0000
0000
0001
0000
1000
0000
0001
0000
1000
0000
0001
0000
1000
0000
,  // measure 135
0001
1000
0001
1000
0001
0000
0010
0001
,  // measure 136
0010
0001
0010
0000
0100
0001
1000
0010
,  // measure 137
1000
0000
0001
0100
0001
1000
0010
0000
,  // measure 138
0010
0000
0000
1000
0000
0000
0001
0000
0000
0100
0000
0000
0010
0000
0100
0000
0010
0000
0100
0000
0010
0000
0100
0000
,  // measure 139
1000
0001
1000
0001
1000
0000
0100
1000
,  // measure 140
0100
1000
0100
0000
0010
1000
0001
0100
,  // measure 141
1010
0000
0000
0000
1010
0000
0000
0000
1010
0000
0000
0000
,  // measure 142
0101
0000
0000
0000
0101
0000
0000
0000
0101
0000
0000
0000
,  // measure 143
2002
0000
0000
3003
,  // measure 144
0220
0000
0000
0330
,  // measure 145
2002
0000
0000
0000
,  // measure 146
0000
0000
0000
3003
,  // measure 147
0220
0000
0000
0000
,  // measure 148
0000
0000
0000
0000
,  // measure 149
0000
0000
0000
0000
,  // measure 150
0000
0000
0000
0330
,  // measure 151
1010
0020
0000
0030
0011
0020
0000
0030
,  // measure 152
1100
0001
1000
0020
0000
0030
0101
0200
,  // measure 153
0000
0300
1100
0200
0000
0300
0011
1000
,  // measure 154
0001
0100
0010
1000
0100
0000
0220
0000
,  // measure 155
0000
0330
2002
3003
,  // measure 156
0011
0010
1100
0200
0000
0300
1000
0001
,  // measure 157
1000
0000
0000
0001
0000
0000
1000
0000
0000
0001
0000
0000
1000
0000
0001
0000
1000
0000
0001
0000
1000
0000
0001
0000
,  // measure 158
2002
0000
0000
0000
,  // measure 159
3003
0000
0000
0000
;

//---------------dance-single - ----------------
#NOTEDATA:;
#CHARTNAME:;
#STEPSTYPE:dance-single;
#DESCRIPTION:;
#CHARTSTYLE:;
#DIFFICULTY:Beginner;
#METER:18;
#RADARVALUES:1.024286,3.420090,0.709830,0.351330,0.638130,1000.000000,901.000000,99.000000,49.000000,0.000000,0.000000,0.000000,0.000000,0.000000,1.024286,3.420090,0.709830,0.351330,0.638130,1000.000000,901.000000,99.000000,49.000000,0.000000,0.000000,0.000000,0.000000,0.000000;
#CREDIT:Dr.Bright;
#DISPLAYBPM:*;
#NOTES:
// measure 0
1000
0100
0010
0000
0001
0100
0010
0100
0001
0010
0100
0000
1000
0010
0100
0010
0010
1000
0001
0000
0100
1000
0001
1000
0100
0001
1000
0000
0010
0001
1000
0001
0001
0010
0100
0000
1000
0010
0100
0010
1000
0100
0010
0000
0001
0100
0010
0100
0100
0001
1000
0000
0010
0001
1000
0001
0010
1000
0001
0000
0100
1000
0001
1000
,  // measure 1
0020
0000
0000
0000
2030
0000
0002
0000
0000
3003
0000
0000
0000
0000
0000
0000
,  // measure 2
1000
0001
1000
0000
0001
0000
0001
0010
0100
0000
0001
0000
1000
0100
0010
0000
,  // measure 3
1000
0000
0001
0010
0100
0000
0001
0000
1000
0100
1000
0100
0001
0100
0001
0100
,  // measure 4
0001
1000
0001
0000
1000
0000
1000
0100
0010
0000
1000
0000
0001
0010
0100
0000
,  // measure 5
0001
0000
1000
0100
0010
0000
1000
0000
0001
0010
0001
0010
1000
0010
1000
0010
,  // measure 6
0220
0000
0000
0000
,  // measure 7
0000
0000
0000
0000
0000
0000
0000
0330
,  // measure 8
1001
0001
0000
1001
0010
0000
1001
0100
,  // measure 9
0000
0000
1001
0000
1000
0000
0000
0000
1000
0001
1000
0001
1000
0001
1000
0001
,  // measure 10
1000
1000
0010
0001
,  // measure 11
0100
0010
1000
0000
0100
0000
0101
0000
,  // measure 12
0001
0101
0100
0101
,  // measure 13
1000
0001
1000
0001
1000
0001
2000
0000
,  // measure 14
0000
0000
0010
3000
,  // measure 15
0001
0100
0001
0000
0000
0000
1001
0000
,  // measure 16
1000
1001
0001
0101
,  // measure 17
0100
0010
0100
0000
1000
0001
1000
0000
,  // measure 18
0001
0001
0100
1000
,  // measure 19
0010
0100
0001
0000
0010
0000
1010
0000
,  // measure 20
1000
1010
0010
1010
,  // measure 21
0001
1000
0001
1000
0001
1000
0002
0000
,  // measure 22
0000
0000
0100
0003
,  // measure 23
1000
0010
1000
0000
0000
0000
1001
0000
,  // measure 24
0001
1001
1000
1010
,  // measure 25
0010
0100
0010
0000
0001
1000
0001
0000
,  // measure 26
0020
0200
0000
0000
0300
0000
0130
1000
,  // measure 27
0100
0000
0010
0001
0010
0000
0001
1000
,  // measure 28
0001
1000
0001
1000
0001
1000
0001
1000
,  // measure 29
0001
1000
0001
1000
0001
1000
0001
1000
,  // measure 30
0110
0000
0011
0002
,  // measure 31
0003
1001
0000
1010
,  // measure 32
1000
0100
0001
0000
0010
0001
0010
1000
,  // measure 33
0001
0010
1000
0000
0100
1000
0100
0001
,  // measure 34
0200
0020
0000
0000
0030
0000
0310
0001
,  // measure 35
0010
0000
0100
1000
0100
0000
1000
0001
,  // measure 36
1000
0001
1000
0001
1000
0001
1000
0001
,  // measure 37
1000
0001
1000
0001
1000
0001
1000
0001
,  // measure 38
2100
0100
0100
0100
,  // measure 39
0100
0100
0100
3100
,  // measure 40
0001
0010
1000
0000
0100
1000
0100
0001
,  // measure 41
1000
0100
0001
0000
0010
0001
0010
1000
,  // measure 42
1001
1001
0000
1010
,  // measure 43
0000
1001
0000
0101
,  // measure 44
0000
1001
0001
1000
,  // measure 45
1001
0000
1001
1001
,  // measure 46
0000
1010
0000
1001
,  // measure 47
0000
0101
0000
1001
,  // measure 48
0001
1000
1001
1000
,  // measure 49
0001
1001
0000
0101
,  // measure 50
0000
1001
0000
1010
,  // measure 51
0000
1001
1000
0001
,  // measure 52
1001
0000
1001
1001
,  // measure 53
0000
0101
0000
2002
,  // measure 54
0000
3003
1001
0000
,  // measure 55
1001
0000
0000
0000
0000
0000
0000
0000
1010
0000
0000
0000
,  // measure 56
0000
0000
0000
0000
0101
0000
0000
0000
0000
0000
0000
0000
,  // measure 57
1010
0000
0000
0000
0000
0000
0000
0000
0101
0000
0000
0000
,  // measure 58
0000
0000
0000
0000
1010
0000
0000
0000
0000
0000
0000
0000
,  // measure 59
0220
0000
0000
0000
,  // measure 60
0000
0000
0000
0000
,  // measure 61
0000
0000
0000
0000
,  // measure 62
0000
0000
0000
0000
0000
0000
0000
0330
,  // measure 63
1000
0100
0010
0100
1000
0100
0010
0100
,  // measure 64
1000
0100
0010
0100
1000
0100
0010
0100
,  // measure 65
0001
0000
0010
0000
0100
0000
0010
0000
0001
0010
0100
0010
0001
0010
0100
0010
,  // measure 66
1001
0000
0000
0110
0000
0000
1001
0000
1100
0000
0000
0110
0000
0000
0011
0000
,  // measure 67
1000
0100
0000
0000
0010
0001
0000
0001
0010
0000
0000
0010
0100
0000
1000
0100
,  // measure 68
0001
0010
0000
0000
0100
1000
0000
1000
0100
0000
0000
0100
0010
0000
0001
0010
,  // measure 69
0100
0001
0000
0000
1000
0010
0000
0010
1000
0000
0000
1000
0001
0000
0100
0001
,  // measure 70
0010
1000
0000
0000
0001
0100
0000
0100
0001
0000
0000
0001
1000
0000
0010
1000
,  // measure 71
1000
0100
0000
0000
0010
0001
0000
0001
0010
0000
0000
0010
0100
0000
1000
0100
,  // measure 72
0001
0010
0000
0000
0100
1000
0000
1000
0100
0000
0000
0100
0010
0000
0001
0010
,  // measure 73
0100
0001
0000
0000
1000
0010
0000
0010
1000
0000
0000
1000
0001
0000
0100
0001
,  // measure 74
0010
1000
0000
0000
0001
0100
0000
0100
0001
0000
0000
0001
1000
0000
0010
1000
,  // measure 75
1001
0100
0010
0100
1000
0100
0010
0000
0100
1000
0000
1000
0100
0000
0010
0100
,  // measure 76
1001
0010
0100
0010
0001
0010
0100
0000
0010
0001
0000
0001
0010
0000
0100
0010
,  // measure 77
1001
0100
0010
0100
1000
0100
0010
0000
0100
1000
0000
1000
0100
0000
0010
0100
,  // measure 78
1001
0010
0100
0010
0001
0010
0100
0000
0010
0001
0000
0001
0010
0000
0100
0010
,  // measure 79
1001
0100
0010
0100
1000
0100
0010
0000
0100
1000
0000
1000
0100
0000
0010
0100
,  // measure 80
1001
0010
0100
0010
0001
0010
0100
0000
0010
0001
0000
0001
0010
0000
0100
0010
,  // measure 81
1001
0100
0010
0100
1000
0100
0010
0000
0100
1000
0000
1000
0100
0000
0010
0100
,  // measure 82
1001
0010
0100
0010
0001
0010
0100
0000
0010
0001
0000
0001
0010
0000
0100
0010
,  // measure 83
1000
0001
1000
0001
1000
0001
1000
0001
,  // measure 84
1000
0001
1000
0001
1000
0001
1000
0001
,  // measure 85
1000
0001
1000
0001
1000
0001
1000
0001
,  // measure 86
1000
0001
1000
0001
1000
0001
1000
0001
,  // measure 87
1000
0100
0010
0001
,  // measure 88
0010
0100
1000
0100
,  // measure 89
0010
0001
0010
0100
,  // measure 90
1000
0000
0100
0000
0010
0000
0001
0000
0010
0000
0100
0000
,  // measure 91
1000
0000
0100
0000
0010
0000
0001
0000
0010
0000
0100
0000
,  // measure 92
1000
0000
1000
0001
,  // measure 93
1000
0001
1000
0000
,  // measure 94
2002
0000
0000
3003
,  // measure 95
1000
0010
1000
0010
1000
0000
1001
0000
,  // measure 96
0001
0010
0000
0000
0010
0100
0000
0000
,  // measure 97
1010
0010
0011
0001
,  // measure 98
0101
0100
1100
1000
,  // measure 99
0001
0100
0001
0100
0001
0000
1001
0000
,  // measure 100
1000
0100
0000
0000
0100
0010
0000
0000
,  // measure 101
0101
0100
1100
1000
,  // measure 102
1010
0010
0011
0001
,  // measure 103
0010
0001
0010
0001
0010
0000
0110
0000
,  // measure 104
0100
0001
0000
0000
0001
1000
0000
0000
,  // measure 105
0100
1000
0100
1000
0100
0000
0110
0000
,  // measure 106
0010
1000
0000
0000
1000
0001
0100
0000
,  // measure 107
0100
1000
0100
1000
0100
0000
0110
0000
,  // measure 108
0010
1000
0000
0000
1000
0001
0000
0000
,  // measure 109
2200
0000
0000
3300
0000
0000
2002
0000
,  // measure 110
0000
3003
0000
0000
0202
0000
0000
0303
,  // measure 111
2002
0000
0000
3003
,  // measure 112
0001
0010
0000
0000
0010
0100
0000
0000
,  // measure 113
0022
0000
0000
0033
0000
0000
2002
0000
,  // measure 114
0000
3003
0000
0000
2020
0000
0000
3030
,  // measure 115
0001
0100
0001
0100
0001
0000
1001
0000
,  // measure 116
1000
0100
0000
0000
0100
0010
0000
0000
,  // measure 117
0101
0100
1100
1000
,  // measure 118
1010
0010
0011
0001
,  // measure 119
0010
0001
0010
0001
0010
0000
0110
0000
,  // measure 120
0100
0001
0000
0000
0001
1000
0000
0000
,  // measure 121
0100
1000
0100
1000
0100
0000
0110
0000
,  // measure 122
0010
1000
0000
0000
1000
0001
0100
0000
,  // measure 123
1000
0100
1000
0010
0100
0010
0001
0100
,  // measure 124
0001
0010
0001
0100
0010
0100
1000
0010
,  // measure 125
0100
0001
0100
1000
0001
1000
0010
0001
,  // measure 126
0010
1000
0010
0001
1000
0001
0100
1000
,  // measure 127
0010
0100
0010
0100
0010
0000
1000
0010
,  // measure 128
1000
0010
1000
0000
0001
0010
0100
1000
,  // measure 129
0100
0000
0010
0001
0010
0100
1000
0000
,  // measure 130
1000
0100
0010
0001
1000
0001
1000
0001
,  // measure 131
0100
0010
0100
0010
0100
0000
0001
0100
,  // measure 132
0001
0100
0001
0000
1000
0100
0010
0001
,  // measure 133
0010
0000
0100
1000
0100
0010
0001
0000
,  // measure 134
0001
0010
0100
1000
0001
1000
0001
1000
,  // measure 135
0001
1000
0001
1000
0001
0000
0010
0001
,  // measure 136
0010
0001
0010
0000
0100
0001
1000
0010
,  // measure 137
1000
0000
0001
0100
0001
1000
0010
0000
,  // measure 138
0010
1000
0001
0100
0010
0100
0010
0100
,  // measure 139
1000
0001
1000
0001
1000
0000
0100
1000
,  // measure 140
0100
1000
0100
0000
0010
1000
0001
0100
,  // measure 141
1000
0000
0000
0000
1000
0000
0000
0000
1000
0000
0000
0000
,  // measure 142
0001
0000
0000
0000
0001
0000
0000
0000
0001
0000
0000
0000
,  // measure 143
2000
0000
0000
3000
,  // measure 144
0200
0000
0000
0300
,  // measure 145
0020
0000
0000
0000
,  // measure 146
0000
0000
0000
0030
,  // measure 147
0002
0000
0000
0000
,  // measure 148
0000
0000
0000
0000
,  // measure 149
0000
0000
0000
0000
,  // measure 150
0000
0000
0000
0003
,  // measure 151
1000
0020
0000
0030
0001
0020
0000
0030
,  // measure 152
1000
0001
1000
0020
0000
0030
0001
0200
,  // measure 153
0000
0300
1000
0200
0000
0300
0010
1000
,  // measure 154
0001
0100
0010
1000
0100
0000
0220
0000
,  // measure 155
0000
0330
2002
3003
,  // measure 156
0001
0010
1000
0200
0000
0300
1000
0001
,  // measure 157
1000
0001
1000
0001
1000
0001
1000
0001
,  // measure 158
2002
0000
0000
0000
,  // measure 159
3003
0000
0000
0000
;

//---------------dance-single - ----------------
#NOTEDATA:;
#CHARTNAME:;
#STEPSTYPE:dance-single;
#DESCRIPTION:;
#CHARTSTYLE:;
#DIFFICULTY:Medium;
#METER:18;
#RADARVALUES:1.252702,4.617122,1.089840,0.437370,1.075500,1223.000000,1071.000000,152.000000,61.000000,0.000000,0.000000,0.000000,0.000000,0.000000,1.252702,4.617122,1.089840,0.437370,1.075500,1223.000000,1071.000000,152.000000,61.000000,0.000000,0.000000,0.000000,0.000000,0.000000;
#CREDIT:Dr.Bright overground;
#DISPLAYBPM:*;
#NOTES:
// measure 0
1001
0100
0010
1000
0001
0100
0010
0100
1001
0010
0100
0001
1000
0010
0100
0010
0110
1000
0001
0010
0100
1000
0001
1000
0110
0001
1000
0100
0010
0001
1000
0001
1001
0010
0100
0001
1000
0010
0100
0010
1001
0100
0010
1000
0001
0100
0010
0100
0110
0001
1000
0100
0010
0001
1000
0001
0110
1000
0001
0010
0100
1000
0001
1000
,  // measure 1
0020
0100
0230
0001
2300
0001
0002
0000
0000
3003
0000
0000
0000
0000
0000
0000
,  // measure 2
1001
0001
1000
0001
1000
0000
0001
0010
0100
0010
0001
0000
1000
0100
0010
0100
,  // measure 3
1000
0000
0001
0010
0100
0010
0001
0000
1000
0100
1000
0100
0001
0100
0001
0100
,  // measure 4
1001
1000
0001
1000
0001
0000
1000
0100
0010
0100
1000
0000
0001
0010
0100
0010
,  // measure 5
0001
0000
1000
0100
0010
0100
1000
0000
0001
0010
0001
0010
1000
0010
1000
0010
,  // measure 6
0200
0010
0000
0020
0000
0000
0000
0000
,  // measure 7
0000
0000
0000
0000
0000
0000
0000
0330
,  // measure 8
1001
0000
0001
1000
0000
0000
1001
0000
0010
0100
0000
0000
1001
0000
0110
0000
,  // measure 9
0000
0000
1001
0000
1000
0001
0000
0000
1000
0100
0010
0001
1000
0100
0010
0001
,  // measure 10
1000
0001
1000
0000
0010
0000
0001
0000
,  // measure 11
0100
0010
1000
0010
0100
0000
0101
0010
,  // measure 12
0001
0101
0100
0101
,  // measure 13
1000
0001
1000
0001
1000
0001
2000
0000
,  // measure 14
0000
0000
0010
3000
,  // measure 15
0001
0100
0001
0100
0000
0000
1001
0001
,  // measure 16
1000
1001
0001
0101
,  // measure 17
0100
0010
0100
0001
1000
0001
1000
0010
,  // measure 18
0001
1000
0001
0000
0100
0000
1000
0000
,  // measure 19
0010
0100
0001
0100
0010
0000
1010
0100
,  // measure 20
1000
1010
0010
1010
,  // measure 21
0001
1000
0001
1000
0001
1000
0002
0000
,  // measure 22
0000
0000
0100
0003
,  // measure 23
1000
0010
1000
0010
0000
0000
1001
1000
,  // measure 24
0001
1001
1000
1010
,  // measure 25
0010
0100
0010
1000
0001
1000
0001
0100
,  // measure 26
0020
0100
0000
0000
0100
0000
0130
1000
,  // measure 27
0100
0001
0010
0001
0010
0100
0001
1000
,  // measure 28
0001
0010
0100
1000
0001
0010
0100
1000
,  // measure 29
0001
0000
0000
0010
0000
0000
0100
0000
0000
1000
0000
0000
0001
0000
0010
0000
0100
0000
1000
0000
0001
0000
1000
0000
,  // measure 30
0120
0030
0011
0002
,  // measure 31
0003
2001
3000
1020
,  // measure 32
1030
0100
0001
0100
0010
0001
0010
1000
,  // measure 33
0001
0010
1000
0010
0100
1000
0100
0001
,  // measure 34
0200
0010
0000
0000
0010
0000
0310
0001
,  // measure 35
0010
1000
0100
1000
0100
0010
1000
0001
,  // measure 36
1000
0100
0010
0001
1000
0100
0010
0001
,  // measure 37
1000
0000
0000
0100
0000
0000
0010
0000
0000
0001
0000
0000
1000
0000
0100
0000
0010
0000
0001
0000
1000
0000
0001
0000
,  // measure 38
2100
0010
0001
0100
,  // measure 39
0010
0001
0100
3010
,  // measure 40
0001
0010
1000
0010
0100
1000
0100
0001
,  // measure 41
1000
0100
0001
0100
0010
0001
0010
1000
,  // measure 42
1001
1001
0000
1010
,  // measure 43
1000
1001
0001
0101
,  // measure 44
0000
1001
1001
0110
,  // measure 45
1001
0000
1001
1001
,  // measure 46
0000
1010
1000
1001
,  // measure 47
0001
0101
0000
1001
,  // measure 48
1001
0101
1001
1010
,  // measure 49
1001
1001
0000
0101
,  // measure 50
0001
1001
1000
1010
,  // measure 51
0000
1001
1001
0110
,  // measure 52
1001
0000
1001
1001
,  // measure 53
0000
0101
0001
2002
,  // measure 54
0000
3003
1001
0000
,  // measure 55
1001
0000
0000
0000
0000
0000
0000
0000
1010
0000
0000
0000
,  // measure 56
0000
0000
0000
0000
0101
0000
0000
0000
0000
0000
0000
0000
,  // measure 57
1010
0000
0000
0000
0100
0000
0000
0000
0011
0000
0000
0000
,  // measure 58
0001
0000
0000
0000
1010
0000
0000
0000
0100
0000
0000
0000
,  // measure 59
0220
0000
0000
0000
0000
0000
0000
0330
,  // measure 60
0220
0000
0000
0000
0000
0000
0000
0330
,  // measure 61
0220
0000
0000
0000
0000
0000
0000
0330
,  // measure 62
0220
0000
0000
0000
0000
0000
0000
0330
,  // measure 63
1000
0100
0010
0100
1000
0100
0010
0100
,  // measure 64
1000
0100
0010
0100
1000
0100
0010
0100
1000
0100
0010
0100
1000
0100
0010
0100
,  // measure 65
0001
0010
0100
0010
0001
0010
0100
0010
0001
0010
0100
0010
0001
0010
0100
0010
,  // measure 66
1001
0001
0000
0110
0000
0000
1001
0000
1100
1000
0000
0110
0000
0000
0011
0000
,  // measure 67
1000
0100
1000
0001
0010
0001
0000
0001
0010
0000
0000
0010
0100
0010
1000
0100
,  // measure 68
0001
0010
0001
1000
0100
1000
0000
1000
0100
0000
0000
0100
0010
0100
0001
0010
,  // measure 69
0100
0001
0100
0010
1000
0010
0000
0010
1000
0000
0000
1000
0001
1000
0100
0001
,  // measure 70
0010
1000
0010
0100
0001
0100
0000
0100
0001
0000
0000
0001
1000
0001
0010
1000
,  // measure 71
1000
0100
1000
0001
0010
0001
0000
0001
0010
0000
0000
0010
0100
0010
1000
0100
,  // measure 72
0001
0010
0001
1000
0100
1000
0000
1000
0100
0000
0000
0100
0010
0100
0001
0010
,  // measure 73
0100
0001
0100
0010
1000
0010
0000
0010
1000
0000
0000
1000
0001
1000
0100
0001
,  // measure 74
0010
1000
0010
0100
0001
0100
0000
0100
0001
0000
0000
0001
1000
0001
0010
1000
,  // measure 75
1001
0100
0010
0100
1000
0100
0010
0000
0100
1000
0000
1000
0100
0100
0010
0010
,  // measure 76
1001
0010
0100
0010
0001
0010
0100
0000
0010
0001
0000
0001
0010
0010
0100
0100
,  // measure 77
1001
0100
0010
0100
1000
0100
0010
0000
0100
1000
0000
1000
0100
0100
0010
0010
,  // measure 78
1001
0010
0100
0010
0001
0010
0100
0000
0010
0001
0000
0001
0010
0010
0100
0100
,  // measure 79
1001
0100
0010
0100
1000
0100
0010
0000
0100
1000
0000
1000
0100
0100
0010
0010
,  // measure 80
1001
0010
0100
0010
0001
0010
0100
0000
0010
0001
0000
0001
0010
0010
0100
0100
,  // measure 81
1001
0100
0010
0100
1000
0100
0010
0000
0100
1000
0000
1000
0100
0100
0010
0010
,  // measure 82
1001
0010
0100
0010
0001
0010
0100
0000
0010
0001
0000
0001
0010
0010
0100
0100
,  // measure 83
1000
0001
1000
0001
1000
0001
1000
0001
,  // measure 84
1000
0001
1000
0001
1000
0001
1000
0001
,  // measure 85
1000
0001
1000
0001
1000
0001
1000
0001
,  // measure 86
1000
0000
0000
0001
0000
0000
1000
0000
0000
0001
0000
0000
1000
0000
0001
0000
1000
0000
0001
0000
1000
0000
0001
0000
,  // measure 87
1000
0000
0100
0000
0010
0000
0001
0000
0010
0000
0100
0000
,  // measure 88
1000
0000
0100
0000
0010
0000
0001
0000
0010
0000
0100
0000
,  // measure 89
1000
0000
0100
0000
0010
0000
0001
0000
0010
0000
0100
0000
,  // measure 90
1000
0000
0100
0000
0010
0000
0001
0000
0010
0000
0100
0000
,  // measure 91
1000
0000
0100
0000
0010
0000
0001
0000
0010
0000
0100
0000
,  // measure 92
1000
0000
0100
0000
0010
0000
1000
0000
0000
0001
0000
0000
,  // measure 93
1000
0001
1000
0001
,  // measure 94
2002
0000
0000
3003
,  // measure 95
1000
0010
1000
0001
1000
0010
1001
0000
,  // measure 96
0001
0010
0000
0000
0010
0100
0000
0000
,  // measure 97
1010
0010
0011
0001
,  // measure 98
0101
0100
1100
1000
,  // measure 99
0001
0100
0001
1000
0001
0100
1001
0000
,  // measure 100
1000
0100
0000
0000
0100
0010
0000
0000
,  // measure 101
0101
0100
1100
1000
,  // measure 102
1010
0010
0011
0001
,  // measure 103
0010
0001
0010
0100
0010
0001
0110
0000
,  // measure 104
0100
0001
0000
0000
0001
1000
0000
0000
,  // measure 105
0100
1000
0100
0010
0100
1000
0110
0000
,  // measure 106
0010
1000
0000
0000
1000
0001
0100
0000
,  // measure 107
0100
1000
0100
0010
0100
1000
0110
0000
,  // measure 108
0010
1000
0000
0000
1000
0001
0000
0000
,  // measure 109
2200
0000
0000
3300
0000
0000
2002
0000
,  // measure 110
0000
3003
0000
0000
0202
0000
0000
0303
,  // measure 111
2002
0000
0000
3003
,  // measure 112
0001
0010
0000
0000
0010
0100
0000
0000
,  // measure 113
0022
0000
0000
0033
0000
0000
2002
0000
,  // measure 114
0000
3003
0000
0000
2020
0000
0000
3030
,  // measure 115
0001
0100
0001
1000
0001
0100
1001
0000
,  // measure 116
1000
0100
0000
0000
0100
0010
0000
0000
,  // measure 117
0101
0100
1100
1000
,  // measure 118
1010
0010
0011
0001
,  // measure 119
0010
0001
0010
0100
0010
0001
0110
0000
,  // measure 120
0100
0001
0000
0000
0001
1000
0000
0000
,  // measure 121
0100
1000
0100
0010
0100
1000
0110
0000
,  // measure 122
0010
1000
0000
0000
1000
0001
0100
0000
,  // measure 123
1000
0000
0000
0100
0000
0000
0001
0000
0000
0010
0000
0000
0100
0000
0000
0010
0000
0000
0001
0000
0010
0000
0100
0000
,  // measure 124
0001
0000
0000
0010
0000
0000
1000
0000
0000
0100
0000
0000
0010
0000
0000
0100
0000
0000
1000
0000
0100
0000
0010
0000
,  // measure 125
0100
0000
0000
0001
0000
0000
0010
0000
0000
1000
0000
0000
0001
0000
0000
1000
0000
0000
0010
0000
1000
0000
0001
0000
,  // measure 126
0010
0000
0000
1000
0000
0000
0100
0000
0000
0001
0000
0000
1000
0000
0000
0001
0000
0000
0100
0000
0001
0000
1000
0000
,  // measure 127
0010
0100
0010
0100
0110
0000
1000
0010
,  // measure 128
1000
0010
1010
0000
0001
0010
0100
1000
,  // measure 129
0110
0000
0010
0001
0010
0100
1001
0000
,  // measure 130
1000
0000
0000
0100
0000
0000
0010
0000
0000
0001
0000
0000
1000
0000
0001
0000
1000
0000
0001
0000
1000
0000
0001
0000
,  // measure 131
0100
0010
0100
0010
0110
0000
0001
0100
,  // measure 132
0001
0100
0101
0000
1000
0100
0010
0001
,  // measure 133
0110
0000
0100
1000
0100
0010
1001
0000
,  // measure 134
0001
0000
0000
0010
0000
0000
0100
0000
0000
1000
0000
0000
0001
0000
1000
0000
0001
0000
1000
0000
0001
0000
1000
0000
,  // measure 135
0001
1000
0001
1000
1001
0000
0010
0001
,  // measure 136
0010
0001
0011
0000
0100
0001
1000
0010
,  // measure 137
1001
0000
0001
0100
0001
1000
0110
0000
,  // measure 138
0010
0000
0000
1000
0000
0000
0001
0000
0000
0100
0000
0000
0010
0000
0100
0000
0010
0000
0100
0000
0010
0000
0100
0000
,  // measure 139
1000
0001
1000
0001
1001
0000
0100
1000
,  // measure 140
0100
1000
1100
0000
0010
1000
0001
0100
,  // measure 141
1010
0000
0000
0000
1010
0000
0100
0000
1010
0000
0100
0000
,  // measure 142
0101
0000
0000
0000
0101
0000
0010
0000
0101
0000
0010
0000
,  // measure 143
2002
0000
0000
0000
0000
0000
0000
0000
0000
3003
0000
0000
1000
0000
0000
0000
0001
0000
0000
0000
1000
0000
0000
0000
,  // measure 144
0220
0000
0000
0000
0000
0000
0000
0000
0000
0330
0000
0000
0100
0000
0000
0000
0010
0000
0000
0000
0100
0000
0000
0000
,  // measure 145
2002
0000
0000
3003
,  // measure 146
0001
1000
0001
1000
,  // measure 147
0220
0000
0000
0000
,  // measure 148
0000
0000
0000
0330
,  // measure 149
0010
0000
0100
0000
,  // measure 150
0010
0000
0100
0000
,  // measure 151
1010
0020
1000
0030
0011
0020
0001
0030
,  // measure 152
1100
0001
1000
0020
0100
0030
0101
0200
,  // measure 153
0001
0300
1100
0200
1000
0300
0011
1000
,  // measure 154
0001
0100
0010
1000
0100
0010
0220
0000
,  // measure 155
0000
0330
2002
3003
,  // measure 156
0011
0010
1100
0200
0010
0300
1000
0001
,  // measure 157
1000
0001
1000
0001
1000
0001
1000
0001
1000
0001
1000
0001
,  // measure 158
2002
0000
0000
0000
,  // measure 159
3003
0000
0000
0000
;

//---------------dance-single - ----------------
#NOTEDATA:;
#CHARTNAME:;
#STEPSTYPE:dance-single;
#DESCRIPTION:;
#CHARTSTYLE:;
#DIFFICULTY:Hard;
#METER:21;
#RADARVALUES:1.405320,5.016133,1.340790,0.523410,1.254750,1372.000000,1185.000000,187.000000,73.000000,0.000000,0.000000,0.000000,0.000000,0.000000,1.405320,5.016133,1.340790,0.523410,1.254750,1372.000000,1185.000000,187.000000,73.000000,0.000000,0.000000,0.000000,0.000000,0.000000;
#CREDIT:Dr.Bright overground;
#DISPLAYBPM:*;
#NOTES:
// measure 0
1002
0100
0010
1003
0002
0100
0010
0103
2001
0010
0100
3001
2000
0010
0100
3010
0210
1000
0001
0310
0200
1000
0001
1300
0120
0001
1000
0130
0020
0001
1000
0031
2001
0010
0100
3001
2000
0010
0100
3010
1002
0100
0010
1003
0002
0100
0010
0103
0120
0001
1000
0130
0020
0001
1000
0031
0210
1000
0001
0310
0200
1000
0001
1300
,  // measure 1
0120
0100
0100
0100
0230
0001
0001
0001
2300
0010
0001
0010
0002
0000
0000
0000
0000
0000
3003
0000
0000
0000
0000
0000
0000
0000
0000
0000
0000
0000
0000
0000
,  // measure 2
1001
0001
1000
0001
1000
0000
0001
0010
0100
0010
1001
0000
1000
0100
0010
0100
,  // measure 3
1001
0000
0001
0010
0100
0010
1001
0000
1000
0100
1000
0100
0001
0100
0001
0100
,  // measure 4
1001
1000
0001
1000
0001
0000
1000
0100
0010
0100
1001
0000
0001
0010
0100
0010
,  // measure 5
1001
0000
1000
0100
0010
0100
1001
0000
0001
0010
0001
0010
1000
0010
1000
0010
,  // measure 6
0200
0010
0010
0020
0000
0000
0000
0000
,  // measure 7
0000
0000
0000
0000
0000
0000
0000
0330
,  // measure 8
1001
0000
0001
1000
0001
0000
1001
0000
0010
0100
0010
0000
1001
0000
0110
0000
,  // measure 9
0000
0000
0000
0000
0000
0000
1001
0000
0000
0000
0000
0000
1000
0000
0000
0001
0000
0000
1000
0000
0000
0000
0000
0000
1000
0000
0000
0100
0000
0000
0010
0000
0000
0001
0000
0000
1000
0000
0100
0000
0010
0000
0001
0000
1000
0000
0001
0000
,  // measure 10
1000
0001
1000
0100
0010
0000
0001
0000
,  // measure 11
0100
0010
1000
0010
0100
0000
0101
0010
,  // measure 12
0001
0101
0100
0101
,  // measure 13
1000
0001
1000
0001
1000
0001
2000
0000
,  // measure 14
0010
0010
0010
3010
,  // measure 15
0001
0100
0001
0100
0000
0000
1001
0001
,  // measure 16
1000
1001
0001
0101
,  // measure 17
0100
0010
0100
0001
1000
0001
1000
0010
,  // measure 18
0001
1000
0001
0010
0100
0000
1000
0000
,  // measure 19
0010
0100
0001
0100
0010
0000
1010
0100
,  // measure 20
1000
1010
0010
1010
,  // measure 21
0001
1000
0001
1000
0001
1000
0002
0000
,  // measure 22
0100
0100
0100
0103
,  // measure 23
1000
0010
1000
0010
0000
0000
1001
1000
,  // measure 24
0001
1001
1000
1010
,  // measure 25
0010
0100
0010
1000
0001
1000
0001
0100
,  // measure 26
0020
0100
0000
0000
0100
0000
0130
1000
,  // measure 27
0100
0001
0010
0001
0010
0100
0001
1000
,  // measure 28
0001
0010
0100
1000
0001
0010
0100
1000
,  // measure 29
0001
0000
0000
0010
0000
0000
0100
0000
0000
1000
0000
0000
0001
0000
0010
0000
0100
0000
1000
0000
0001
0000
1000
0000
,  // measure 30
0120
0001
0030
0000
0011
0000
0002
1000
,  // measure 31
0003
0000
2001
0010
3000
0000
1020
0100
,  // measure 32
1030
0100
0001
0100
0010
0001
0010
1000
,  // measure 33
0001
0010
1000
0010
0100
1000
0100
0001
,  // measure 34
0200
0010
0000
0000
0010
0000
0310
0001
,  // measure 35
0010
1000
0100
1000
0100
0010
1000
0001
,  // measure 36
1000
0100
0010
0001
1000
0100
0010
0001
,  // measure 37
1000
0000
0000
0100
0000
0000
0010
0000
0000
0001
0000
0000
1000
0000
0100
0000
0010
0000
0001
0000
1000
0000
0001
0000
,  // measure 38
2100
0001
0010
0000
0001
0000
0100
0000
,  // measure 39
0010
0001
0100
3010
,  // measure 40
0001
0010
1000
0010
0100
1000
0100
0001
,  // measure 41
1000
0100
0001
0100
0010
0001
0010
1000
,  // measure 42
1001
1001
1001
1010
,  // measure 43
1000
1001
0001
0101
,  // measure 44
0100
1001
1001
0110
,  // measure 45
2002
3003
1001
1001
,  // measure 46
1001
1010
1000
1001
,  // measure 47
0001
0101
0100
1001
,  // measure 48
1001
0101
1001
1010
,  // measure 49
1001
1001
1001
0101
,  // measure 50
0001
1001
1000
1010
,  // measure 51
0010
1001
1001
0110
,  // measure 52
2002
3003
1001
1001
,  // measure 53
1001
0101
0001
2002
,  // measure 54
0000
3003
1001
0000
,  // measure 55
1001
0000
0000
0000
0100
0000
0000
0000
1010
0000
0000
0000
,  // measure 56
0001
0000
0000
0000
0101
0000
0000
0000
1000
0000
0000
0000
,  // measure 57
1010
0000
0000
0000
0100
0000
0000
0000
0011
0000
0000
0000
,  // measure 58
0001
0000
0000
0000
1010
0000
0000
0000
0100
0000
0000
0000
,  // measure 59
0220
0000
0000
0000
0000
0000
0000
0330
,  // measure 60
0220
0000
0000
0000
0000
0000
0000
0330
,  // measure 61
0220
0000
0000
0000
0000
0000
0000
0330
,  // measure 62
0220
0000
0000
0000
0000
0000
0000
0330
,  // measure 63
1000
0001
1000
0001
1000
0001
1000
0001
1000
0001
1000
0001
1000
0001
1000
0001
,  // measure 64
1000
0100
0010
0100
1000
0100
0010
0100
1000
0100
0010
0100
1000
0100
0010
0100
,  // measure 65
0001
0010
0100
0010
0001
0010
0100
0010
0001
0010
0100
0010
0001
0010
0100
0010
,  // measure 66
1001
0001
0000
0110
0100
0000
1001
0000
1100
1000
0000
0110
0010
0000
0011
0000
,  // measure 67
1000
0100
1000
0001
0010
0001
0000
0001
0010
1000
0000
0010
0100
0010
1000
0100
,  // measure 68
0001
0010
0001
1000
0100
1000
0000
1000
0100
0001
0000
0100
0010
0100
0001
0010
,  // measure 69
0100
0001
0100
0010
1000
0010
0000
0010
1000
0100
0000
1000
0001
1000
0100
0001
,  // measure 70
0010
1000
0010
0100
0001
0100
0000
0100
0001
0010
0000
0001
1000
0001
0010
1000
,  // measure 71
1000
0100
1000
0001
0010
0001
0000
0001
0010
1000
0000
0010
0100
0010
1000
0100
,  // measure 72
0001
0010
0001
1000
0100
1000
0000
1000
0100
0001
0000
0100
0010
0100
0001
0010
,  // measure 73
0100
0001
0100
0010
1000
0010
0000
0010
1000
0100
0000
1000
0001
1000
0100
0001
,  // measure 74
0010
1000
0010
0100
0001
0100
0000
0100
0001
0010
0000
0001
1000
0001
0010
1000
,  // measure 75
1001
0100
0010
0100
1000
0100
0010
0000
0100
1000
0010
1000
0100
0100
0010
0010
,  // measure 76
1001
0010
0100
0010
0001
0010
0100
0000
0010
0001
0100
0001
0010
0010
0100
0100
,  // measure 77
1001
0100
0010
0100
1000
0100
0010
0000
0100
1000
0010
1000
0100
0100
0010
0010
,  // measure 78
1001
0010
0100
0010
0001
0010
0100
0000
0010
0001
0100
0001
0010
0010
0100
0100
,  // measure 79
1001
0100
0010
0100
1000
0100
0010
0000
0100
1000
0010
1000
0100
0100
0010
0010
,  // measure 80
1001
0010
0100
0010
0001
0010
0100
0000
0010
0001
0100
0001
0010
0010
0100
0100
,  // measure 81
1001
0100
0010
0100
1000
0100
0010
0000
0100
1000
0010
1000
0100
0100
0010
0010
,  // measure 82
1001
0010
0100
0010
0001
0010
0100
0000
0010
0001
0100
0001
0010
0010
0100
0100
,  // measure 83
1000
0001
1000
0001
1000
0001
1000
0001
,  // measure 84
1000
0000
0000
0001
0000
0000
1000
0000
0000
0001
0000
0000
1000
0000
0001
0000
1000
0000
0001
0000
1000
0000
0001
0000
,  // measure 85
1000
0001
1000
0001
1000
0001
1000
0001
,  // measure 86
1000
0000
0000
0001
0000
0000
1000
0000
0000
0001
0000
0000
1000
0000
0001
0000
1000
0000
0001
0000
1000
0000
0001
0000
,  // measure 87
1000
0000
0100
0000
1000
0000
0001
0000
0010
0000
0100
0000
,  // measure 88
0001
0000
0010
0000
0001
0000
1000
0000
0100
0000
0010
0000
,  // measure 89
0001
0000
1000
0000
0100
0000
1000
0000
0001
0000
1000
0000
,  // measure 90
0100
0000
0001
0000
0010
0000
0001
0000
1000
0000
0001
0000
,  // measure 91
1000
0000
0100
0000
0001
0000
0100
0000
1000
0000
0001
0000
,  // measure 92
1000
0000
0100
0000
0001
0000
0010
0000
1000
0000
0010
0000
,  // measure 93
0001
0000
0010
0000
1000
0000
0100
0000
0001
0000
0100
0000
,  // measure 94
2002
0000
0000
3003
,  // measure 95
1000
0010
1000
0001
1000
0010
1001
0000
,  // measure 96
0001
0110
0000
0000
0010
1100
0000
0000
,  // measure 97
1010
0100
0010
0000
0011
0000
0001
0000
,  // measure 98
0101
0010
0100
0000
1100
0000
1000
0000
,  // measure 99
0001
0100
0001
1000
0001
0100
1001
0000
,  // measure 100
1000
0110
0000
0000
0100
0011
0000
0000
,  // measure 101
0101
0010
0100
0000
1100
0000
1000
0000
,  // measure 102
1010
0100
0010
0000
0011
0000
0001
0000
,  // measure 103
0010
0001
0010
0100
0010
0001
0110
0000
,  // measure 104
0100
0011
0000
0000
0001
1100
0000
0000
,  // measure 105
0100
1000
0100
0010
0100
1000
0110
0000
,  // measure 106
0010
1100
0000
0000
1000
0011
0100
0000
,  // measure 107
0100
1000
0100
0010
0100
1000
0110
0000
,  // measure 108
0010
1100
0000
0000
1000
0011
0000
0000
,  // measure 109
2200
0000
0000
0000
0000
3300
2002
0000
,  // measure 110
0000
0000
0000
3003
0202
0000
0000
0303
,  // measure 111
2002
0000
0000
3003
,  // measure 112
0001
0110
0000
0000
0010
1100
0000
0000
,  // measure 113
0022
0000
0000
0000
0000
0033
2002
0000
,  // measure 114
0000
0000
0000
3003
2020
0000
0000
3030
,  // measure 115
0001
0100
0001
1000
0001
0100
1001
0000
,  // measure 116
1000
0110
0000
0000
0100
0011
0000
0000
,  // measure 117
0101
0010
0100
0000
1100
0000
1000
0000
,  // measure 118
1010
0100
0010
0000
0011
0000
0001
0000
,  // measure 119
0010
0001
0010
0100
0010
0001
0110
0000
,  // measure 120
0100
0011
0000
0000
0001
1100
0000
0000
,  // measure 121
0100
1000
0100
0010
0100
1000
0110
0000
,  // measure 122
0010
1100
0000
0000
1000
0011
0100
0000
,  // measure 123
1001
0000
0000
0100
0000
0000
0001
0000
0000
0010
0000
0000
0100
0000
0000
0010
0000
0000
0001
0000
0010
0000
0100
0000
,  // measure 124
1001
0000
0000
0010
0000
0000
1000
0000
0000
0100
0000
0000
0010
0000
0000
0100
0000
0000
1000
0000
0100
0000
0010
0000
,  // measure 125
0110
0000
0000
0001
0000
0000
0010
0000
0000
1000
0000
0000
0001
0000
0000
1000
0000
0000
0010
0000
1000
0000
0001
0000
,  // measure 126
0110
0000
0000
1000
0000
0000
0100
0000
0000
0001
0000
0000
1000
0000
0000
0001
0000
0000
0100
0000
0001
0000
1000
0000
,  // measure 127
0010
0100
0010
0100
0110
0000
1000
0010
,  // measure 128
1000
0010
1010
0000
0001
0010
0100
1000
,  // measure 129
0110
0000
0010
0001
0010
0100
1001
0000
,  // measure 130
1001
0000
0000
0100
0000
0000
0010
0000
0000
0001
0000
0000
1000
0000
0001
0000
1000
0000
0001
0000
1000
0000
0001
0000
,  // measure 131
0100
0010
0100
0010
0110
0000
0001
0100
,  // measure 132
0001
0100
0101
0000
1001
0100
0010
0001
,  // measure 133
0110
0000
0100
1000
0100
0010
1001
0000
,  // measure 134
1001
0000
0000
0010
0000
0000
0100
0000
0000
1000
0000
0000
0001
0000
1000
0000
0001
0000
1000
0000
0001
0000
1000
0000
,  // measure 135
0001
1000
0001
1000
1001
0000
0010
0001
,  // measure 136
0010
0001
0011
0000
0100
0001
1000
0010
,  // measure 137
1001
0000
0001
0100
0001
1000
0110
0000
,  // measure 138
0110
0000
0000
1000
0000
0000
0001
0000
0000
0100
0000
0000
0010
0000
0100
0000
0010
0000
0100
0000
0010
0000
0100
0000
,  // measure 139
1000
0001
1000
0001
1001
0000
0100
1000
,  // measure 140
0100
1000
1100
0000
0010
1000
0001
0100
,  // measure 141
1010
0000
0100
0000
1010
0000
0001
0000
0110
0000
1000
0000
,  // measure 142
0101
0000
0010
0000
0101
0000
1000
0000
0110
0000
0001
0000
,  // measure 143
1000
0001
1000
0001
1000
0001
1000
0001
1000
0001
1000
0001
,  // measure 144
0100
0010
0100
0010
0100
0010
0100
0010
0100
0010
0100
0010
,  // measure 145
1000
0001
1000
0001
1000
0001
1000
0001
,  // measure 146
1000
0001
1000
0001
1000
0001
1000
0001
,  // measure 147
0010
0100
0010
0100
,  // measure 148
0010
0100
0010
0100
,  // measure 149
0010
0100
0010
0100
,  // measure 150
0010
0100
0010
0100
,  // measure 151
1010
0020
1000
0030
0011
0020
0001
0030
,  // measure 152
1100
0001
1100
0020
0100
0030
0101
0200
,  // measure 153
0001
0300
1100
0200
1000
0300
0011
1000
,  // measure 154
0011
0100
0010
1000
0100
0010
0220
0000
,  // measure 155
0000
0000
0000
0330
2002
0000
0000
3003
,  // measure 156
0011
0010
1100
0200
0010
0300
1000
0001
,  // measure 157
1000
0000
0000
0000
0001
0000
0000
0000
1000
0000
0000
0000
0001
0000
0000
0000
1000
0000
0000
0000
0001
0000
0000
0000
1000
0000
0000
0001
0000
0000
1000
0000
0000
0001
0000
0000
1000
0000
0000
0001
0000
0000
1000
0000
0000
0001
0000
0000
,  // measure 158
2002
0000
0000
0000
,  // measure 159
3003
0000
0000
0000
;

//---------------dance-single - ----------------
#NOTEDATA:;
#CHARTNAME:;
#STEPSTYPE:dance-single;
#DESCRIPTION:;
#CHARTSTYLE:;
#DIFFICULTY:Challenge;
#METER:23;
#RADARVALUES:1.508773,5.586148,1.434000,0.738510,1.419660,1473.000000,1273.000000,200.000000,103.000000,0.000000,0.000000,0.000000,0.000000,0.000000,1.508773,5.586148,1.434000,0.738510,1.419660,1473.000000,1273.000000,200.000000,103.000000,0.000000,0.000000,0.000000,0.000000,0.000000;
#CREDIT:Dr.Bright overground undercover;
#DISPLAYBPM:*;
#NOTES:
// measure 0
1002
0100
0010
1003
0002
0100
0010
0103
2001
0010
0100
3001
2000
0010
0100
3010
0210
1000
0001
0310
0200
1000
0001
1300
0120
0001
1000
0130
0020
0001
1000
0031
2001
0010
0100
3001
2000
0010
0100
3010
1002
0100
0010
1003
0002
0100
0010
0103
0120
0001
1000
0130
0020
0001
1000
0031
0210
1000
0001
0310
0200
1000
0001
1300
,  // measure 1
0120
0001
1000
0000
0100
1000
0001
0000
0230
0010
0001
0010
1000
0010
0001
0010
2300
0001
0010
0100
0001
0010
0100
0010
0002
0000
0000
0000
0000
0000
0000
0000
0000
0000
0000
0000
0000
0000
0000
0000
0000
0000
0000
0000
0000
0000
0000
0000
0000
0000
0000
0000
0000
0000
0000
0000
0000
0000
0000
0000
0000
0000
0000
3003
,  // measure 2
1001
0001
1000
0001
1000
0000
0001
0010
0100
0010
1001
0000
1000
0100
0010
0100
,  // measure 3
1001
0000
0001
0010
0100
0010
1001
0000
1100
0100
1000
0100
0101
0100
0001
0100
,  // measure 4
1001
1000
0001
1000
0001
0000
1000
0100
0010
0100
1001
0000
0001
0010
0100
0010
,  // measure 5
1001
0000
1000
0100
0010
0100
1001
0000
0011
0010
0001
0010
1010
0010
1000
0010
,  // measure 6
0200
0010
0010
0020
0000
0000
0000
0000
,  // measure 7
0000
0000
0000
0000
0000
0000
0000
0330
,  // measure 8
1001
0000
0001
1000
0001
0000
1001
0000
0010
0100
0010
0000
1001
0000
0110
0000
,  // measure 9
1001
0000
0000
0000
0000
0000
1001
0000
0000
0000
0000
0000
1000
0000
0000
0001
0000
0000
1000
0000
0000
0000
0000
0000
1000
0000
0000
0100
0000
0000
0010
0000
0000
0001
0000
0000
1000
0000
0100
0000
0010
0000
0001
0000
1000
0000
0001
0000
,  // measure 10
1000
0001
1000
0100
0010
0100
0001
0000
,  // measure 11
0100
0010
1000
0010
0100
0000
0101
0010
,  // measure 12
0001
0000
0101
0000
0100
0000
0101
0010
,  // measure 13
1000
0001
1000
0001
1000
0001
2000
0000
,  // measure 14
0010
0010
0010
3010
,  // measure 15
0001
0100
0001
0100
0000
0000
1001
0001
,  // measure 16
1000
1001
0001
0101
,  // measure 17
0100
0010
0100
0001
1000
0001
1000
0010
,  // measure 18
0001
1000
0001
0010
0100
0010
1000
0000
,  // measure 19
0010
0100
0001
0100
0010
0000
1010
0100
,  // measure 20
1000
0000
1010
0000
0010
0000
1010
0100
,  // measure 21
0001
1000
0001
1000
0001
1000
0002
0000
,  // measure 22
0100
0100
0100
0103
,  // measure 23
1000
0010
1000
0010
0000
0000
1001
1000
,  // measure 24
0001
0000
1001
0001
1000
0000
1010
0100
,  // measure 25
0010
0000
0000
0100
0000
0000
0010
0000
0000
1000
0000
0000
0001
0000
0000
1000
0000
0000
0001
0000
0100
0000
0001
0000
,  // measure 26
0020
0100
0000
0000
0100
0000
0130
1000
,  // measure 27
0100
0001
0010
0001
0010
0100
0001
1000
,  // measure 28
0001
0010
0100
1000
0001
0010
0100
1000
,  // measure 29
0001
0010
0100
1000
0001
0010
0100
1000
0001
0010
0100
1000
,  // measure 30
0120
0001
0030
0000
0011
0000
0002
1000
,  // measure 31
0003
0000
2001
0010
3000
0000
1020
0100
,  // measure 32
1030
0100
0001
0100
0010
0001
0010
1000
,  // measure 33
0001
0010
1000
0010
0100
1000
0100
0001
,  // measure 34
0200
0010
0000
0000
0010
0000
0310
0001
,  // measure 35
0010
1000
0100
1000
0100
0010
1000
0001
,  // measure 36
1000
0100
0010
0001
1000
0100
0010
0001
,  // measure 37
1000
0100
0010
0001
1000
0100
0010
0001
1000
0100
0010
0001
,  // measure 38
2100
0001
0010
0000
0001
0000
0100
0000
,  // measure 39
0010
0001
0100
3010
,  // measure 40
0001
0010
1000
0010
0100
1000
0100
0001
,  // measure 41
1000
0100
0001
0100
0010
0001
0010
1000
,  // measure 42
1001
0010
1001
0000
1001
0000
1010
0000
,  // measure 43
1000
1001
0001
0101
,  // measure 44
0100
1001
1001
0110
,  // measure 45
2002
0000
3003
0000
1001
0100
1001
0000
,  // measure 46
1001
1010
1000
1001
,  // measure 47
0001
0101
0100
1001
,  // measure 48
1001
0101
1001
1010
,  // measure 49
1001
0010
1001
0000
1001
0000
0101
0000
,  // measure 50
0001
1001
1000
1010
,  // measure 51
0010
1001
1001
0110
,  // measure 52
2002
0000
3003
0000
1001
0100
1001
0000
,  // measure 53
1001
0101
0001
2002
,  // measure 54
0000
3003
1001
0010
,  // measure 55
1001
0000
0000
0000
0100
0000
0000
0000
1010
0000
0000
0000
,  // measure 56
0001
0000
0000
0000
0101
0000
0000
0000
1000
0000
0000
0000
,  // measure 57
1010
0000
0000
0000
0100
0000
0000
0000
0011
0000
0000
0000
,  // measure 58
0001
0000
0000
0000
1010
0000
0000
0000
0100
0000
0000
0000
,  // measure 59
0220
0000
0000
0030
0010
0010
0010
0310
,  // measure 60
2020
0000
0000
3000
1000
1000
1000
1030
,  // measure 61
0202
0000
0000
0003
0001
0001
0001
0301
,  // measure 62
0220
0000
0000
0300
0100
0100
0100
0130
,  // measure 63
1000
0000
0000
0001
0000
0000
1000
0000
0000
0001
0000
0000
1000
0000
0000
0001
0000
0000
1000
0000
0000
0001
0000
0000
1000
0000
0000
0001
0000
0000
1000
0000
0000
0001
0000
0000
1000
0000
0001
0000
1000
0000
0001
0000
1000
0000
0001
0000
,  // measure 64
1000
0000
0000
0100
0000
0000
0010
0000
0000
0100
0000
0000
1000
0000
0000
0100
0000
0000
0010
0000
0000
0100
0000
0000
1000
0000
0000
0100
0000
0000
0010
0000
0000
0100
0000
0000
1000
0000
0100
0000
0010
0000
0100
0000
1000
0000
0100
0000
,  // measure 65
0001
0000
0000
0010
0000
0000
0100
0000
0000
0010
0000
0000
0001
0000
0000
0010
0000
0000
0100
0000
0000
0010
0000
0000
0001
0000
0000
0010
0000
0000
0100
0000
0000
0010
0000
0000
0001
0000
0010
0000
0100
0000
0010
0000
0001
0000
0010
0000
,  // measure 66
1001
0001
0000
0110
0100
0000
1001
0000
1100
1000
0000
0110
0010
0000
0011
0000
,  // measure 67
1000
0100
1000
0001
0010
0001
1000
0001
0010
1000
0000
0010
0100
0010
1000
0100
,  // measure 68
0001
0010
0001
1000
0100
1000
0001
1000
0100
0001
0000
0100
0010
0100
0001
0010
,  // measure 69
0100
0001
0100
0010
1000
0010
0100
0010
1000
0100
0000
1000
0001
1000
0100
0001
,  // measure 70
0010
1000
0010
0100
0001
0100
0010
0100
0001
0010
0000
0001
1000
0001
0010
1000
,  // measure 71
1000
0100
1000
0001
0010
0001
1000
0001
0010
1000
0000
0010
0100
0010
1000
0100
,  // measure 72
0001
0010
0001
1000
0100
1000
0001
1000
0100
0001
0000
0100
0010
0100
0001
0010
,  // measure 73
0100
0001
0100
0010
1000
0010
0100
0010
1000
0100
0000
1000
0001
1000
0100
0001
,  // measure 74
0010
1000
0010
0100
0001
0100
0010
0100
0001
0010
0000
0001
1000
0001
0010
1000
,  // measure 75
1001
0100
0010
0100
1000
0100
0010
0010
0100
1000
0010
1000
0100
0100
0010
0010
,  // measure 76
1001
0010
0100
0010
0001
0010
0100
1000
0010
0001
0100
0001
0010
0010
0100
0100
,  // measure 77
1001
0100
0010
0100
1000
0100
0010
0001
0100
1000
0010
1000
0100
0100
0010
0010
,  // measure 78
1001
0010
0100
0010
0001
0010
0100
1000
0010
0001
0100
0001
0010
0010
0100
0100
,  // measure 79
1001
0100
0010
0100
1000
0100
0010
0001
0100
1000
0010
1000
0100
0100
0010
0010
,  // measure 80
1001
0010
0100
0010
0001
0010
0100
1000
0010
0001
0100
0001
0010
0010
0100
0100
,  // measure 81
1001
0100
0010
0100
1000
0100
0010
0001
0100
1000
0010
1000
0100
0100
0010
0010
,  // measure 82
1001
0010
0100
0010
0001
0010
0100
1000
0010
0001
0100
0001
0010
0010
0100
0100
,  // measure 83
1000
0000
0100
0000
0010
0000
0001
0000
0100
0000
0010
0000
1000
0000
0000
0001
0000
0000
1000
0000
0000
0001
0000
0000
,  // measure 84
1000
0000
0000
0001
0000
0000
1000
0000
0000
0001
0000
0000
1000
0000
0001
0000
1000
0000
0001
0000
1000
0000
0001
0000
,  // measure 85
1000
0000
0100
0000
0010
0000
0001
0000
0100
0000
0010
0000
1000
0000
0000
0001
0000
0000
1000
0000
0000
0001
0000
0000
,  // measure 86
1000
0000
0000
0001
0000
0000
1000
0000
0000
0001
0000
0000
1000
0000
0001
0000
1000
0000
0001
0000
1000
0000
0001
0000
,  // measure 87
1000
0000
0100
0000
1000
0000
0001
0000
0010
0000
0100
0000
,  // measure 88
0001
0000
0010
0000
0001
0000
1000
0000
0100
0000
0010
0000
,  // measure 89
0001
0000
1000
0000
0100
0000
1000
0000
0001
0000
1000
0000
,  // measure 90
0100
0000
0001
0000
0010
0000
0001
0000
1000
0000
0001
0000
,  // measure 91
1000
0000
0100
0000
0001
0000
0100
0000
1000
0000
0001
0000
,  // measure 92
1000
0000
0100
0000
0001
0000
0010
0000
1000
0000
0010
0000
,  // measure 93
0001
0000
0010
0000
1000
0000
0100
0000
0001
0000
0100
0000
,  // measure 94
1000
0001
1000
0001
,  // measure 95
1000
0010
1000
0001
1000
0010
1001
0000
,  // measure 96
0001
0220
0000
0330
0010
2200
0000
3300
,  // measure 97
1010
0100
0010
0000
0011
0100
0001
0000
,  // measure 98
0101
0010
0100
0000
1100
0010
1000
0000
,  // measure 99
0001
0100
0001
1000
0001
0100
1001
0000
,  // measure 100
1000
0220
0000
0330
0100
0022
0000
0033
,  // measure 101
0101
0010
0100
0000
1100
0010
1000
0000
,  // measure 102
1010
0100
0010
0000
0011
0100
0001
0000
,  // measure 103
0010
0001
0010
0100
0010
0001
0110
0000
,  // measure 104
0100
0022
0000
0033
0001
2200
0000
3300
,  // measure 105
0100
1000
0100
0010
0100
1000
0110
0000
,  // measure 106
0010
2200
0000
3300
1000
0011
0100
0000
,  // measure 107
0100
1000
0100
0010
0100
1000
0110
0000
,  // measure 108
0010
2200
0000
3300
1000
0022
0000
0033
,  // measure 109
2200
0000
0000
0000
0000
3300
2002
0000
,  // measure 110
0000
0000
0000
3003
0202
0000
0000
0303
,  // measure 111
2002
0000
0000
3003
,  // measure 112
0001
0220
0000
0330
0010
2200
0000
3300
,  // measure 113
0022
0000
0000
0000
0000
0033
2002
0000
,  // measure 114
0000
0000
0000
3003
2020
0000
0000
3030
,  // measure 115
0001
0100
0001
1000
0001
0100
1001
0000
,  // measure 116
1000
0220
0000
0330
0100
0022
0000
0033
,  // measure 117
0101
0010
0100
0000
1100
0010
1000
0000
,  // measure 118
1010
0100
0010
0000
0011
0100
0001
0000
,  // measure 119
0010
0001
0010
0100
0010
0001
0110
0000
,  // measure 120
0100
0022
0000
0033
0001
2200
0000
3300
,  // measure 121
0100
1000
0100
0010
0100
1000
0110
0000
,  // measure 122
0010
2200
0000
3300
1000
0011
0100
0000
,  // measure 123
1001
0000
0000
0100
0000
0000
0001
0000
0000
0010
0000
0000
1100
0000
0000
0010
0000
0000
0001
0000
0010
0000
0100
0000
,  // measure 124
1001
0000
0000
0010
0000
0000
1000
0000
0000
0100
0000
0000
0011
0000
0000
0100
0000
0000
1000
0000
0100
0000
0010
0000
,  // measure 125
0110
0000
0000
0001
0000
0000
0010
0000
0000
1000
0000
0000
0101
0000
0000
1000
0000
0000
0010
0000
1000
0000
0001
0000
,  // measure 126
0110
0000
0000
1000
0000
0000
0100
0000
0000
0001
0000
0000
1010
0000
0000
0001
0000
0000
0100
0000
0001
0000
1000
0000
,  // measure 127
0010
0100
0010
0100
0110
0000
1000
0010
,  // measure 128
1000
0010
1010
0000
0001
0010
0100
1000
,  // measure 129
0110
0000
0010
0001
0010
0100
1001
0000
,  // measure 130
1001
0000
0000
0100
0000
0000
0010
0000
0000
0001
0000
0000
1000
0000
0001
0000
1000
0000
0001
0000
1000
0000
0001
0000
,  // measure 131
0100
0010
0100
0010
0110
0000
0001
0100
,  // measure 132
0001
0100
0101
0000
1001
0100
0010
0001
,  // measure 133
0110
0000
0100
1000
0100
0010
1001
0000
,  // measure 134
1001
0000
0000
0010
0000
0000
0100
0000
0000
1000
0000
0000
0001
0000
1000
0000
0001
0000
1000
0000
0001
0000
1000
0000
,  // measure 135
0001
1000
0001
1000
1001
0000
0010
0001
,  // measure 136
0010
0001
0011
0000
0100
0001
1000
0010
,  // measure 137
1001
0000
0001
0100
0001
1000
0110
0000
,  // measure 138
0110
0000
0000
1000
0000
0000
0001
0000
0000
0100
0000
0000
0010
0000
0100
0000
0010
0000
0100
0000
0010
0000
0100
0000
,  // measure 139
1000
0001
1000
0001
1001
0000
0100
1000
,  // measure 140
0100
1000
1100
0000
0010
1000
0001
0100
,  // measure 141
1010
0000
0100
0000
1010
0000
0001
0000
0110
0000
1000
0000
,  // measure 142
0101
0000
0010
0000
0101
0000
1000
0000
0110
0000
0001
0000
,  // measure 143
1000
0100
0001
0100
1000
0100
0001
0100
1000
0100
0001
0100
1000
0100
0001
0100
,  // measure 144
0010
1000
0100
1000
0010
1000
0100
1000
0010
1000
0100
1000
0010
1000
0100
1000
,  // measure 145
0101
0010
1000
0100
0010
0100
0001
0100
,  // measure 146
0010
1000
0100
0001
0010
0100
1000
0001
,  // measure 147
0110
1000
0001
0010
,  // measure 148
1100
0010
0001
0100
,  // measure 149
0011
0100
1000
0010
,  // measure 150
1001
0100
0001
0100
,  // measure 151
1010
0020
1000
0030
0011
0020
0001
0030
,  // measure 152
1100
0001
0110
0020
0100
0030
0101
0200
,  // measure 153
0001
0300
1100
0200
1000
0300
0011
1000
,  // measure 154
0110
0000
0000
0100
0000
0000
0010
0000
0000
1000
0000
0000
0100
0000
0010
0000
0100
0000
0220
0000
0000
0000
0000
0000
,  // measure 155
0000
0000
0000
0330
2002
0000
0000
3003
,  // measure 156
0011
0000
0000
0010
0000
0000
1100
0000
0000
0200
0000
0000
0010
0000
0000
0300
0000
0000
0001
0000
1000
0000
0001
0000
,  // measure 157
1000
0000
0000
0000
0001
0000
0000
0000
1000
0000
0000
0000
0001
0000
0000
0000
1000
0000
0000
0000
0001
0000
0000
0000
1000
0000
0000
0001
0000
0000
1000
0000
0000
0001
0000
0000
1000
0000
0000
0001
0000
0000
1000
0000
0000
0001
0000
0000
,  // measure 158
2002
0000
0000
0000
,  // measure 159
3003
0000
0000
0000
;

//---------------dance-single - Deluxe----------------
#NOTEDATA:;
#CHARTNAME:Deluxe;
#STEPSTYPE:dance-single;
#DESCRIPTION:Deluxe;
#CHARTSTYLE:;
#DIFFICULTY:Edit;
#METER:24;
#RADARVALUES:1.595837,5.586148,1.677780,0.760020,1.706460,1558.000000,1324.000000,234.000000,106.000000,0.000000,0.000000,0.000000,0.000000,0.000000,1.595837,5.586148,1.677780,0.760020,1.706460,1558.000000,1324.000000,234.000000,106.000000,0.000000,0.000000,0.000000,0.000000,0.000000;
#CREDIT:Dr.Bright overground undercover AWOKEN;
#DISPLAYBPM:*;
#NOTES:
// measure 0
1002
0100
0010
1003
0002
0100
0010
0103
2001
0010
0100
3001
2000
0010
0100
3010
0210
1000
0001
0310
0200
1000
0001
1300
0120
0001
1000
0130
0020
0001
1000
0031
2001
0010
0100
3001
2000
0010
0100
3010
1002
0100
0010
1003
0002
0100
0010
0103
0120
0001
1000
0130
0020
0001
1000
0031
0210
1000
0001
0310
0200
1000
0001
1300
,  // measure 1
0120
0001
1000
0000
0100
1000
0001
0000
0230
0010
0001
0010
1000
0010
0001
0010
2300
0001
0010
0100
0001
0010
0100
0010
0002
0000
0000
0000
0000
0000
0000
0000
0000
0000
0000
0000
0000
0000
0000
0000
0000
0000
0000
0000
0000
0000
0000
0000
0000
0000
0000
0000
0000
0000
0000
0000
0000
0000
0000
0000
0000
0000
0000
3003
,  // measure 2
1001
0001
1000
0001
1000
0000
0001
0010
0100
0010
1001
0000
1000
0100
0010
0100
,  // measure 3
1001
0000
0001
0010
0100
0010
1001
0000
1100
0100
1000
0100
0101
0100
0001
0100
,  // measure 4
1001
1000
0001
1000
0001
0000
1000
0100
0010
0100
1001
0000
0001
0010
0100
0010
,  // measure 5
1001
0000
1000
0100
0010
0100
1001
0000
0011
0010
0001
0010
1010
0010
1000
0010
,  // measure 6
0210
0010
0010
0020
0000
0000
0000
0000
,  // measure 7
0000
0000
0000
0000
0000
0000
0000
0330
,  // measure 8
1001
0000
0001
1000
0001
1000
1001
0000
0010
0100
0010
0100
1001
0000
0110
0000
,  // measure 9
1001
0000
0000
0000
0000
0000
1001
0000
0000
0000
0000
0000
1000
0000
0000
0001
0000
0000
1000
0000
0000
0001
0000
0000
1000
0000
0000
0100
0000
0000
0010
0000
0000
0001
0000
0000
1000
0000
0100
0000
0010
0000
0001
0000
1000
0000
0001
0000
,  // measure 10
1000
0001
1000
0100
0010
0100
0001
1000
,  // measure 11
0100
0010
1000
0010
0100
1000
0101
0010
,  // measure 12
0001
0000
0101
0000
1100
0000
0101
0010
,  // measure 13
1000
0001
1000
0001
1000
0001
2000
0000
,  // measure 14
0010
0010
0010
3010
,  // measure 15
0001
0100
0001
0100
0001
0000
1001
0001
,  // measure 16
1000
1001
0011
0101
,  // measure 17
0100
0010
0100
0001
1000
0001
1000
0010
,  // measure 18
0001
1000
0001
0010
0100
0010
1000
0001
,  // measure 19
0010
0100
0001
0100
0010
0001
1010
0100
,  // measure 20
1000
0000
1010
0000
0011
0000
1010
0100
,  // measure 21
0001
1000
0001
1000
0001
1000
0001
1000
,  // measure 22
0100
0010
0001
0010
0100
1000
0100
0010
,  // measure 23
1000
0010
1000
0010
1000
0000
1001
1000
,  // measure 24
0001
0000
1001
0001
1100
0000
1010
0100
,  // measure 25
0010
0000
0000
0100
0000
0000
0010
0000
0000
1000
0000
0000
0001
0000
0000
1000
0000
0000
0001
0000
0100
0000
0001
0000
,  // measure 26
0020
0100
0000
0000
0100
0000
0130
1000
,  // measure 27
0100
0001
0010
0001
0010
0100
0001
1000
,  // measure 28
0001
0010
0100
1000
0001
0010
0100
1000
,  // measure 29
0001
0010
0100
1000
0001
0010
0100
1000
0001
0010
0100
1000
,  // measure 30
0120
0001
0030
0000
0011
0000
0002
1000
,  // measure 31
0003
0000
2001
0010
3000
0000
1020
0100
,  // measure 32
1030
0100
0001
0100
0010
0001
0010
1000
,  // measure 33
0001
0010
1000
0010
0100
1000
0100
0001
,  // measure 34
0200
0010
0000
0000
0010
0000
0310
0001
,  // measure 35
0010
1000
0100
1000
0100
0010
1000
0001
,  // measure 36
1000
0100
0010
0001
1000
0100
0010
0001
,  // measure 37
1000
0100
0010
0001
1000
0100
0010
0001
1000
0100
0010
0001
,  // measure 38
2100
0001
0010
0000
0001
0000
0100
0000
,  // measure 39
0010
0001
0100
3010
,  // measure 40
0001
0010
1000
0010
0100
1000
0100
0001
,  // measure 41
1000
0100
0001
0100
0010
0001
0010
1000
,  // measure 42
1001
0010
1001
0000
1001
0000
1010
0000
,  // measure 43
1100
1001
0001
0101
,  // measure 44
0110
1001
1001
0110
,  // measure 45
2002
0000
3003
0000
1001
0100
1001
0000
,  // measure 46
1001
1010
1100
1001
,  // measure 47
0001
0101
0110
1001
,  // measure 48
1001
0101
1001
1010
,  // measure 49
1001
0010
1001
0000
1001
0000
0101
0000
,  // measure 50
0011
1001
1000
1010
,  // measure 51
0110
1001
1001
0110
,  // measure 52
2002
0000
3003
0000
1001
0100
1001
0000
,  // measure 53
1001
0101
0011
2002
,  // measure 54
0000
3003
1001
0010
,  // measure 55
1001
0000
0000
0000
0100
0000
0000
0000
1010
0000
0000
0000
,  // measure 56
0001
0000
0000
0000
0101
0000
0000
0000
1000
0000
0000
0000
,  // measure 57
1010
0000
0000
0000
0100
0000
0000
0000
0011
0000
0000
0000
,  // measure 58
0001
0000
0000
0000
1010
0000
0000
0000
0101
0000
0000
0000
,  // measure 59
0220
0000
0000
0030
0010
0010
0010
0310
,  // measure 60
2020
0000
0000
3000
1000
1000
1000
1030
,  // measure 61
0202
0000
0000
0003
0001
0001
0001
0301
,  // measure 62
0220
0000
0000
0300
0100
0100
0100
0130
,  // measure 63
1000
0000
0000
0001
0000
0000
1000
0000
0000
0001
0000
0000
1000
0000
0000
0001
0000
0000
1000
0000
0000
0001
0000
0000
1000
0000
0000
0001
0000
0000
1000
0000
0000
0001
0000
0000
1000
0000
0001
0000
1000
0000
0001
0000
1000
0000
0001
0000
,  // measure 64
1000
0000
0000
0100
0000
0000
0010
0000
0000
0100
0000
0000
1000
0000
0000
0100
0000
0000
0010
0000
0000
0100
0000
0000
1000
0000
0000
0100
0000
0000
0010
0000
0000
0100
0000
0000
1000
0000
0100
0000
0010
0000
0100
0000
1000
0000
0100
0000
,  // measure 65
0001
0000
0000
0010
0000
0000
0100
0000
0000
0010
0000
0000
0001
0000
0000
0010
0000
0000
0100
0000
0000
0010
0000
0000
0001
0000
0000
0010
0000
0000
0100
0000
0000
0010
0000
0000
0001
0000
0010
0000
0100
0000
0010
0000
0001
0000
0010
0000
,  // measure 66
1001
0001
0000
0110
0100
0000
1001
0000
1100
1000
0000
0110
0010
0000
0011
0000
,  // measure 67
1000
0000
0000
0100
0000
0000
1000
0000
0000
0001
0000
0000
0010
0000
0000
0001
0000
0000
1000
0000
0000
0001
0000
0000
0010
0000
0000
1000
0000
0000
0000
0000
0000
0010
0000
0000
0100
0000
0000
0010
0000
0000
1000
0000
0100
0000
1000
0000
,  // measure 68
0001
0000
0000
0010
0000
0000
0001
0000
0000
1000
0000
0000
0100
0000
0000
1000
0000
0000
0001
0000
0000
1000
0000
0000
0100
0000
0000
0001
0000
0000
0000
0000
0000
0100
0000
0000
0010
0000
0000
0100
0000
0000
0001
0000
0010
0000
0001
0000
,  // measure 69
0100
0000
0000
0001
0000
0000
0100
0000
0000
0010
0000
0000
1000
0000
0000
0010
0000
0000
0100
0000
0000
0010
0000
0000
1000
0000
0000
0100
0000
0000
0000
0000
0000
1000
0000
0000
0001
0000
0000
1000
0000
0000
0100
0000
0001
0000
0100
0000
,  // measure 70
0010
0000
0000
1000
0000
0000
0010
0000
0000
0100
0000
0000
0001
0000
0000
0100
0000
0000
0010
0000
0000
0100
0000
0000
0001
0000
0000
0010
0000
0000
0000
0000
0000
0001
0000
0000
1000
0000
0000
0001
0000
0000
0010
0000
1000
0000
0010
0000
,  // measure 71
1000
0000
0000
0100
0000
0000
1000
0000
0000
0001
0000
0000
0010
0000
0000
0001
0000
0000
1000
0000
0000
0001
0000
0000
0010
0000
0000
1000
0000
0000
0000
0000
0000
0010
0000
0000
0100
0000
0000
0010
0000
0000
1000
0000
0100
0000
1000
0000
,  // measure 72
0001
0000
0000
0010
0000
0000
0001
0000
0000
1000
0000
0000
0100
0000
0000
1000
0000
0000
0001
0000
0000
1000
0000
0000
0100
0000
0000
0001
0000
0000
0000
0000
0000
0100
0000
0000
0010
0000
0000
0100
0000
0000
0001
0000
0010
0000
0001
0000
,  // measure 73
0100
0000
0000
0001
0000
0000
0100
0000
0000
0010
0000
0000
1000
0000
0000
0010
0000
0000
0100
0000
0000
0010
0000
0000
1000
0000
0000
0100
0000
0000
0000
0000
0000
1000
0000
0000
0001
0000
0000
1000
0000
0000
0100
0000
0001
0000
0100
0000
,  // measure 74
0010
0000
0000
1000
0000
0000
0010
0000
0000
0100
0000
0000
0001
0000
0000
0100
0000
0000
0010
0000
0000
0100
0000
0000
0001
0000
0000
0010
0000
0000
0000
0000
0000
0001
0000
0000
1000
0000
0000
0001
0000
0000
0010
0000
1000
0000
0010
0000
,  // measure 75
1001
0100
0010
0100
1000
0100
0010
0010
0100
1000
0010
1000
0110
0100
0010
0010
,  // measure 76
1001
0010
0100
0010
0001
0010
0100
1000
0010
0001
0100
0001
0110
0010
0100
0100
,  // measure 77
1001
0100
0010
0100
1000
0100
0010
0001
0100
1000
0010
1000
0110
0100
0010
0010
,  // measure 78
1001
0010
0100
0010
0001
0010
0100
1000
0010
0001
0100
0001
0110
0010
0100
0100
,  // measure 79
1001
0100
0010
0100
1000
0100
0010
0001
0100
1000
0010
1000
0110
0100
0010
0010
,  // measure 80
1001
0010
0100
0010
0001
0010
0100
1000
0010
0001
0100
0001
0110
0010
0100
0100
,  // measure 81
1001
0100
0010
0100
1000
0100
0010
0001
0100
1000
0010
1000
0110
0100
0010
0010
,  // measure 82
1001
0010
0100
0010
0001
0010
0100
1000
0010
0001
0100
0001
0110
0010
0100
0100
,  // measure 83
1000
0000
0100
0000
0010
0000
0001
0000
0100
0000
0010
0000
1000
0000
0000
0001
0000
0000
1000
0000
0000
0001
0000
0000
,  // measure 84
1000
0000
0000
0001
0000
0000
1000
0000
0000
0001
0000
0000
1000
0000
0001
0000
1000
0000
0001
0000
1000
0000
0001
0000
,  // measure 85
1000
0000
0100
0000
0010
0000
0001
0000
0100
0000
0010
0000
1000
0000
0000
0001
0000
0000
1000
0000
0000
0001
0000
0000
,  // measure 86
1000
0000
0000
0001
0000
0000
1000
0000
0000
0001
0000
0000
1000
0000
0001
0000
1000
0000
0001
0000
1000
0000
0001
0000
,  // measure 87
1000
0000
0100
0000
1000
0000
0001
0000
0010
0000
0100
0000
,  // measure 88
0001
0000
0010
0000
0001
0000
1000
0000
0100
0000
0010
0000
,  // measure 89
0001
0000
1000
0000
0100
0000
1000
0000
0001
0000
1000
0000
,  // measure 90
0100
0000
0001
0000
0010
0000
0001
0000
1000
0000
0001
0000
,  // measure 91
1000
0000
0100
0000
0001
0000
0100
0000
1000
0000
0001
0000
,  // measure 92
1000
0000
0100
0000
0001
0000
0010
0000
1000
0000
0010
0000
,  // measure 93
0001
0000
0010
0000
1000
0000
0100
0000
0001
0000
0100
0000
,  // measure 94
1000
0000
0001
0000
1000
0000
0001
0000
1000
0000
0001
0000
,  // measure 95
1000
0010
1000
0001
1000
0010
1001
0000
,  // measure 96
0001
0220
0000
0330
0010
2200
0000
3300
,  // measure 97
1010
0100
1010
0000
0011
0100
0011
0000
,  // measure 98
0101
0010
0101
0000
1100
0010
1100
0000
,  // measure 99
0001
0100
0001
1000
0001
0100
1001
0000
,  // measure 100
1000
0220
0000
0330
0100
0022
0000
0033
,  // measure 101
0101
0010
0101
0000
1100
0010
1100
0000
,  // measure 102
1010
0100
1010
0000
0011
0100
0011
0000
,  // measure 103
0010
0001
0010
0100
0010
0001
0110
0000
,  // measure 104
0100
0022
0000
0033
0001
2200
0000
3300
,  // measure 105
0100
1000
0100
0010
0100
1000
0110
0000
,  // measure 106
0010
2200
0000
3300
1000
0011
0100
0000
,  // measure 107
0100
1000
0100
0010
0100
1000
0110
0000
,  // measure 108
0010
2200
0000
3300
1000
0022
0000
0033
,  // measure 109
2200
0000
0000
0000
0000
3300
2002
0000
,  // measure 110
0000
0000
0000
3003
0202
0000
0000
0303
,  // measure 111
2002
0000
0000
3003
,  // measure 112
0001
0220
0000
0330
0010
2200
0000
3300
,  // measure 113
0022
0000
0000
0000
0000
0033
2002
0000
,  // measure 114
0000
0000
0000
3003
2020
0000
0000
3030
,  // measure 115
0001
0100
0001
1000
0001
0100
1001
0000
,  // measure 116
1000
0220
0000
0330
0100
0022
0000
0033
,  // measure 117
0101
0010
0101
0000
1100
0010
1100
0000
,  // measure 118
1010
0100
1010
0000
0011
0100
0011
0000
,  // measure 119
0010
0001
0010
0100
0010
0001
0110
0000
,  // measure 120
0100
0022
0000
0033
0001
2200
0000
3300
,  // measure 121
0100
1000
0100
0010
0100
1000
0110
0000
,  // measure 122
0010
2200
0000
3300
1000
0011
0100
0000
,  // measure 123
1001
0000
0000
0100
0000
0000
0001
0000
0000
0010
0000
0000
1100
0000
0001
0000
0010
0000
0001
0000
0010
0000
0100
0000
,  // measure 124
1001
0000
0000
0010
0000
0000
1000
0000
0000
0100
0000
0000
0011
0000
1000
0000
0100
0000
1000
0000
0100
0000
0010
0000
,  // measure 125
0110
0000
0000
0001
0000
0000
0010
0000
0000
1000
0000
0000
0101
0000
0010
0000
1000
0000
0010
0000
1000
0000
0001
0000
,  // measure 126
0110
0000
0000
1000
0000
0000
0100
0000
0000
0001
0000
0000
1010
0000
0100
0000
0001
0000
0100
0000
0001
0000
1000
0000
,  // measure 127
0010
0100
0010
0100
0010
0000
0110
0000
0000
1000
0010
1000
,  // measure 128
0010
1000
0000
1010
0000
0000
0001
0010
0100
1000
0100
0000
,  // measure 129
0110
0000
0000
0010
0001
0010
0100
0010
0000
1001
0000
0000
,  // measure 130
1001
0000
0000
0100
0000
0000
0010
0000
0000
0001
0000
0000
1000
0000
0001
0000
1000
0000
0001
0000
1000
0000
0001
0000
,  // measure 131
0100
0010
0100
0010
0100
0000
0110
0000
0000
0001
0100
0001
,  // measure 132
0100
0001
0000
0101
0000
0000
1000
0100
0010
0001
0010
0000
,  // measure 133
0110
0000
0000
0100
1000
0100
0010
0100
0000
1001
0000
0000
,  // measure 134
1001
0000
0000
0010
0000
0000
0100
0000
0000
1000
0000
0000
0001
0000
1000
0000
0001
0000
1000
0000
0001
0000
1000
0000
,  // measure 135
0001
1000
0001
1000
0001
0000
1001
0000
0000
0010
0001
0010
,  // measure 136
0001
0010
0000
0011
0000
0000
0100
0001
1000
0010
1000
0000
,  // measure 137
1001
0000
0000
0001
0100
0001
1000
0001
0000
0110
0000
0000
,  // measure 138
0110
0000
0000
1000
0000
0000
0001
0000
0000
0100
0000
0000
0010
0000
0100
0000
0010
0000
0100
0000
0010
0000
0100
0000
,  // measure 139
1000
0001
1000
0001
1000
0000
1001
0000
0000
0100
1000
0100
,  // measure 140
1000
0100
0000
1100
0000
0000
0010
1000
0001
0100
0001
0000
,  // measure 141
1010
0000
0100
0000
1010
0000
0001
0000
0110
0000
1000
0000
,  // measure 142
0101
0000
0010
0000
0101
0000
1000
0000
0110
0000
1001
0000
,  // measure 143
1000
0000
0000
0100
0000
0000
0001
0000
0000
0100
0000
0000
1000
0000
0000
0100
0000
0000
0001
0000
0000
0100
0000
0000
1000
0000
0000
0100
0000
0000
0001
0000
0000
0100
0000
0000
1000
0000
0100
0000
0001
0000
0100
0000
1000
0000
0100
0000
,  // measure 144
0010
0000
0000
1000
0000
0000
0100
0000
0000
1000
0000
0000
0010
0000
0000
1000
0000
0000
0100
0000
0000
1000
0000
0000
0010
0000
0000
1000
0000
0000
0100
0000
0000
1000
0000
0000
0010
0000
1000
0000
0100
0000
1000
0000
0010
0000
1000
0000
,  // measure 145
0101
0010
1000
0100
0010
0100
0001
0100
,  // measure 146
0010
0000
0000
1000
0000
0000
0100
0000
0000
0001
0000
0000
0010
0000
0100
0000
0010
0000
1000
0000
0100
0000
0001
0000
,  // measure 147
0210
1300
0001
0010
,  // measure 148
2100
3010
0001
0100
,  // measure 149
0012
0103
1000
0010
,  // measure 150
2001
0000
0100
3000
0001
0000
0100
0000
0001
0000
0100
0000
,  // measure 151
1010
0020
1000
0030
0011
0020
0001
0030
,  // measure 152
1100
0001
0110
0020
0100
0030
0101
0200
,  // measure 153
0001
0300
1100
0200
1000
0300
0011
1000
,  // measure 154
0110
0000
0000
0100
0000
0000
0010
0000
0000
1000
0000
0000
0100
0000
0010
0000
0100
0000
0220
0000
0000
0000
0000
0000
,  // measure 155
0000
0000
0000
0330
2002
0000
0000
3003
,  // measure 156
0011
0000
0000
0010
0000
0000
1100
0000
0000
0200
0000
0000
0010
0000
0000
0300
0000
0000
1001
0000
1000
0000
0001
0000
,  // measure 157
1000
0000
0000
0000
0001
0000
0000
0000
1000
0000
0000
0000
0001
0000
0000
0000
1000
0000
0000
0000
0001
0000
0000
0000
1000
0000
0000
0001
0000
0000
1000
0000
0000
0001
0000
0000
1000
0000
0000
0001
0000
0000
1000
0000
0000
0001
0000
0000
,  // measure 158
2002
0000
0000
0000
,  // measure 159
3003
0000
0000
0000
;

//---------------dance-single - Enjoy----------------
#NOTEDATA:;
#CHARTNAME:Enjoy;
#STEPSTYPE:dance-single;
#DESCRIPTION:Enjoy;
#CHARTSTYLE:;
#DIFFICULTY:Edit;
#METER:2;
#RADARVALUES:0.065554,0.513014,0.064530,0.100380,0.000000,64.000000,55.000000,9.000000,14.000000,0.000000,0.000000,0.000000,0.000000,0.000000,0.065554,0.513014,0.064530,0.100380,0.000000,64.000000,55.000000,9.000000,14.000000,0.000000,0.000000,0.000000,0.000000,0.000000;
#CREDIT:DJ.Bright;
#DISPLAYBPM:*;
#NOTES:
// measure 0
0010
0010
0100
0100
,  // measure 1
1000
0000
0001
0000
2002
3003
0000
0000
,  // measure 2
0010
0000
0000
0000
,  // measure 3
0000
0000
0000
0000
,  // measure 4
0010
0000
0000
0000
,  // measure 5
0000
0000
0000
0000
,  // measure 6
0010
0000
0000
0000
,  // measure 7
0000
0000
0000
0000
,  // measure 8
0010
0000
0000
0000
,  // measure 9
0000
0000
0000
0000
,  // measure 10
1000
0000
0000
0000
,  // measure 11
1000
0000
0000
0000
,  // measure 12
0000
0000
0000
0000
,  // measure 13
0000
0000
0000
0000
,  // measure 14
0001
0000
0000
0000
,  // measure 15
0001
0000
0000
0000
,  // measure 16
0000
0000
0000
0000
,  // measure 17
0000
0000
0000
0000
,  // measure 18
0010
0000
0000
0000
,  // measure 19
0010
0000
0000
0000
,  // measure 20
0000
0000
0000
0000
,  // measure 21
0000
0000
0000
0000
,  // measure 22
0200
0000
0000
0000
,  // measure 23
0000
0000
0000
0000
,  // measure 24
0000
0000
0000
0000
,  // measure 25
0000
0000
0000
0300
,  // measure 26
0011
0000
0000
0000
,  // measure 27
0000
0000
0000
0000
,  // measure 28
0000
0000
0000
0000
,  // measure 29
0000
0000
0000
0000
,  // measure 30
1100
0000
0000
0000
,  // measure 31
0000
0000
0000
0000
,  // measure 32
0000
0000
0000
0000
,  // measure 33
0000
0000
0000
0000
,  // measure 34
1001
0000
0000
0000
,  // measure 35
0000
0000
0000
0000
,  // measure 36
0000
0000
0000
0000
,  // measure 37
0000
0000
0000
0000
,  // measure 38
0110
0000
0000
0000
,  // measure 39
0000
0000
0000
0000
,  // measure 40
0000
0000
0000
0000
,  // measure 41
0000
0000
0000
0000
,  // measure 42
0100
0000
0000
0000
,  // measure 43
0000
0000
0000
0000
,  // measure 44
0000
0000
0000
0000
,  // measure 45
0000
0000
0010
0000
,  // measure 46
0000
0000
0000
0000
,  // measure 47
0000
0000
0000
0000
,  // measure 48
0000
0000
0000
0000
,  // measure 49
0100
0000
0000
0000
,  // measure 50
0000
0000
0000
0000
,  // measure 51
0000
0000
0000
0000
,  // measure 52
0000
0000
0010
0000
,  // measure 53
0000
0000
0000
0000
,  // measure 54
2002
0000
0000
0000
,  // measure 55
0000
0000
0000
0000
,  // measure 56
0000
0000
0000
0000
,  // measure 57
0000
0000
0000
0000
,  // measure 58
0000
0000
0000
3003
,  // measure 59
0200
0000
0000
0000
,  // measure 60
0000
0000
0000
0000
,  // measure 61
0000
0000
0000
0000
,  // measure 62
0000
0000
0000
0000
,  // measure 63
0000
0000
0000
0000
,  // measure 64
0000
0000
0000
0000
,  // measure 65
0000
0000
0000
0000
,  // measure 66
0000
0000
0000
0300
,  // measure 67
0010
0000
0000
0000
,  // measure 68
0000
0000
0000
0000
,  // measure 69
0010
0000
0000
0000
,  // measure 70
0000
0000
0000
0000
,  // measure 71
0100
0000
0000
0000
,  // measure 72
0000
0000
0000
0000
,  // measure 73
0100
0000
0000
0000
,  // measure 74
0000
0000
0000
0000
,  // measure 75
0010
0000
0000
0000
,  // measure 76
0000
0000
0000
0000
,  // measure 77
0010
0000
0000
0000
,  // measure 78
0000
0000
0000
0000
,  // measure 79
0010
0000
0000
0000
,  // measure 80
0000
0000
0000
0000
,  // measure 81
0010
0000
0000
0000
,  // measure 82
0000
0000
0000
0000
,  // measure 83
0020
0000
0000
0000
,  // measure 84
0000
0000
0000
0000
,  // measure 85
0000
0000
0000
0000
,  // measure 86
0000
0000
0000
0000
,  // measure 87
0000
0000
0000
0000
,  // measure 88
0000
0000
0000
0000
,  // measure 89
0000
0000
0000
0000
,  // measure 90
0000
0000
0000
0000
,  // measure 91
0000
0000
0000
0000
,  // measure 92
0000
0000
0000
0000
,  // measure 93
0000
0000
0000
0000
,  // measure 94
0000
0000
0000
0000
,  // measure 95
0130
0000
0000
0000
,  // measure 96
0000
0000
0000
0000
,  // measure 97
0000
0000
0000
0000
,  // measure 98
0000
0000
0000
0000
,  // measure 99
0010
0000
0000
0000
,  // measure 100
0000
0000
0000
0000
,  // measure 101
0000
0000
0000
0000
,  // measure 102
0000
0000
0000
0000
,  // measure 103
1000
0000
0000
0000
,  // measure 104
0000
0000
0000
0000
,  // measure 105
0000
0000
0000
0000
,  // measure 106
0000
0000
0000
0000
,  // measure 107
0001
0000
0000
0000
,  // measure 108
0000
0000
0000
0000
,  // measure 109
0000
0000
0000
0000
,  // measure 110
0000
0000
0000
0000
,  // measure 111
0010
0000
0000
0000
,  // measure 112
0000
0000
0000
0000
,  // measure 113
0100
0000
0000
0000
,  // measure 114
0000
0000
0000
0000
,  // measure 115
0001
0000
0000
0000
,  // measure 116
0000
0000
0000
0000
,  // measure 117
1000
0000
0000
0000
,  // measure 118
0000
0000
0000
0000
,  // measure 119
0000
0000
0000
0000
,  // measure 120
0000
0000
0000
0000
,  // measure 121
0000
0000
0000
0000
,  // measure 122
0000
0000
0000
0000
,  // measure 123
2002
0000
0000
0000
,  // measure 124
0000
0000
0000
0000
,  // measure 125
0000
0000
0000
0000
,  // measure 126
0000
0000
0000
3003
,  // measure 127
0010
0000
0000
0000
,  // measure 128
0000
0000
0000
0000
,  // measure 129
0000
0000
0000
0000
,  // measure 130
0000
0000
0000
0000
,  // measure 131
0010
0000
0000
0000
,  // measure 132
0000
0000
0000
0000
,  // measure 133
0000
0000
0000
0000
,  // measure 134
0000
0000
0000
0000
,  // measure 135
0100
0000
0000
0000
,  // measure 136
0000
0000
0000
0000
,  // measure 137
0000
0000
0000
0000
,  // measure 138
0000
0000
0000
0000
,  // measure 139
0100
0000
0000
0000
,  // measure 140
0000
0000
0000
0000
,  // measure 141
1001
0000
0000
0000
,  // measure 142
0000
0000
0000
0000
,  // measure 143
0020
0000
0000
0000
,  // measure 144
0000
0000
0000
0000
,  // measure 145
0000
0000
0000
0000
,  // measure 146
0000
0000
0000
0000
,  // measure 147
0000
0000
0000
0000
,  // measure 148
0000
0000
0000
0000
,  // measure 149
0000
0000
0000
0000
,  // measure 150
0000
0000
0000
0000
,  // measure 151
2030
0000
0000
0000
,  // measure 152
0000
0000
0000
3000
,  // measure 153
0000
0000
0000
0000
,  // measure 154
0000
0000
0000
0000
,  // measure 155
0002
0000
0000
0000
,  // measure 156
0000
0000
0000
0003
,  // measure 157
0000
0000
0000
0000
,  // measure 158
2002
0000
0000
0000
,  // measure 159
3003
0000
0000
0000
;
