#TITLE:Megalara Garuda;
#SUBTITLE:(for Sentinel Mix);
#ARTIST:SYUNN;
#TITLETRANSLIT:;
#SUBTITLETRANSLIT:;
#ARTISTTRANSLIT:;
#GENRE:DRUMSTEP;
#CREDIT:;
#BANNER:;
#BACKGROUND:;
#LYRICSPATH:;
#CDTITLE:;
#MUSIC:Megalara Garuda.ogg;
#OFFSET:-0.104000;
#SAMPLESTART:61.437332;
#SAMPLELENGTH:15.000000;
#SELECTABLE:YES;
#BPMS:0.000000=180.000000
;
#STOPS:
;
#BGCHANGES:;
#KEYSOUNDS:;
#ATTACKS:;

//---------------dance-single - ----------------
#NOTES:
     dance-single:
     :
     Easy:
     17:
     0.907454,1.152833,0.513475,0.356119,0.712239,767.000000,705.000000,62.000000,43.000000,0.000000,0.000000,0.907454,1.152833,0.513475,0.356119,0.712239,767.000000,705.000000,62.000000,43.000000,0.000000,0.000000:
0000
0000
0000
0000
,
0000
0000
0000
0000
,
0000
0000
0000
0000
,
0000
0000
0000
0000
,
0000
0000
0000
0000
,
0000
0000
0000
0000
,
0000
0000
0000
0000
,
0000
0000
0000
0000
,
0000
0000
0000
0000
,
0001
0000
0001
0000
1000
0000
1000
0000
0001
0010
0100
0001
0010
0100
0010
0000
,
1000
0000
1000
0000
0001
0000
0001
0000
1000
0100
0010
1000
0100
0010
0100
0000
,
0100
0000
0100
0000
0010
0000
0010
0000
0100
0001
1000
0100
0001
1000
0001
0000
,
0010
0000
0010
0000
0100
0000
0100
0000
0010
1000
0001
0010
1000
0001
1000
0000
,
0020
0000
0000
0000
0100
1000
0001
0130
,
0200
0000
0000
0000
0010
0001
1000
0310
,
0002
0000
0000
0000
1000
0010
0100
1003
,
0010
0000
0010
0000
0000
0000
0100
0000
0010
0000
0100
0000
,
0012
0100
1000
0100
0000
0010
0010
0013
,
1000
0000
1000
0000
1000
0010
1000
0010
0001
0000
1000
0000
0001
0000
0001
0000
,
2100
0010
0001
0010
0000
0100
0100
3100
,
0001
0000
0001
0000
0001
0100
0001
0100
1000
0000
0001
0000
1000
0000
1000
0000
,
0201
1000
0010
1000
0000
0001
0001
0301
,
0010
0000
0010
0000
0010
0001
0010
0001
0100
0000
0010
0000
0100
0000
0100
0000
,
1020
0001
0100
0001
0000
1000
1000
1030
,
0100
0000
0100
0000
0100
1000
0100
1000
0010
0000
0100
0000
0010
0000
0010
0000
,
1000
0000
0001
0000
0100
0000
0010
0000
0100
1000
0100
1000
0100
0001
0100
0001
,
0010
1000
0010
0000
0010
0001
0010
0000
0200
0000
0010
0000
0010
0000
0310
0000
,
0001
0000
1000
0000
0010
0000
0100
0000
0010
0001
0010
0001
0010
1000
0010
1000
,
0100
0001
0100
0000
0100
1000
0100
0000
0020
0000
0100
0000
0100
0000
0130
0000
,
0010
0000
0100
0000
1000
0000
0001
0000
1000
0010
1000
0010
1000
0100
1000
0100
,
0001
0010
0001
0000
0001
0100
0001
0000
2000
0000
0001
0000
0001
0000
3001
0000
,
0100
0000
0010
0000
0001
0000
1000
0000
0001
0100
0001
0100
0001
0010
0001
0010
,
1000
0100
1000
0000
1000
0010
1000
0000
1000
0001
1000
0001
1000
0001
1000
0001
,
1010
0100
0011
0010
0110
1000
0011
0100
,
0010
1000
0010
1000
0010
1000
0010
1000
0011
0000
0100
0000
0011
0000
0100
0000
,
0101
0010
1100
0100
0110
0001
1100
0010
,
0100
0001
0100
0001
0100
0001
0100
0001
1100
0000
0010
0000
1100
0000
0010
0000
,
0011
1000
0101
0001
1001
0010
0101
1000
,
0001
0010
0001
0010
0001
0010
0001
0010
0101
0000
1000
0000
0101
0000
1000
0000
,
1100
0001
1010
1000
1001
0100
1010
0001
,
1000
0100
1000
0100
1000
0100
1000
0100
1000
0100
0001
0100
0001
0010
1000
0010
,
1001
0000
0110
0101
0110
0101
0220
0330
,
0110
0000
1010
0000
0110
0000
1010
0000
0110
0000
1010
0000
0001
0100
0001
0100
,
1001
0000
1001
0110
0101
1010
1001
0110
,
1001
0110
0011
0110
1100
1001
0110
1001
,
1001
0000
0000
0000
0000
0000
1000
0000
0001
0000
1000
0000
,
0002
0100
1000
0100
0000
0010
0010
0013
,
1000
0000
1000
0000
1000
0010
1000
0010
0001
0000
1000
0000
0001
0000
0001
0000
,
2100
0010
0001
0010
0000
0100
0100
3100
,
0001
0000
0001
0000
0001
0100
0001
0100
1000
0000
0001
0000
1000
0000
1000
0000
,
0201
1000
0010
1000
0000
0001
0001
0301
,
0010
0000
0010
0000
0010
0001
0010
0001
0100
0000
0010
0000
0100
0000
0100
0000
,
1020
0001
0100
0001
0000
1000
1000
1030
,
0100
0000
0100
0000
0100
1000
0100
1000
0010
0000
0100
0000
0010
0000
0010
0000
,
2000
0000
0100
0000
3200
0000
0020
0000
0300
0000
0031
0000
0001
0010
0100
1000
,
0200
0000
0000
0000
0301
0010
0001
0010
0001
0100
0001
0100
0010
1000
0010
1000
,
0002
0000
0010
0000
0023
0000
0200
0000
0030
0000
1300
0000
1000
0100
0010
0001
,
0020
0000
0000
0000
1030
0100
1000
0100
1000
0010
1000
0010
0100
0001
0100
0001
,
0020
0000
1000
0000
2030
0000
0002
0000
3000
0000
0103
0000
0100
0001
1000
0010
,
2000
0000
0000
0000
3100
0001
0100
0001
0100
1000
0100
1000
0001
0010
0001
0010
,
0200
0000
0001
0000
0302
0000
2000
0000
0003
0000
3010
0000
0010
1000
0001
0100
,
0002
0000
0000
0000
0013
1000
0010
1000
0010
0001
0010
0001
1000
0100
1000
0100
,
1000
0000
0001
0000
0100
0000
0010
0000
0100
1000
0100
1000
0100
0001
0100
0001
,
0010
1000
0010
0000
0010
0001
0010
0000
0200
0000
0010
0000
0010
0000
0310
0000
,
1000
0000
1000
0000
0001
0000
0010
0000
0100
0000
0010
0000
,
0100
0000
0001
0000
0100
0000
0010
0000
1000
0000
0010
0000
,
0001
0000
1000
0000
0010
0000
0100
0000
0010
0001
0010
0001
0010
1000
0010
1000
,
0100
0001
0100
0000
0100
1000
0100
0000
0020
0000
0100
0000
0100
0000
0130
0000
,
0001
0000
0001
0000
1000
0000
0100
0000
0010
0000
0100
0000
,
0010
1000
0010
1000
0010
1000
0100
0010
0001
0010
0100
1000
,
1000
0000
0001
0000
0100
0000
0010
0000
0100
1000
0100
1000
0100
0001
0100
0001
,
0010
1000
0010
0000
0010
0001
0010
0000
0200
0000
0010
0000
0010
0000
0310
0000
,
0001
0000
1000
0000
0010
0000
0100
0000
0010
0001
0010
0001
0010
1000
0010
1000
,
0100
0001
0100
0000
0100
1000
0100
0000
0020
0000
0100
0000
0100
0000
0130
0000
,
0010
0000
0100
0000
1000
0000
0001
0000
1000
0010
1000
0010
1000
0100
1000
0100
,
0001
0010
0001
0000
0001
0100
0001
0000
2000
0000
0001
0000
0001
0000
3001
0000
,
0100
0000
0010
0000
0001
0000
1000
0000
0001
0100
0001
0100
0001
0010
0001
0010
,
0100
0000
0100
0000
0000
0000
0010
0000
0100
0000
0010
0000
,
1200
0010
0000
0010
0000
0001
0010
0001
,
0000
0010
0001
0010
0000
0010
1000
0310
,
0021
0100
0000
0100
0000
1000
0100
1000
,
0000
0100
1000
0100
0000
0100
0001
0130
,
2010
0001
0000
0001
0000
0100
0001
0100
,
0000
0001
0100
0001
0000
0001
0010
3001
,
0102
1000
0000
1000
0000
0010
1000
0010
,
0000
1000
0010
1000
0000
1000
0100
1003
,
2002
0000
0000
0000
,
3003
0000
0000
0000
;

//---------------dance-single - ----------------
#NOTES:
     dance-single:
     :
     Medium:
     17:
     0.945314,1.152833,0.596293,0.372683,0.770212,799.000000,727.000000,72.000000,45.000000,0.000000,0.000000,0.945314,1.152833,0.596293,0.372683,0.770212,799.000000,727.000000,72.000000,45.000000,0.000000,0.000000:
0000
0000
0000
0000
,
0000
0000
0000
0000
,
0000
0000
0000
0000
,
0000
0000
0000
0000
,
0000
0000
0000
0000
,
0000
0000
0000
0000
,
0000
0000
0000
0000
,
0000
0000
0000
0000
,
0000
0000
0000
0000
,
0001
0000
0001
0000
1000
0000
1000
0000
0001
0010
0100
0001
0010
0100
0010
0100
,
1000
0000
1000
0000
0001
0000
0001
0000
1000
0100
0010
1000
0100
0010
0100
0010
,
0100
0000
0100
0000
0010
0000
0010
0000
0100
0001
1000
0100
0001
1000
0001
1000
,
0010
0000
0010
0000
0100
0000
0100
0000
0010
1000
0001
0010
1000
0001
1000
0001
,
0020
0000
0001
0000
0100
1000
0001
0130
,
0200
0000
1000
0000
0010
0001
1000
0310
,
0002
0000
0100
0000
1000
0010
0100
1003
,
0110
0000
0010
0000
0010
0000
0100
0000
0010
0000
0100
0000
,
0012
0100
1000
0100
0000
0010
0010
0013
,
1000
0000
1000
0000
1000
0010
1000
0010
0001
0000
1000
0000
0001
0000
0001
0000
,
2100
0010
0001
0010
0000
0100
0100
3100
,
0001
0000
0001
0000
0001
0100
0001
0100
1000
0000
0001
0000
1000
0000
1000
0000
,
0201
1000
0010
1000
0000
0001
0001
0301
,
0010
0000
0010
0000
0010
0001
0010
0001
0100
0000
0010
0000
0100
0000
0100
0000
,
1020
0001
0100
0001
0000
1000
1000
1030
,
0100
0000
0100
0000
0100
1000
0100
1000
0010
0000
0100
0000
0010
0000
0010
0000
,
1000
0000
0001
0000
0100
0000
0010
0000
0100
1000
0100
1000
0100
0001
0100
0001
,
0010
1000
0010
0000
0010
0001
0010
0000
0210
0000
0010
0000
0010
0000
0310
0000
,
0001
0000
1000
0000
0010
0000
0100
0000
0010
0001
0010
0001
0010
1000
0010
1000
,
0100
0001
0100
0000
0100
1000
0100
0000
0120
0000
0100
0000
0100
0000
0130
0000
,
0010
0000
0100
0000
1000
0000
0001
0000
1000
0010
1000
0010
1000
0100
1000
0100
,
0001
0010
0001
0000
0001
0100
0001
0000
2001
0000
0001
0000
0001
0000
3001
0000
,
0100
0000
0010
0000
0001
0000
1000
0000
0001
0100
0001
0100
0001
0010
0001
0010
,
1000
0100
1000
0000
1000
0010
1000
0000
1000
0001
1000
0001
1000
0001
1000
0001
,
1010
0100
0011
0010
0110
1000
0011
0100
,
0010
1000
0010
1000
0010
1000
0010
1000
0011
0000
0100
0000
0011
0000
0100
0000
,
0101
0010
1100
0100
0110
0001
1100
0010
,
0100
0001
0100
0001
0100
0001
0100
0001
1100
0000
0010
0000
1100
0000
0010
0000
,
0011
1000
0101
0001
1001
0010
0101
1000
,
0001
0010
0001
0010
0001
0010
0001
0010
0101
0000
1000
0000
0101
0000
1000
0000
,
1100
0001
1010
1000
1001
0100
1010
0001
,
1000
0100
1000
0100
1000
0100
1000
0100
1000
0100
0001
0100
0001
0010
1000
0010
,
1001
0000
0110
0101
0110
0101
0220
0330
,
0110
0000
1010
0000
0110
0000
1010
0000
0110
0000
1010
0000
0001
0100
0001
0100
,
1001
0000
1001
0110
0101
1010
1001
0110
,
1001
0110
0011
0110
1100
1001
0110
1001
,
2002
0000
0000
0000
0000
0000
0000
0000
0000
3003
0000
0000
0001
0000
1000
0000
0100
0000
1000
0000
0001
0000
0010
0000
,
0002
0100
1000
0100
0000
0010
0010
0013
,
1000
0000
1000
0000
1000
0010
1000
0010
0001
0000
1000
0000
0001
0000
0001
0000
,
2100
0010
0001
0010
0000
0100
0100
3100
,
0001
0000
0001
0000
0001
0100
0001
0100
1000
0000
0001
0000
1000
0000
1000
0000
,
0201
1000
0010
1000
0000
0001
0001
0301
,
0010
0000
0010
0000
0010
0001
0010
0001
0100
0000
0010
0000
0100
0000
0100
0000
,
1020
0001
0100
0001
0000
1000
1000
1030
,
0100
0000
0100
0000
0100
1000
0100
1000
0010
0000
0100
0000
0010
0000
0010
0000
,
2000
0000
0100
0000
3200
0000
0020
0000
0300
0000
0031
0000
0001
0010
0100
1000
,
0200
0000
0010
0000
0301
0010
0001
0010
0001
0100
0001
0100
0010
1000
0010
1000
,
0002
0000
0010
0000
0023
0000
0200
0000
0030
0000
1300
0000
1000
0100
0010
0001
,
0020
0000
0100
0000
1030
0100
1000
0100
1000
0010
1000
0010
0100
0001
0100
0001
,
0020
0000
1000
0000
2030
0000
0002
0000
3000
0000
0103
0000
0100
0001
1000
0010
,
2000
0000
0001
0000
3100
0001
0100
0001
0100
1000
0100
1000
0001
0010
0001
0010
,
0200
0000
0001
0000
0302
0000
2000
0000
0003
0000
3010
0000
0010
1000
0001
0100
,
0002
0000
1000
0000
0013
1000
0010
1000
0010
0001
0010
0001
1000
0100
1000
0100
,
1000
0000
0001
0000
0100
0000
0010
0000
0100
1000
0100
1000
0100
0001
0100
0001
,
0010
1000
0010
0000
0010
0001
0010
0000
0210
0000
0010
0000
0010
0000
0310
0000
,
1000
0001
1000
0000
0001
0000
0010
0001
0100
0000
0010
0000
,
0100
1000
0001
0000
0100
1000
0010
0000
1000
0000
0010
0000
,
0001
0000
1000
0000
0010
0000
0100
0000
0010
0001
0010
0001
0010
1000
0010
1000
,
0100
0001
0100
0000
0100
1000
0100
0000
0120
0000
0100
0000
0100
0000
0130
0000
,
0001
1000
0001
0000
1000
0000
0100
1000
0010
0000
0100
0000
,
0010
1000
0010
1000
0010
1000
0100
0010
0001
0010
0100
1000
,
1000
0000
0001
0000
0100
0000
0010
0000
0100
1000
0100
1000
0100
0001
0100
0001
,
0010
1000
0010
0000
0010
0001
0010
0000
0210
0000
0010
0000
0010
0000
0310
0000
,
0001
0000
1000
0000
0010
0000
0100
0000
0010
0001
0010
0001
0010
1000
0010
1000
,
0100
0001
0100
0000
0100
1000
0100
0000
0120
0000
0100
0000
0100
0000
0130
0000
,
0010
0000
0100
0000
1000
0000
0001
0000
1000
0010
1000
0010
1000
0100
1000
0100
,
0001
0010
0001
0000
0001
0100
0001
0000
2001
0000
0001
0000
0001
0000
3001
0000
,
0100
0000
0010
0000
0001
0000
1000
0000
0001
0100
0001
0100
0001
0010
0001
0010
,
0101
0000
0100
0000
0100
0000
0010
0000
0100
0000
0010
0000
,
1200
0010
0000
0010
0000
0001
0010
0001
,
0000
0010
0001
0010
0000
0010
1000
0310
,
0021
0100
0000
0100
0000
1000
0100
1000
,
0000
0100
1000
0100
0000
0100
0001
0130
,
2010
0001
0000
0001
0000
0100
0001
0100
,
0000
0001
0100
0001
0000
0001
0010
3001
,
0102
1000
0000
1000
0000
0010
1000
0010
,
0000
1000
0010
1000
0000
1000
0100
1003
,
2002
0000
0000
0000
,
3003
0000
0000
0000
;

//---------------dance-single - ----------------
#NOTES:
     dance-single:
     :
     Beginner:
     16:
     0.836467,1.116807,0.480347,0.356119,0.530038,707.000000,649.000000,58.000000,43.000000,0.000000,0.000000,0.836467,1.116807,0.480347,0.356119,0.530038,707.000000,649.000000,58.000000,43.000000,0.000000,0.000000:
0000
0000
0000
0000
,
0000
0000
0000
0000
,
0000
0000
0000
0000
,
0000
0000
0000
0000
,
0000
0000
0000
0000
,
0000
0000
0000
0000
,
0000
0000
0000
0000
,
0000
0000
0000
0000
,
0000
0000
0000
0000
,
0001
0000
0001
0000
1000
0000
1000
0000
0001
0010
0100
0000
0010
0100
0010
0000
,
1000
0000
1000
0000
0001
0000
0001
0000
1000
0100
0010
0000
0100
0010
0100
0000
,
0100
0000
0100
0000
0010
0000
0010
0000
0100
0001
1000
0000
0001
1000
0001
0000
,
0010
0000
0010
0000
0100
0000
0100
0000
0010
1000
0001
0000
1000
0001
1000
0000
,
0020
0000
0000
0000
0100
1000
0001
0130
,
0200
0000
0000
0000
0010
0001
1000
0310
,
0002
0000
0000
0000
1000
0010
0100
1003
,
0010
0000
0010
0000
0000
0000
0100
0000
0010
0000
0100
0000
,
0012
0100
1000
0100
0000
0010
0010
0013
,
1000
0000
1000
0000
1000
0010
1000
0000
0001
0000
1000
0000
0001
0000
0001
0000
,
2100
0010
0001
0010
0000
0100
0100
3100
,
0001
0000
0001
0000
0001
0100
0001
0000
1000
0000
0001
0000
1000
0000
1000
0000
,
0201
1000
0010
1000
0000
0001
0001
0301
,
0010
0000
0010
0000
0010
0001
0010
0000
0100
0000
0010
0000
0100
0000
0100
0000
,
1020
0001
0100
0001
0000
1000
1000
1030
,
0100
0000
0100
0000
0100
1000
0100
0000
0010
0000
0100
0000
0010
0000
0010
0000
,
1000
0000
0001
0000
0100
0000
0010
0000
0100
1000
0100
0000
0100
0001
0100
0000
,
0010
1000
0010
0000
0010
0001
0010
0000
0200
0000
0010
0000
0010
0000
0310
0000
,
0001
0000
1000
0000
0010
0000
0100
0000
0010
0001
0010
0000
0010
1000
0010
0000
,
0100
0001
0100
0000
0100
1000
0100
0000
0020
0000
0100
0000
0100
0000
0130
0000
,
0010
0000
0100
0000
1000
0000
0001
0000
1000
0010
1000
0000
1000
0100
1000
0000
,
0001
0010
0001
0000
0001
0100
0001
0000
2000
0000
0001
0000
0001
0000
3001
0000
,
0100
0000
0010
0000
0001
0000
1000
0000
0001
0100
0001
0000
0001
0010
0001
0000
,
1000
0100
1000
0000
1000
0010
1000
0000
1000
0001
1000
0001
1000
0001
1000
0001
,
1010
0000
0011
0000
0110
1000
0011
0100
,
0010
1000
0010
1000
0010
1000
0010
1000
0011
0000
0100
0000
0011
0000
0100
0000
,
0101
0000
1100
0000
0110
0001
1100
0010
,
0100
0001
0100
0001
0100
0001
0100
0001
1100
0000
0010
0000
1100
0000
0010
0000
,
0011
0000
0101
0000
1001
0010
0101
1000
,
0001
0010
0001
0010
0001
0010
0001
0010
0101
0000
1000
0000
0101
0000
1000
0000
,
1100
0000
1010
0000
1001
0100
1010
0001
,
1000
0100
1000
0100
1000
0100
1000
0100
1000
0100
0001
0100
0001
0010
1000
0010
,
1001
0000
0110
0110
0110
0110
0220
0330
,
0110
0000
0110
0000
0110
0000
0110
0000
0110
0000
0110
0000
0010
0100
0010
0100
,
1001
0000
1001
0010
0101
0010
1001
0100
,
1001
0100
1001
0110
1001
0110
1001
0110
,
1001
0000
0000
0000
0000
0000
1000
0000
0001
0000
1000
0000
,
0002
0100
1000
0100
0000
0010
0010
0013
,
1000
0000
1000
0000
1000
0010
1000
0000
0001
0000
1000
0000
0001
0000
0001
0000
,
2100
0010
0001
0010
0000
0100
0100
3100
,
0001
0000
0001
0000
0001
0100
0001
0000
1000
0000
0001
0000
1000
0000
1000
0000
,
0201
1000
0010
1000
0000
0001
0001
0301
,
0010
0000
0010
0000
0010
0001
0010
0000
0100
0000
0010
0000
0100
0000
0100
0000
,
1020
0001
0100
0001
0000
1000
1000
1030
,
0100
0000
0100
0000
0100
1000
0100
0000
0010
0000
0100
0000
0010
0000
0010
0000
,
2000
0000
0100
0000
3200
0000
0020
0000
0300
0000
0031
0000
0001
0010
0100
1000
,
0200
0000
0000
0000
0301
0010
0001
0000
0001
0100
0001
0000
0010
1000
0010
0000
,
0002
0000
0010
0000
0023
0000
0200
0000
0030
0000
1300
0000
1000
0100
0010
0001
,
0020
0000
0000
0000
1030
0100
1000
0000
1000
0010
1000
0000
0100
0001
0100
0000
,
0020
0000
1000
0000
2030
0000
0002
0000
3000
0000
0103
0000
0100
0001
1000
0010
,
2000
0000
0000
0000
3100
0001
0100
0000
0100
1000
0100
0000
0001
0010
0001
0000
,
0200
0000
0001
0000
0302
0000
2000
0000
0003
0000
3010
0000
0010
1000
0001
0100
,
0002
0000
0000
0000
0013
1000
0010
0000
0010
0001
0010
0000
1000
0100
1000
0000
,
1000
0000
0001
0000
0100
0000
0010
0000
0100
1000
0100
0000
0100
0001
0100
0000
,
0010
1000
0010
0000
0010
0001
0010
0000
0200
0000
0010
0000
0010
0000
0310
0000
,
1000
0000
1000
0000
0001
0000
0010
0000
0100
0000
0010
0000
,
0100
0000
0001
0000
0100
0000
0010
0000
1000
0000
0010
0000
,
0001
0000
1000
0000
0010
0000
0100
0000
0010
0001
0010
0000
0010
1000
0010
0000
,
0100
0001
0100
0000
0100
1000
0100
0000
0020
0000
0100
0000
0100
0000
0130
0000
,
0001
0000
0001
0000
1000
0000
0100
0000
0010
0000
0100
0000
,
0010
1000
0010
1000
0010
1000
0100
0010
0001
0010
0100
1000
,
1000
0000
0001
0000
0100
0000
0010
0000
0100
1000
0100
0000
0100
0001
0100
0000
,
0010
1000
0010
0000
0010
0001
0010
0000
0200
0000
0010
0000
0010
0000
0310
0000
,
0001
0000
1000
0000
0010
0000
0100
0000
0010
0001
0010
0000
0010
1000
0010
0000
,
0100
0001
0100
0000
0100
1000
0100
0000
0020
0000
0100
0000
0100
0000
0130
0000
,
0010
0000
0100
0000
1000
0000
0001
0000
1000
0010
1000
0000
1000
0100
1000
0000
,
0001
0010
0001
0000
0001
0100
0001
0000
2000
0000
0001
0000
0001
0000
3001
0000
,
0100
0000
0010
0000
0001
0000
1000
0000
0001
0100
0001
0000
0001
0010
0001
0000
,
0100
0000
0100
0000
0000
0000
0010
0000
0100
0000
0010
0000
,
1200
0000
0000
0010
0000
0001
0010
0001
,
0000
0010
0001
0010
0000
0010
1000
0310
,
0021
0000
0000
0100
0000
1000
0100
1000
,
0000
0100
1000
0100
0000
0100
0001
0130
,
2010
0000
0000
0001
0000
0100
0001
0100
,
0000
0001
0100
0001
0000
0001
0010
3001
,
0102
0000
0000
1000
0000
0010
1000
0010
,
0000
1000
0010
1000
0000
1000
0100
1003
,
2002
0000
0000
0000
,
3003
0000
0000
0000
;

//---------------dance-single - ----------------
#NOTES:
     dance-single:
     :
     Hard:
     17:
     0.995005,1.152833,0.703957,0.405811,0.861312,841.000000,756.000000,85.000000,49.000000,0.000000,0.000000,0.995005,1.152833,0.703957,0.405811,0.861312,841.000000,756.000000,85.000000,49.000000,0.000000,0.000000:
0000
0000
0000
0000
,
0000
0000
0000
0000
,
0000
0000
0000
0000
,
0000
0000
0000
0000
,
0000
0000
0000
0000
,
0000
0000
0000
0000
,
0000
0000
0000
0000
,
0000
0000
0000
0000
,
0000
0000
0000
0000
,
1001
0000
0001
0000
1010
0000
1000
0000
0001
0010
0100
0001
0010
0100
0010
0100
,
1001
0000
1000
0000
0101
0000
0001
0000
1000
0100
0010
1000
0100
0010
0100
0010
,
0110
0000
0100
0000
0011
0000
0010
0000
0100
0001
1000
0100
0001
1000
0001
1000
,
0110
0000
0010
0000
1100
0000
0100
0000
0010
1000
0001
0010
1000
0001
1000
0001
,
0020
0100
0001
0000
0100
1000
0001
0130
,
0200
0010
1000
0000
0010
0001
1000
0310
,
0002
1000
0100
0000
1000
0010
0100
1003
,
0110
0000
0010
0000
0010
0000
0101
0000
0010
0000
0100
0000
,
0012
0100
1000
0100
0000
0010
0010
0013
,
1000
0010
1000
0000
1000
0010
1000
0010
0001
0000
1000
0000
0001
0000
0001
0000
,
2100
0010
0001
0010
0000
0100
0100
3100
,
0001
0100
0001
0000
0001
0100
0001
0100
1000
0000
0001
0000
1000
0000
1000
0000
,
0201
1000
0010
1000
0000
0001
0001
0301
,
0010
0001
0010
0000
0010
0001
0010
0001
0100
0000
0010
0000
0100
0000
0100
0000
,
1020
0001
0100
0001
0000
1000
1000
1030
,
0100
1000
0100
0000
0100
1000
0100
1000
0010
0000
0100
0000
0010
0000
0010
0000
,
1000
1000
0001
0000
0100
0000
0010
0000
0100
1000
0100
1000
0100
0001
0100
0001
,
0010
1000
0010
0000
0010
0001
0010
0000
0210
0000
0010
0000
0010
0000
0310
0000
,
0001
0001
1000
0000
0010
0000
0100
0000
0010
0001
0010
0001
0010
1000
0010
1000
,
0100
0001
0100
0000
0100
1000
0100
0000
0120
0000
0100
0000
0100
0000
0130
0000
,
0010
0010
0100
0000
1000
0000
0001
0000
1000
0010
1000
0010
1000
0100
1000
0100
,
0001
0010
0001
0000
0001
0100
0001
0000
2001
0000
0001
0000
0001
0000
3001
0000
,
0100
0100
0010
0000
0001
0000
1000
0000
0001
0100
0001
0100
0001
0010
0001
0010
,
1000
0100
1000
0000
1000
0010
1000
0000
1000
0001
1000
0001
1000
0001
1000
0001
,
1010
0100
0011
0010
0110
1000
0011
0100
,
0010
1000
0010
1000
0010
1000
0010
1000
0011
0000
0100
0000
0011
0000
0100
0000
,
0101
0010
1100
0100
0110
0001
1100
0010
,
0100
0001
0100
0001
0100
0001
0100
0001
1100
0000
0010
0000
1100
0000
0010
0000
,
0011
1000
0101
0001
1001
0010
0101
1000
,
0001
0010
0001
0010
0001
0010
0001
0010
0101
0000
1000
0000
0101
0000
1000
0000
,
1100
0001
1010
1000
1001
0100
1010
0001
,
1000
0100
1000
0100
1000
0100
1000
0100
1000
0100
0001
0100
0001
0010
1000
0010
,
2002
3003
0110
0101
0110
0101
0220
0330
,
0110
0000
1010
0000
0110
0000
1010
0000
0110
0000
1010
0000
0001
0100
0001
0100
,
2002
3003
1001
0110
0101
1010
1001
0110
,
1001
0110
0011
0110
1100
1001
0110
1001
,
2002
0000
0000
0000
0000
0000
0000
0000
0000
3003
0000
0000
0011
0000
1000
0000
0100
0000
1100
0000
0001
0000
0010
0000
,
0012
0100
1000
0100
0000
0010
0010
0013
,
1000
0010
1000
0000
1000
0010
1000
0010
0001
0000
1000
0000
0001
0000
0001
0000
,
2100
0010
0001
0010
0000
0100
0100
3100
,
0001
0100
0001
0000
0001
0100
0001
0100
1000
0000
0001
0000
1000
0000
1000
0000
,
0201
1000
0010
1000
0000
0001
0001
0301
,
0010
0001
0010
0000
0010
0001
0010
0001
0100
0000
0010
0000
0100
0000
0100
0000
,
1020
0001
0100
0001
0000
1000
1000
1030
,
0100
1000
0100
0000
0100
1000
0100
1000
0010
0000
0100
0000
0010
0000
0010
0000
,
2000
0000
0100
0000
3200
0001
0020
0000
0300
0000
0031
0000
0001
0010
0100
1000
,
0200
0000
0010
0000
0301
0010
0001
0010
0001
0100
0001
0100
0010
1000
0010
1000
,
0002
0000
0010
0000
0023
1000
0200
0000
0030
0000
1300
0000
1000
0100
0010
0001
,
0020
0000
0100
0000
1030
0100
1000
0100
1000
0010
1000
0010
0100
0001
0100
0001
,
0020
0000
1000
0000
2030
0100
0002
0000
3000
0000
0103
0000
0100
0001
1000
0010
,
2000
0000
0001
0000
3100
0001
0100
0001
0100
1000
0100
1000
0001
0010
0001
0010
,
0200
0000
0001
0000
0302
0010
2000
0000
0003
0000
3010
0000
0010
1000
0001
0100
,
0002
0000
1000
0000
0013
1000
0010
1000
0010
0001
0010
0001
1000
0100
1000
0100
,
1000
1000
0001
0000
0100
0000
0010
0000
0100
1000
0100
1000
0100
0001
0100
0001
,
0010
1000
0010
0000
0010
0001
0010
0000
0210
0000
0010
0000
0010
0000
0310
0000
,
1000
0001
1000
0000
0001
0000
0010
0001
0100
0000
0010
0000
,
0100
1000
0001
0000
0100
1000
0010
0000
1000
0000
0010
0000
,
0001
0001
1000
0000
0010
0000
0100
0000
0010
0001
0010
0001
0010
1000
0010
1000
,
0100
0001
0100
0000
0100
1000
0100
0000
0120
0000
0100
0000
0100
0000
0130
0000
,
0001
1000
0001
0000
1000
0000
0100
1000
0010
0000
0100
0000
,
0010
1000
0010
1000
0010
1000
0100
0010
0001
0010
0100
1000
,
1000
1000
0001
0000
0100
0000
0010
0000
0100
1000
0100
1000
0100
0001
0100
0001
,
0010
1000
0010
0000
0010
0001
0010
0000
0210
0000
0010
0000
0010
0000
0310
0000
,
0001
0001
1000
0000
0010
0000
0100
0000
0010
0001
0010
0001
0010
1000
0010
1000
,
0100
0001
0100
0000
0100
1000
0100
0000
0120
0000
0100
0000
0100
0000
0130
0000
,
0010
0010
0100
0000
1000
0000
0001
0000
1000
0010
1000
0010
1000
0100
1000
0100
,
0001
0010
0001
0000
0001
0100
0001
0000
2001
0000
0001
0000
0001
0000
3001
0000
,
0100
0100
0010
0000
0001
0000
1000
0000
0001
0100
0001
0100
0001
0010
0001
0010
,
0101
0000
0100
0000
0100
0000
0110
0000
0100
0000
0010
0000
,
1200
0010
0001
0010
0000
0001
0010
0001
,
0000
0010
0001
0010
0000
0010
1000
0310
,
0021
0100
1000
0100
0000
1000
0100
1000
,
0000
0100
1000
0100
0000
0100
0001
0130
,
2010
0001
0100
0001
0000
0100
0001
0100
,
0000
0001
0100
0001
0000
0001
0010
3001
,
0102
1000
0010
1000
0000
0010
1000
0010
,
0000
1000
0010
1000
0000
1000
0100
1003
,
2002
0000
0000
0000
,
3003
0000
0000
0000
;

//---------------dance-single - ----------------
#NOTES:
     dance-single:
     :
     Challenge:
     18:
     1.036414,1.152833,0.761930,0.405811,0.927567,876.000000,784.000000,92.000000,49.000000,0.000000,0.000000,1.036414,1.152833,0.761930,0.405811,0.927567,876.000000,784.000000,92.000000,49.000000,0.000000,0.000000:
0000
0000
0000
0000
,
0000
0000
0000
0000
,
0000
0000
0000
0000
,
0000
0000
0000
0000
,
0000
0000
0000
0000
,
0000
0000
0000
0000
,
0000
0000
0000
0000
,
0000
0000
0000
0000
,
0000
0000
0000
0000
,
1001
0000
0001
0000
1010
0000
1000
0000
0001
0010
0100
0001
0010
0100
0010
0100
,
1001
0000
1000
0000
0101
0000
0001
0000
1000
0100
0010
1000
0100
0010
0100
0010
,
0110
0000
0100
0000
0011
0000
0010
0000
0100
0001
1000
0100
0001
1000
0001
1000
,
0110
0000
0010
0000
1100
0000
0100
0000
0010
1000
0001
0010
1000
0001
1000
0001
,
1020
0100
0001
0000
0100
1000
0001
0130
,
0201
0010
1000
0000
0010
0001
1000
0310
,
0012
1000
0100
0000
1000
0010
0100
1003
,
0110
0000
0010
0000
0010
0000
0101
0000
0010
0000
0100
0000
,
0012
0100
1000
0100
0010
0010
0010
0013
,
1000
0010
1000
0000
1000
0010
1000
0010
0001
0000
1000
0000
0001
0000
0001
0000
,
2100
0010
0001
0010
0100
0100
0100
3100
,
0001
0100
0001
0000
0001
0100
0001
0100
1000
0000
0001
0000
1000
0000
1000
0000
,
0201
1000
0010
1000
0001
0001
0001
0301
,
0010
0001
0010
0000
0010
0001
0010
0001
0100
0000
0010
0000
0100
0000
0100
0000
,
1020
0001
0100
0001
1000
1000
1000
1030
,
0100
1000
0100
0000
0100
1000
0100
1000
0010
0000
0100
0000
0010
0000
0010
0000
,
1000
1000
0001
0000
0100
0000
0010
0010
0100
1000
0100
1000
0100
0001
0100
0001
,
0010
1000
0010
0000
0010
0001
0010
0000
0210
0000
0010
0000
0010
0000
0310
0000
,
0001
0001
1000
0000
0010
0000
0100
0100
0010
0001
0010
0001
0010
1000
0010
1000
,
0100
0001
0100
0000
0100
1000
0100
0000
0120
0000
0100
0000
0100
0000
0130
0000
,
0010
0010
0100
0000
1000
0000
0001
0001
1000
0010
1000
0010
1000
0100
1000
0100
,
0001
0010
0001
0000
0001
0100
0001
0000
2001
0000
0001
0000
0001
0000
3001
0000
,
0100
0100
0010
0000
0001
0000
1000
1000
0001
0100
0001
0100
0001
0010
0001
0010
,
1000
0100
1000
0000
1000
0010
1000
0000
1000
0001
1000
0001
1000
0001
1000
0001
,
1010
0101
0011
0010
0110
1000
0011
0100
,
0010
1000
0010
1000
0010
1000
0010
1000
0011
0000
0100
0000
0011
0000
0100
0000
,
0101
1010
1100
0100
0110
0001
1100
0010
,
0100
0001
0100
0001
0100
0001
0100
0001
1100
0000
0010
0000
1100
0000
0010
0000
,
0011
1100
0101
0001
1001
0010
0101
1000
,
0001
0010
0001
0010
0001
0010
0001
0010
0101
0000
1000
0000
0101
0000
1000
0000
,
1100
0011
1010
1000
1001
0100
1010
0001
,
1000
0100
1000
0100
1000
0100
1000
0100
1000
0100
0001
0100
0001
0010
1000
0010
,
2002
3003
0110
0101
0110
0101
0220
0330
,
0110
0000
1010
0000
0110
0000
1010
0000
0110
0000
1010
0000
0001
0100
0001
0100
,
2002
3003
1001
0110
0101
1010
1001
0110
,
1001
0110
0011
0110
1100
1001
0110
1001
,
2002
0000
0000
0000
0000
0000
0000
0000
0000
3003
0000
0000
0011
0000
1000
0000
0100
0000
1100
0000
0001
0000
0010
0000
,
0012
0100
1000
0100
0010
0010
0010
0013
,
1000
0010
1000
0000
1000
0010
1000
0010
0001
0000
1000
0000
0001
0000
0001
0000
,
2100
0010
0001
0010
0100
0100
0100
3100
,
0001
0100
0001
0000
0001
0100
0001
0100
1000
0000
0001
0000
1000
0000
1000
0000
,
0201
1000
0010
1000
0001
0001
0001
0301
,
0010
0001
0010
0000
0010
0001
0010
0001
0100
0000
0010
0000
0100
0000
0100
0000
,
1020
0001
0100
0001
1000
1000
1000
1030
,
0100
1000
0100
0000
0100
1000
0100
1000
0010
0000
0100
0000
0010
0000
0010
0000
,
2000
0001
0100
0000
3200
0001
0020
0000
0300
0000
0031
0000
0001
0010
0100
1000
,
0200
0000
0010
0000
0301
0010
0001
0010
0001
0100
0001
0100
0010
1000
0010
1000
,
0002
1000
0010
0000
0023
1000
0200
0000
0030
0000
1300
0000
1000
0100
0010
0001
,
0020
0000
0100
0000
1030
0100
1000
0100
1000
0010
1000
0010
0100
0001
0100
0001
,
0020
0100
1000
0000
2030
0100
0002
0000
3000
0000
0103
0000
0100
0001
1000
0010
,
2000
0000
0001
0000
3100
0001
0100
0001
0100
1000
0100
1000
0001
0010
0001
0010
,
0200
0010
0001
0000
0302
0010
2000
0000
0003
0000
3010
0000
0010
1000
0001
0100
,
0002
0000
1000
0000
0013
1000
0010
1000
0010
0001
0010
0001
1000
0100
1000
0100
,
1000
1000
0001
0000
0100
0000
0010
0010
0100
1000
0100
1000
0100
0001
0100
0001
,
0010
1000
0010
0000
0010
0001
0010
0000
0210
0000
0010
0000
0010
0000
0310
0000
,
1000
0001
1000
0010
0001
0000
0010
0001
0100
0000
0010
0000
,
0100
1000
0001
1000
0100
1000
0010
0001
1000
0100
0010
0100
,
0001
0001
1000
0000
0010
0000
0100
0100
0010
0001
0010
0001
0010
1000
0010
1000
,
0100
0001
0100
0000
0100
1000
0100
0000
0120
0000
0100
0000
0100
0000
0130
0000
,
0001
1000
0001
0100
1000
0000
0100
1000
0010
0000
0100
0000
,
0010
1000
0010
1000
0010
1000
0100
0010
0001
0010
0100
1000
,
1000
1000
0001
0000
0100
0000
0010
0010
0100
1000
0100
1000
0100
0001
0100
0001
,
0010
1000
0010
0000
0010
0001
0010
0000
0210
0000
0010
0000
0010
0000
0310
0000
,
0001
0001
1000
0000
0010
0000
0100
0100
0010
0001
0010
0001
0010
1000
0010
1000
,
0100
0001
0100
0000
0100
1000
0100
0000
0120
0000
0100
0000
0100
0000
0130
0000
,
0010
0010
0100
0000
1000
0000
0001
0001
1000
0010
1000
0010
1000
0100
1000
0100
,
0001
0010
0001
0000
0001
0100
0001
0000
2001
0000
0001
0000
0001
0000
3001
0000
,
0100
0100
0010
0000
0001
0000
1000
1000
0001
0100
0001
0100
0001
0010
0001
0010
,
0101
0000
0100
0000
0100
0000
0110
0000
0100
0000
0010
0000
,
1200
0010
0001
0010
0000
0001
0010
0001
,
0000
0010
0001
0010
0000
0010
1000
0310
,
0021
0100
1000
0100
0000
1000
0100
1000
,
0000
0100
1000
0100
0000
0100
0001
0130
,
2010
0001
0100
0001
0000
0100
0001
0100
,
0000
0001
0100
0001
0000
0001
0010
3001
,
0102
1000
0010
1000
0000
0010
1000
0010
,
0000
1000
0010
1000
0000
1000
0100
1003
,
2002
0000
0000
0000
,
3003
0000
0000
0000
;

//---------------dance-single - Casual----------------
#NOTES:
     dance-single:
     Casual:
     Edit:
     15:
     0.757197,0.936677,0.463783,0.356119,0.414092,640.000000,584.000000,56.000000,43.000000,0.000000,0.000000,0.757197,0.936677,0.463783,0.356119,0.414092,640.000000,584.000000,56.000000,43.000000,0.000000,0.000000:
0000
0000
0000
0000
,
0000
0000
0000
0000
,
0000
0000
0000
0000
,
0000
0000
0000
0000
,
0000
0000
0000
0000
,
0000
0000
0000
0000
,
0000
0000
0000
0000
,
0000
0000
0000
0000
,
0000
0000
0000
0000
,
0001
0000
0001
0000
1000
0000
1000
0000
0001
0010
0100
0000
0010
0100
0010
0000
,
1000
0000
1000
0000
0001
0000
0001
0000
1000
0100
0010
0000
0100
0010
0100
0000
,
0100
0000
0100
0000
0010
0000
0010
0000
0100
0001
1000
0000
0001
1000
0001
0000
,
0010
0000
0010
0000
0100
0000
0100
0000
0010
1000
0001
0000
1000
0001
1000
0000
,
0020
0000
0000
0000
0100
1000
0001
0030
,
0200
0000
0000
0000
0010
0001
1000
0300
,
0002
0000
0000
0000
1000
0010
0100
0003
,
0010
0000
0010
0000
0000
0000
0100
0000
0010
0000
0100
0000
,
0012
0100
1000
0100
0000
0010
0000
0013
,
1000
0000
0010
0000
1000
0010
1000
0000
0001
0000
1000
0000
0001
0000
0001
0000
,
2100
0010
0001
0010
0000
0100
0000
3100
,
0001
0000
0100
0000
0001
0100
0001
0000
1000
0000
0001
0000
1000
0000
1000
0000
,
0201
1000
0010
1000
0000
0001
0000
0301
,
0010
0000
0001
0000
0010
0001
0010
0000
0100
0000
0010
0000
0100
0000
0100
0000
,
1020
0001
0100
0001
0000
1000
0000
1030
,
0100
0000
1000
0000
0100
1000
0100
0000
0010
0000
0100
0000
0010
0000
0010
0000
,
1000
0000
0001
0000
0100
0000
0010
0000
0100
0000
1000
0000
0100
0001
0100
0000
,
0010
1000
0010
0000
0010
0001
0010
0000
0200
0000
0000
0000
0010
0000
0310
0000
,
0001
0000
1000
0000
0010
0000
0100
0000
0010
0000
0001
0000
0010
1000
0010
0000
,
0100
0001
0100
0000
0100
1000
0100
0000
0020
0000
0000
0000
0100
0000
0130
0000
,
0010
0000
0100
0000
1000
0000
0001
0000
1000
0000
0010
0000
1000
0100
1000
0000
,
0001
0010
0001
0000
0001
0100
0001
0000
2000
0000
0000
0000
0001
0000
3001
0000
,
0100
0000
0010
0000
0001
0000
1000
0000
0001
0000
0100
0000
0001
0010
0001
0000
,
1000
0100
1000
0000
1000
0010
1000
0000
1000
0000
0001
0000
1000
0001
1000
0001
,
1010
0000
0011
0000
0110
1000
0011
0000
,
0010
0000
1000
0000
0010
1000
0010
1000
0011
0000
0100
0000
0011
0000
0000
0000
,
0101
0000
1100
0000
0110
0001
1100
0000
,
0100
0000
0001
0000
0100
0001
0100
0001
1100
0000
0010
0000
1100
0000
0000
0000
,
0011
0000
0101
0000
1001
0010
0101
0000
,
0001
0000
0010
0000
0001
0010
0001
0010
0101
0000
1000
0000
0101
0000
0000
0000
,
1100
0000
1010
0000
1001
0100
1010
0000
,
1000
0000
0100
0000
1000
0100
1000
0100
1000
0100
0001
0000
0001
0010
1000
0000
,
1001
0000
0110
0000
0110
0110
0220
0330
,
0110
0000
0000
0000
0110
0000
0110
0000
0110
0000
0110
0000
0010
0100
0010
0100
,
1001
1001
0101
1001
,
1001
0000
1001
0110
1001
0110
1001
0110
,
1001
0000
0000
0000
0000
0000
1000
0000
0001
0000
1000
0000
,
0002
0100
1000
0100
0000
0010
0000
0013
,
1000
0000
0010
0000
1000
0010
1000
0000
0001
0000
1000
0000
0001
0000
0001
0000
,
2100
0010
0001
0010
0000
0100
0000
3100
,
0001
0000
0100
0000
0001
0100
0001
0000
1000
0000
0001
0000
1000
0000
1000
0000
,
0201
1000
0010
1000
0000
0001
0000
0301
,
0010
0000
0001
0000
0010
0001
0010
0000
0100
0000
0010
0000
0100
0000
0100
0000
,
1020
0001
0100
0001
0000
1000
0000
1030
,
0100
0000
1000
0000
0100
1000
0100
0000
0010
0000
0100
0000
0010
0000
0010
0000
,
2000
0000
0100
0000
3200
0000
0020
0000
0300
0000
0031
0000
0001
0010
0100
0000
,
0200
0000
0000
0000
0301
0010
0001
0000
0001
0100
0001
0000
0010
1000
0010
0000
,
0002
0000
0010
0000
0023
0000
0200
0000
0030
0000
1300
0000
1000
0100
0010
0000
,
0020
0000
0000
0000
1030
0100
1000
0000
1000
0010
1000
0000
0100
0001
0100
0000
,
0020
0000
1000
0000
2030
0000
0002
0000
3000
0000
0103
0000
0100
0001
1000
0000
,
2000
0000
0000
0000
3100
0001
0100
0000
0100
1000
0100
0000
0001
0010
0001
0000
,
0200
0000
0001
0000
0302
0000
2000
0000
0003
0000
3010
0000
0010
1000
0001
0000
,
0002
0000
0000
0000
0013
1000
0010
0000
0010
0001
0010
0000
1000
0100
1000
0000
,
1000
0000
0001
0000
0100
0000
0010
0000
0100
0000
1000
0000
0100
0001
0100
0000
,
0010
1000
0010
0000
0010
0001
0010
0000
0200
0000
0010
0000
0000
0000
0310
0000
,
1000
0000
1000
0000
0001
0000
0010
0000
0100
0000
0010
0000
,
0100
0000
0001
0000
0100
0000
0010
0000
1000
0000
0010
0000
,
0001
0000
1000
0000
0010
0000
0100
0000
0010
0000
0001
0000
0010
1000
0010
0000
,
0100
0001
0100
0000
0100
1000
0100
0000
0020
0000
0100
0000
0000
0000
0130
0000
,
0001
0000
0001
0000
1000
0000
0100
0000
0010
0000
0100
0000
,
1000
0000
0100
0000
0001
0000
0100
0010
0001
0010
0100
1000
,
1000
0000
0001
0000
0100
0000
0010
0000
0100
0000
1000
0000
0100
0001
0100
0000
,
0010
1000
0010
0000
0010
0001
0010
0000
0200
0000
0010
0000
0000
0000
0310
0000
,
0001
0000
1000
0000
0010
0000
0100
0000
0010
0000
0001
0000
0010
1000
0010
0000
,
0100
0001
0100
0000
0100
1000
0100
0000
0020
0000
0100
0000
0000
0000
0130
0000
,
0010
0000
0100
0000
1000
0000
0001
0000
1000
0000
0010
0000
1000
0100
1000
0000
,
0001
0010
0001
0000
0001
0100
0001
0000
2000
0000
0001
0000
0000
0000
3001
0000
,
0100
0000
0010
0000
0001
0000
1000
0000
0001
0000
0100
0000
0001
0010
0001
0000
,
0100
0000
0100
0000
0000
0000
0010
0000
0100
0000
0010
0000
,
1200
0000
0000
0000
0000
0001
0010
0001
,
0000
0010
0001
0010
0000
0010
1000
0310
,
0021
0000
0000
0000
0000
1000
0100
1000
,
0000
0100
1000
0100
0000
0100
0001
0130
,
2010
0000
0000
0000
0000
0100
0001
0100
,
0000
0001
0100
0001
0000
0001
0010
3001
,
0102
0000
0000
0000
0000
0010
1000
0010
,
0000
1000
0010
1000
0000
1000
0100
1003
,
2002
0000
0000
0000
,
3003
0000
0000
0000
;

//---------------dance-single - Deluxe----------------
#NOTES:
     dance-single:
     Deluxe:
     Edit:
     18:
     1.125148,1.260911,0.935849,0.405811,1.138754,951.000000,838.000000,113.000000,49.000000,0.000000,0.000000,1.125148,1.260911,0.935849,0.405811,1.138754,951.000000,838.000000,113.000000,49.000000,0.000000,0.000000:
0000
0000
0000
0000
,
0000
0000
0000
0000
,
0000
0000
0000
0000
,
0000
0000
0000
0000
,
0000
0000
0000
0000
,
0000
0000
0000
0000
,
0000
0000
0000
0000
,
0000
0000
0000
0000
,
0000
0000
0000
0000
,
1001
0000
0001
0000
1010
0000
1000
0000
0001
0010
0100
0001
0010
0100
0010
0100
,
1001
0000
1000
0000
0101
0000
0001
0000
1000
0100
0010
1000
0100
0010
0100
0010
,
0110
0000
0100
0000
0011
0000
0010
0000
0100
0001
1000
0100
0001
1000
0001
1000
,
0110
0000
0010
0000
1100
0000
0100
0000
0010
1000
0001
0010
1000
0001
1000
0001
,
1020
0000
0100
0000
0001
0000
0000
0000
0100
0000
1000
0000
0001
1000
0130
0000
,
0201
0000
0010
0000
1000
0000
0000
0000
0010
0000
0001
0000
1000
0001
0310
0000
,
0012
0000
1000
0000
0100
0000
0000
0000
1000
0000
0010
0000
0100
0010
1003
0000
,
0110
0000
0010
0000
1010
0000
0101
0000
0010
0000
0110
0000
,
0012
0100
1000
0100
0010
0010
0010
0013
,
1000
0010
1000
0010
1000
0010
1000
0010
0001
0000
1000
0000
0001
0000
0001
0000
,
2100
0010
0001
0010
0100
0100
0100
3100
,
0001
0100
0001
0100
0001
0100
0001
0100
1000
0000
0001
0000
1000
0000
1000
0000
,
0201
1000
0010
1000
0001
0001
0001
0301
,
0010
0001
0010
0001
0010
0001
0010
0001
0100
0000
0010
0000
0100
0000
0100
0000
,
1020
0001
0100
0001
1000
1000
1000
1030
,
0100
1000
0100
1000
0100
1000
0100
1000
0010
0000
0100
0000
0010
0000
0010
0000
,
1000
1000
0001
1000
0100
0000
0010
0010
0100
1000
0100
1000
0100
0001
0100
0001
,
0010
1000
0010
1000
0010
0001
0010
0001
0210
0000
0010
0000
0010
0000
0310
0000
,
0001
0001
1000
0001
0010
0000
0100
0100
0010
0001
0010
0001
0010
1000
0010
1000
,
0100
0001
0100
0001
0100
1000
0100
1000
0120
0000
0100
0000
0100
0000
0130
0000
,
0010
0010
0100
0010
1000
0000
0001
0001
1000
0010
1000
0010
1000
0100
1000
0100
,
0001
0010
0001
0010
0001
0100
0001
0100
2001
0000
0001
0000
0001
0000
3001
0000
,
0100
0100
0010
0100
0001
0000
1000
1000
0001
0100
0001
0100
0001
0010
0001
0010
,
1000
0100
1000
0100
1000
0010
1000
0010
1000
0001
1000
0001
1000
0001
1000
0001
,
1010
0101
0011
0010
0110
1100
0011
0110
,
0010
1000
0010
1000
0010
1000
0010
1000
0011
0000
1100
0000
0011
0000
1100
0000
,
0101
1010
1100
0100
0110
0011
1100
0110
,
0100
0001
0100
0001
0100
0001
0100
0001
1100
0000
0011
0000
1100
0000
0011
0000
,
0011
1100
0101
0001
1001
1010
0101
1001
,
0001
0010
0001
0010
0001
0010
0001
0010
0101
0000
1010
0000
0101
0000
1010
0000
,
1100
0011
1010
1000
1001
0101
1010
1001
,
1000
0100
1000
0100
1000
0100
1000
0100
1010
0100
0001
0100
0101
0010
1000
0010
,
2002
3003
0110
0101
0110
0101
0220
0330
,
0110
0000
1010
0000
0110
0000
1010
0000
0110
0000
1010
0000
0101
0100
0001
0100
,
2002
3003
1001
0110
0101
1010
1001
0110
,
1001
0110
0011
0110
1100
1001
0110
1001
,
2002
0000
0000
0000
0000
0000
0000
0000
0000
3003
0000
0000
0011
0000
1000
0000
0100
0000
1100
0000
0001
0000
0010
0000
,
0012
0100
1000
0100
0010
0010
0010
0013
,
1000
0010
1000
0010
1000
0010
1000
0010
0001
0000
1000
0000
0001
0000
0001
0000
,
2100
0010
0001
0010
0100
0100
0100
3100
,
0001
0100
0001
0100
0001
0100
0001
0100
1000
0000
0001
0000
1000
0000
1000
0000
,
0201
1000
0010
1000
0001
0001
0001
0301
,
0010
0001
0010
0001
0010
0001
0010
0001
0100
0000
0010
0000
0100
0000
0100
0000
,
1020
0001
0100
0001
1000
1000
1000
1030
,
0100
1000
0100
1000
0100
1000
0100
1000
0010
0000
0100
0000
0010
0000
0010
0000
,
2000
0001
0100
0000
3200
0001
0020
0000
0300
0000
0031
1000
0001
0010
0100
1000
,
0200
0000
0010
0000
0301
0010
0001
0010
0001
0100
0001
0100
0010
1000
0010
1000
,
0002
1000
0010
0000
0023
1000
0200
0000
0030
0000
1300
0001
1000
0100
0010
0001
,
0020
0000
0100
0000
1030
0100
1000
0100
1000
0010
1000
0010
0100
0001
0100
0001
,
0020
0100
1000
0000
2030
0100
0002
0000
3000
0000
0103
0010
0100
0001
1000
0010
,
2000
0000
0001
0000
3100
0001
0100
0001
0100
1000
0100
1000
0001
0010
0001
0010
,
0200
0010
0001
0000
0302
0010
2000
0000
0003
0000
3010
0100
0010
1000
0001
0100
,
0002
0000
1000
0000
0013
1000
0010
1000
0010
0001
0010
0001
1000
0100
1000
0100
,
1000
1000
0001
1000
0100
0000
0010
0010
0100
1000
0100
1000
0100
0001
0100
0001
,
0010
1000
0010
0000
0010
0001
0010
0000
0210
0000
0010
0000
0010
0000
0310
0000
,
1000
0001
1000
0010
0001
1000
0010
0001
0100
0001
0010
1000
,
0100
1000
0001
1000
0100
1000
0010
0001
1000
0100
0010
0100
,
0001
0001
1000
0001
0010
0000
0100
0100
0010
0001
0010
0001
0010
1000
0010
1000
,
0100
0001
0100
0001
0100
1000
0100
1000
0120
0000
0100
0000
0100
0000
0130
0000
,
0001
1000
0001
0100
1000
0001
0100
1000
0010
1000
0100
0001
,
0010
0000
1000
0000
0010
0000
1000
0000
0010
0000
1000
0000
0100
0000
0010
0000
0001
0000
0010
0100
1000
0001
0010
0100
,
1000
1000
0001
1000
0100
0000
0010
0010
0100
1000
0100
1000
0100
0001
0100
0001
,
0010
1000
0010
1000
0010
0001
0010
0001
0210
0000
0010
0000
0010
0000
0310
0000
,
0001
0001
1000
0001
0010
0000
0100
0100
0010
0001
0010
0001
0010
1000
0010
1000
,
0100
0001
0100
0001
0100
1000
0100
1000
0120
0000
0100
0000
0100
0000
0130
0000
,
0010
0010
0100
0010
1000
0000
0001
0001
1000
0010
1000
0010
1000
0100
1000
0100
,
0001
0010
0001
0010
0001
0100
0001
0100
2001
0000
0001
0000
0001
0000
3001
0000
,
0100
0100
0010
0100
0001
0000
1000
1000
0001
0100
0001
0100
0001
0010
0001
0010
,
0101
0000
0100
0000
0110
0000
0110
0000
0100
0000
1010
0000
,
1200
0001
0010
0000
0001
0000
0010
0000
0000
0000
0001
0000
0010
0000
0001
0000
,
0000
0010
0001
0010
0000
0010
1000
0310
,
0021
1000
0100
0000
1000
0000
0100
0000
0000
0000
1000
0000
0100
0000
1000
0000
,
0000
0100
1000
0100
0000
0100
0001
0130
,
2010
0100
0001
0000
0100
0000
0001
0000
0000
0000
0100
0000
0001
0000
0100
0000
,
0000
0001
0100
0001
0000
0001
0010
3001
,
0102
0010
1000
0000
0010
0000
1000
0000
0000
0000
0010
0000
1000
0000
0010
0000
,
0000
1000
0010
1000
0000
1000
0100
1003
,
2002
0000
0000
0000
,
3003
0000
0000
0000
;

//---------------dance-single - Enjoy----------------
#NOTES:
     dance-single:
     Enjoy:
     Edit:
     1:
     0.028395,0.071224,0.033127,0.000000,0.000000,24.000000,20.000000,4.000000,0.000000,0.000000,0.000000,0.028395,0.071224,0.033127,0.000000,0.000000,24.000000,20.000000,4.000000,0.000000,0.000000,0.000000:
0000
0000
0000
0000
,
0000
0000
0000
0000
,
0000
0000
0000
0000
,
0000
0000
0000
0000
,
0000
0000
0000
0000
,
0000
0000
0000
0000
,
0000
0000
0000
0000
,
0000
0000
0000
0000
,
0000
0000
0000
0000
,
1000
0000
0000
0000
,
0000
0000
0000
0000
,
0000
0000
0000
0000
,
0000
0000
0000
0000
,
0001
0000
0000
0000
,
0000
0000
0000
0000
,
0000
0000
0000
0000
,
0000
0000
0000
0000
,
0110
0000
0000
0000
,
0000
0000
0000
0000
,
0000
0000
0000
0000
,
0000
0000
0000
0000
,
1000
0000
0000
0000
,
0000
0000
0000
0000
,
0000
0000
0000
0000
,
0000
0000
0000
0000
,
0001
0000
0000
0000
,
0000
0000
0000
0000
,
0000
0000
0000
0000
,
0000
0000
0000
0000
,
0010
0000
0000
0000
,
0000
0000
0000
0000
,
0000
0000
0000
0000
,
0000
0000
0000
0000
,
1000
0000
0000
0000
,
0000
0000
0000
0000
,
0000
0000
0000
0000
,
0000
0000
0000
0000
,
0100
0000
0000
0000
,
0000
0000
0000
0000
,
0000
0000
0000
0000
,
0000
0000
0000
0000
,
1001
0000
0000
0000
,
0000
0000
0000
0000
,
0000
0000
0000
0000
,
0000
0000
0000
0000
,
0000
0000
0000
0000
,
1001
0000
0000
0000
,
0000
0000
0000
0000
,
0000
0000
0000
0000
,
0000
0000
0000
0000
,
1000
0000
0000
0000
,
0000
0000
0000
0000
,
0000
0000
0000
0000
,
0000
0000
0000
0000
,
0010
0000
0000
0000
,
0000
0000
0000
0000
,
0000
0000
0000
0000
,
0000
0000
0000
0000
,
0010
0000
0000
0000
,
0000
0000
0000
0000
,
0000
0000
0000
0000
,
0000
0000
0000
0000
,
1000
0000
0000
0000
,
0000
0000
0000
0000
,
0000
0000
0000
0000
,
0000
0000
0000
0000
,
0100
0000
0000
0000
,
0000
0000
0000
0000
,
0000
0000
0000
0000
,
0000
0000
0000
0000
,
0001
0000
0000
0000
,
0000
0000
0000
0000
,
0000
0000
0000
0000
,
0000
0000
0000
0000
,
0010
0000
0000
0000
,
0000
0000
0000
0000
,
0000
0000
0000
0000
,
0000
0000
0000
0000
,
1000
0000
0000
0000
,
0000
0000
0000
0000
,
0000
0000
0000
0000
,
0000
0000
0000
0000
,
0001
0000
0000
0000
,
0000
0000
0000
0000
,
0000
0000
0000
0000
,
0000
0000
0000
0000
,
1001
0000
0000
0000
;

//---------------dance-single - Plus----------------
#NOTES:
     dance-single:
     Plus:
     Edit:
     15:
     0.764296,0.900651,0.190482,0.521756,0.703957,646.000000,623.000000,23.000000,63.000000,0.000000,0.000000,0.764296,0.900651,0.190482,0.521756,0.703957,646.000000,623.000000,23.000000,63.000000,0.000000,0.000000:
// measure 0
0000
0000
0000
0000
,  // measure 1
0000
0000
0000
0000
,  // measure 2
0000
0000
0000
0000
,  // measure 3
0000
0000
0000
0000
,  // measure 4
0000
0000
0000
0000
,  // measure 5
0000
0000
0000
0000
,  // measure 6
0000
0000
0000
0000
,  // measure 7
0000
0000
0000
0000
,  // measure 8
0000
0000
0000
0000
,  // measure 9
1000
0000
0000
0000
1000
0000
0000
0000
1000
0010
1000
0000
1000
0000
0000
0000
,  // measure 10
0001
0000
0000
0000
0001
0000
0000
0000
0001
0100
0001
0000
0001
0000
0000
0000
,  // measure 11
0010
0000
0000
0000
0010
0000
0000
0000
0010
0001
0010
0000
0010
0000
0000
0000
,  // measure 12
0100
0000
0000
0000
0100
0000
0000
0000
0100
1000
0100
0000
0100
0000
0000
0000
,  // measure 13
0020
0000
0001
0001
0001
0000
0130
0000
,  // measure 14
0020
0000
0100
0100
1000
0000
0031
0000
,  // measure 15
0020
0000
0100
1000
0001
0000
1030
0000
,  // measure 16
1000
0000
0010
0000
0100
0000
0010
0000
0001
0000
0010
0000
,  // measure 17
0100
0100
0100
0100
0000
0020
0230
2300
,  // measure 18
3200
0000
0310
0000
0001
0010
0100
1000
0100
0000
0010
0000
0100
0000
0010
0000
,  // measure 19
0001
0001
0010
0010
0100
0100
1000
1000
,  // measure 20
0020
0000
0130
0000
1000
0100
0010
0001
0010
0000
0100
0000
0010
0000
0100
0000
,  // measure 21
1010
0010
0101
0020
0030
0101
0010
0200
,  // measure 22
0300
0000
0011
0000
0100
0000
2000
0000
3000
0000
0100
0010
0100
0000
0010
0000
,  // measure 23
0002
0023
0230
2300
3200
0320
0032
0003
,  // measure 24
1000
0010
1000
0000
0010
0100
0010
0000
0001
0100
0001
0000
0010
1000
0010
0000
,  // measure 25
0200
0000
0000
0000
0010
0000
0000
0000
0310
0100
0010
0000
1000
0100
1000
0000
,  // measure 26
0001
0010
0001
0000
0100
0010
0100
0000
1000
0100
0010
0000
0001
0010
0100
0000
,  // measure 27
0020
0000
0000
0000
0100
0000
0000
0000
0130
0010
0100
0000
0001
0010
0001
0000
,  // measure 28
1000
0100
1000
0000
0010
0100
0010
0000
0001
0010
0100
0000
1000
0100
0010
0000
,  // measure 29
2000
0000
0000
0000
0001
0000
0000
0000
3001
1000
0001
0000
0010
1000
0010
0000
,  // measure 30
0100
0001
0100
0000
1000
0001
1000
0000
0010
1000
0001
0000
0100
0001
1000
0000
,  // measure 31
0002
0000
0000
0000
1000
0000
0000
0000
1003
0001
1000
0000
0100
0001
0100
0000
,  // measure 32
0010
1000
0010
0000
0001
1000
0001
0000
0100
0001
1000
0000
0010
1000
0001
0000
,  // measure 33
0020
0000
0000
0000
0100
0000
0000
0000
0130
0010
0100
0000
0001
0010
0001
0000
,  // measure 34
1000
0100
1000
0000
0010
0100
0010
0000
0001
0010
0100
0000
1000
0100
0010
0000
,  // measure 35
0200
0000
0000
0000
0010
0000
0000
0000
0310
0100
0010
0000
1000
0100
1000
0000
,  // measure 36
0001
0010
0001
0000
0100
0010
0100
0000
1000
0100
0010
0000
0001
0010
0100
0000
,  // measure 37
0002
0000
0000
0000
1000
0000
0000
0000
1003
0001
1000
0000
0100
0001
0100
0000
,  // measure 38
0010
1000
0010
0000
0001
1000
0001
0000
0100
0001
1000
0000
0010
1000
0001
0000
,  // measure 39
2000
0000
0000
0000
0001
0000
0000
0000
3001
1000
0001
0000
0010
1000
0010
0000
,  // measure 40
0100
0001
0100
0000
1000
0001
1000
0000
0010
1000
0001
0000
0100
0001
1000
0000
,  // measure 41
0020
0030
1000
1000
1000
1000
1010
0000
,  // measure 42
0001
0000
0001
0000
0001
0000
0001
0000
0001
0000
0001
0000
0010
0100
0010
0100
,  // measure 43
0020
0030
1000
1000
0100
0100
0010
0010
,  // measure 44
0001
0001
0010
0010
0100
0100
1000
1000
,  // measure 45
1001
0000
0000
0000
0000
0000
1000
0000
0100
0000
0010
0000
,  // measure 46
0010
0010
0010
0010
0000
0200
0320
0032
,  // measure 47
0023
0000
0130
0000
1000
0100
0010
0001
0010
0000
0100
0000
0010
0000
0100
0000
,  // measure 48
1000
1000
0100
0100
0010
0010
0001
0001
,  // measure 49
0200
0000
0310
0000
0001
0010
0100
1000
0100
0000
0010
0000
0100
0000
0010
0000
,  // measure 50
0101
0100
1010
0200
0300
1010
0100
0020
,  // measure 51
0030
0000
1100
0000
0010
0000
0002
0000
0003
0000
0010
0100
0010
0000
0100
0000
,  // measure 52
2000
3200
0320
0032
0023
0230
2300
3000
,  // measure 53
0001
0100
0001
0000
0100
0010
0100
0000
1000
0010
1000
0000
0100
0001
0100
0000
,  // measure 54
2010
0000
0010
0000
0001
0000
3001
0000
0000
0000
0001
0010
0100
1000
0010
0000
,  // measure 55
0000
0000
0001
0010
0001
0010
0000
0000
0100
0010
0000
0000
0010
0100
0000
0000
,  // measure 56
0102
0000
0100
0000
1000
0000
1003
0000
0000
0000
1000
0100
0010
0001
0100
0000
,  // measure 57
0000
0000
1000
0100
1000
0100
0000
0000
0010
0100
0000
0000
0100
0010
0000
0000
,  // measure 58
0021
0000
0001
0000
0100
0000
0130
0000
0000
0000
0100
0001
1000
0010
0001
0000
,  // measure 59
0000
0000
0100
0001
0100
0001
0000
0000
1000
0001
0000
0000
0001
1000
0000
0000
,  // measure 60
1200
0000
1000
0000
0010
0000
0310
0000
0000
0000
0010
1000
0001
0100
1000
0000
,  // measure 61
0000
0000
0010
1000
0010
1000
0000
0000
0001
1000
0000
0000
1000
0001
0000
0000
,  // measure 62
0200
0000
0000
0000
0010
0000
0000
0000
0310
0100
0010
0000
1000
0100
1000
0000
,  // measure 63
0001
0010
0001
0000
0100
0010
0100
0000
1000
0100
0010
0000
0001
0010
0100
0000
,  // measure 64
1000
0100
1000
0010
0100
0010
0001
0010
0001
0010
0100
0010
,  // measure 65
0001
0010
0001
0100
0010
0100
1000
0100
1000
0100
0010
0100
,  // measure 66
0020
0000
0000
0000
0100
0000
0000
0000
0130
0010
0100
0000
0001
0010
0001
0000
,  // measure 67
1000
0100
1000
0000
0010
0100
0010
0000
0001
0010
0100
0000
1000
0100
0010
0000
,  // measure 68
0001
0010
0001
0100
0010
0100
1000
0100
1000
0100
0010
0100
,  // measure 69
1000
0100
1000
0010
0100
0010
0001
0010
0001
0010
0100
0010
,  // measure 70
2000
0000
0000
0000
0001
0000
0000
0000
3001
1000
0001
0000
0010
1000
0010
0000
,  // measure 71
0100
0001
0100
0000
1000
0001
1000
0000
0010
1000
0001
0000
0100
0001
1000
0000
,  // measure 72
0002
0000
0000
0000
1000
0000
0000
0000
1003
0001
1000
0000
0100
0001
0100
0000
,  // measure 73
0010
1000
0010
0000
0001
1000
0001
0000
0100
0001
1000
0000
0010
1000
0001
0000
,  // measure 74
0020
0000
0000
0000
0100
0000
0000
0000
0130
0010
0100
0000
0001
0010
0001
0000
,  // measure 75
1000
0100
1000
0000
0010
0100
0010
0000
0001
0010
0100
0000
1000
0100
0010
0000
,  // measure 76
0200
0000
0000
0000
0010
0000
0000
0000
0310
0100
0010
0000
1000
0100
1000
0000
,  // measure 77
0001
0000
0100
0000
0010
0000
0100
0000
1000
0000
0100
0000
,  // measure 78
2010
0000
0010
3000
,  // measure 79
0102
0000
0100
0003
,  // measure 80
0021
0000
0001
0030
,  // measure 81
1200
0000
1000
0300
,  // measure 82
0102
0000
0100
0003
,  // measure 83
2010
0000
0010
3000
,  // measure 84
1200
0000
1000
0300
,  // measure 85
0021
0000
0001
0030
,  // measure 86
2002
0000
0000
0000
,  // measure 87
3003
0000
0000
0000
;
