#VERSION:0.83;
#TITLE:MIRU Key way;
#SUBTITLE:(for Sentinel Mix);
#ARTIST:JaccaPoP;
#TITLETRANSLIT:;
#SUBTITLETRANSLIT:;
#ARTISTTRANSLIT:;
#GENRE:ELECTRO POP;
#ORIGIN:;
#CREDIT:;
#BANNER:;
#BACKGROUND:;
#PREVIEWVID:;
#JACKET:;
#CDIMAGE:;
#DISCIMAGE:;
#LYRICSPATH:;
#CDTITLE:;
#MUSIC:MIRU Key way.ogg;
#OFFSET:-0.400000;
#SAMPLESTART:44.246155;
#SAMPLELENGTH:15.000000;
#SELECTABLE:YES;
#BPMS:0.000=130.000;
#STOPS:;
#DELAYS:;
#WARPS:;
#TIMESIGNATURES:0.000=4=4;
#TICKCOUNTS:0.000=4;
#COMBOS:0.000=1;
#SPEEDS:0.000=1.000=0.000=0;
#SCROLLS:0.000=1.000;
#FAKES:;
#LABELS:0.000=Song Start;
#BGCHANGES:;
#KEYSOUNDS:;
#ATTACKS:
;

//---------------dance-single - ----------------
#NOTEDATA:;
#CHARTNAME:;
#STEPSTYPE:dance-single;
#DESCRIPTION:;
#CHARTSTYLE:;
#DIFFICULTY:Easy;
#METER:2;
#RADARVALUES:0.050208,0.100930,0.009012,0.045058,0.000000,39.000000,38.000000,1.000000,5.000000,0.000000,0.000000,0.000000,0.000000,0.000000,0.050208,0.100930,0.009012,0.045058,0.000000,39.000000,38.000000,1.000000,5.000000,0.000000,0.000000,0.000000,0.000000,0.000000;
#CREDIT:;
#NOTES:
// measure 0
0000
0000
0000
0000
,  // measure 1
0000
0000
0000
0000
,  // measure 2
0000
0000
0000
0000
,  // measure 3
0000
0000
0000
0000
,  // measure 4
0000
0000
0000
0000
,  // measure 5
0000
0000
0000
0000
,  // measure 6
0000
0000
0000
0000
,  // measure 7
0000
0000
0000
0000
,  // measure 8
1000
0000
0000
0000
,  // measure 9
0000
0000
0000
0000
,  // measure 10
0001
0000
0000
0000
,  // measure 11
0000
0000
0000
0000
,  // measure 12
0010
0000
0000
0000
,  // measure 13
0000
0000
0000
0000
,  // measure 14
0010
0000
0000
0000
,  // measure 15
0000
0000
0000
0000
,  // measure 16
0200
0000
0000
0000
,  // measure 17
0300
0000
0000
0000
,  // measure 18
0020
0000
0000
0000
,  // measure 19
0030
0000
0000
0000
,  // measure 20
0200
0000
0000
0000
,  // measure 21
0300
0000
0000
0000
,  // measure 22
0020
0000
0000
0000
,  // measure 23
0030
0000
0000
0000
,  // measure 24
1000
0000
0000
0000
,  // measure 25
1000
0000
0000
0000
,  // measure 26
0010
0000
0000
0000
,  // measure 27
0010
0000
0000
0000
,  // measure 28
0001
0000
0000
0000
,  // measure 29
0001
0000
0000
0000
,  // measure 30
0100
0000
0000
0000
,  // measure 31
0100
0000
0000
0000
,  // measure 32
1000
0000
0000
0000
,  // measure 33
1000
0000
0000
0000
,  // measure 34
0010
0000
0000
0000
,  // measure 35
0010
0000
0000
0000
,  // measure 36
0001
0000
0000
0000
,  // measure 37
0001
0000
0000
0000
,  // measure 38
0100
0000
0000
0000
,  // measure 39
0100
0000
0000
0000
,  // measure 40
0100
0000
0000
0000
,  // measure 41
0000
0000
0000
0000
,  // measure 42
0100
0000
0000
0000
,  // measure 43
0000
0000
0000
0000
,  // measure 44
0010
0000
0000
0000
,  // measure 45
0000
0000
0000
0000
,  // measure 46
0010
0000
0000
0000
,  // measure 47
0020
0000
0030
0000
,  // measure 48
1000
0000
0000
0000
,  // measure 49
1000
0000
0000
0000
,  // measure 50
0010
0000
0000
0000
,  // measure 51
0010
0000
0000
0000
,  // measure 52
0001
0000
0000
0000
,  // measure 53
0001
0000
0000
0000
,  // measure 54
0100
0000
0000
0000
,  // measure 55
0100
0000
0000
0000
,  // measure 56
1001
0000
0000
0000
;

//---------------dance-single - ----------------
#NOTEDATA:;
#CHARTNAME:;
#STEPSTYPE:dance-single;
#DESCRIPTION:;
#CHARTSTYLE:;
#DIFFICULTY:Beginner;
#METER:1;
#RADARVALUES:0.029610,0.075697,0.009012,0.027035,0.000000,23.000000,22.000000,1.000000,3.000000,0.000000,0.000000,0.000000,0.000000,0.000000,0.029610,0.075697,0.009012,0.027035,0.000000,23.000000,22.000000,1.000000,3.000000,0.000000,0.000000,0.000000,0.000000,0.000000;
#CREDIT:;
#NOTES:
// measure 0
0000
0000
0000
0000
,  // measure 1
0000
0000
0000
0000
,  // measure 2
0000
0000
0000
0000
,  // measure 3
0000
0000
0000
0000
,  // measure 4
0000
0000
0000
0000
,  // measure 5
0000
0000
0000
0000
,  // measure 6
0000
0000
0000
0000
,  // measure 7
0000
0000
0000
0000
,  // measure 8
1000
0000
0000
0000
,  // measure 9
0000
0000
0000
0000
,  // measure 10
0001
0000
0000
0000
,  // measure 11
0000
0000
0000
0000
,  // measure 12
0010
0000
0000
0000
,  // measure 13
0000
0000
0000
0000
,  // measure 14
0010
0000
0000
0000
,  // measure 15
0000
0000
0000
0000
,  // measure 16
0200
0000
0000
0000
,  // measure 17
0000
0000
0000
0000
,  // measure 18
0000
0000
0000
0000
,  // measure 19
0300
0000
0000
0000
,  // measure 20
0020
0000
0000
0000
,  // measure 21
0000
0000
0000
0000
,  // measure 22
0000
0000
0000
0000
,  // measure 23
0030
0000
0000
0000
,  // measure 24
1000
0000
0000
0000
,  // measure 25
0000
0000
0000
0000
,  // measure 26
0010
0000
0000
0000
,  // measure 27
0000
0000
0000
0000
,  // measure 28
0001
0000
0000
0000
,  // measure 29
0000
0000
0000
0000
,  // measure 30
0100
0000
0000
0000
,  // measure 31
0000
0000
0000
0000
,  // measure 32
1000
0000
0000
0000
,  // measure 33
0000
0000
0000
0000
,  // measure 34
0010
0000
0000
0000
,  // measure 35
0000
0000
0000
0000
,  // measure 36
0001
0000
0000
0000
,  // measure 37
0000
0000
0000
0000
,  // measure 38
0100
0000
0000
0000
,  // measure 39
0000
0000
0000
0000
,  // measure 40
0100
0000
0000
0000
,  // measure 41
0000
0000
0000
0000
,  // measure 42
0000
0000
0000
0000
,  // measure 43
0000
0000
0000
0000
,  // measure 44
0010
0000
0000
0000
,  // measure 45
0000
0000
0000
0000
,  // measure 46
0000
0000
0000
0000
,  // measure 47
0020
0000
0030
0000
,  // measure 48
1000
0000
0000
0000
,  // measure 49
0000
0000
0000
0000
,  // measure 50
0010
0000
0000
0000
,  // measure 51
0000
0000
0000
0000
,  // measure 52
0001
0000
0000
0000
,  // measure 53
0000
0000
0000
0000
,  // measure 54
0100
0000
0000
0000
,  // measure 55
0000
0000
0000
0000
,  // measure 56
1001
0000
0000
0000
;

//---------------dance-single - ----------------
#NOTEDATA:;
#CHARTNAME:;
#STEPSTYPE:dance-single;
#DESCRIPTION:;
#CHARTSTYLE:;
#DIFFICULTY:Medium;
#METER:2;
#RADARVALUES:0.059219,0.100930,0.045058,0.045058,0.000000,46.000000,41.000000,5.000000,5.000000,0.000000,0.000000,0.000000,0.000000,0.000000,0.059219,0.100930,0.045058,0.045058,0.000000,46.000000,41.000000,5.000000,5.000000,0.000000,0.000000,0.000000,0.000000,0.000000;
#CREDIT:;
#NOTES:
// measure 0
0000
0000
0000
0000
,  // measure 1
0000
0000
0000
0000
,  // measure 2
0000
0000
0000
0000
,  // measure 3
0000
0000
0000
0000
,  // measure 4
0000
0000
0000
0000
,  // measure 5
0000
0000
0000
0000
,  // measure 6
0000
0000
0000
0000
,  // measure 7
0000
0000
0000
0000
,  // measure 8
1000
0000
0000
0000
,  // measure 9
0000
0000
0000
0000
,  // measure 10
0001
0000
0000
0000
,  // measure 11
0000
0000
0000
0000
,  // measure 12
0010
0000
0000
0000
,  // measure 13
0000
0000
0000
0000
,  // measure 14
0010
0000
0000
0000
,  // measure 15
0010
0000
0000
0000
,  // measure 16
0200
0000
0000
0000
,  // measure 17
0000
0000
0000
0300
,  // measure 18
0020
0000
0000
0000
,  // measure 19
0000
0000
0000
0030
,  // measure 20
0200
0000
0000
0000
,  // measure 21
0000
0000
0000
0300
,  // measure 22
0020
0000
0000
0000
,  // measure 23
0000
0000
0000
0030
,  // measure 24
1001
0000
0000
0000
,  // measure 25
1000
0000
0000
0000
,  // measure 26
0010
0000
0000
0000
,  // measure 27
0010
0000
0000
0000
,  // measure 28
0001
0000
0000
0000
,  // measure 29
0001
0000
0000
0000
,  // measure 30
0100
0000
0000
0000
,  // measure 31
0100
0000
0000
0000
,  // measure 32
1001
0000
0000
0000
,  // measure 33
1000
0000
0000
0000
,  // measure 34
0010
0000
0000
0000
,  // measure 35
0010
0000
0000
0000
,  // measure 36
0001
0000
0000
0000
,  // measure 37
0001
0000
0000
0000
,  // measure 38
0100
0000
0000
0000
,  // measure 39
0100
0000
0000
0000
,  // measure 40
0100
0000
0000
0000
,  // measure 41
0100
0000
0000
0000
,  // measure 42
0100
0000
0000
0000
,  // measure 43
0000
0000
0000
0000
,  // measure 44
0010
0000
0000
0000
,  // measure 45
0010
0000
0000
0000
,  // measure 46
0010
0000
0000
0000
,  // measure 47
0020
0000
0030
0000
,  // measure 48
1001
0000
0000
0000
,  // measure 49
1000
0000
0000
0000
,  // measure 50
0010
0000
0000
0000
,  // measure 51
0010
0000
0000
0000
,  // measure 52
1001
0000
0000
0000
,  // measure 53
0001
0000
0000
0000
,  // measure 54
0100
0000
0000
0000
,  // measure 55
0100
0000
0000
0000
,  // measure 56
1001
0000
0000
0000
;

//---------------dance-single - ----------------
#NOTEDATA:;
#CHARTNAME:;
#STEPSTYPE:dance-single;
#DESCRIPTION:;
#CHARTSTYLE:;
#DIFFICULTY:Hard;
#METER:2;
#RADARVALUES:0.068231,0.126162,0.063081,0.054070,0.000000,53.000000,46.000000,7.000000,6.000000,0.000000,0.000000,0.000000,0.000000,0.000000,0.068231,0.126162,0.063081,0.054070,0.000000,53.000000,46.000000,7.000000,6.000000,0.000000,0.000000,0.000000,0.000000,0.000000;
#CREDIT:;
#NOTES:
// measure 0
0000
0000
0000
0000
,  // measure 1
0000
0000
0000
0000
,  // measure 2
0000
0000
0000
0000
,  // measure 3
0000
0000
0000
0000
,  // measure 4
0000
0000
0000
0000
,  // measure 5
0000
0000
0000
0000
,  // measure 6
0000
0000
0000
0000
,  // measure 7
0000
0000
0000
0000
,  // measure 8
1000
0000
0000
0000
,  // measure 9
1000
0000
0000
0000
,  // measure 10
0001
0000
0000
0000
,  // measure 11
0001
0000
0000
0000
,  // measure 12
0010
0000
0000
0000
,  // measure 13
0010
0000
0000
0000
,  // measure 14
0010
0000
0000
0000
,  // measure 15
0010
0000
0000
0000
,  // measure 16
0200
0000
0000
0000
,  // measure 17
0000
0000
0000
0300
,  // measure 18
0020
0000
0000
0000
,  // measure 19
0000
0000
0000
0030
,  // measure 20
0200
0000
0000
0000
,  // measure 21
0000
0000
0000
0300
,  // measure 22
0020
0000
0000
0000
,  // measure 23
0000
0000
0000
0030
,  // measure 24
1001
0000
0000
0000
,  // measure 25
1000
0000
0000
0000
,  // measure 26
0010
0000
0000
0000
,  // measure 27
0010
0000
0000
0000
,  // measure 28
1001
0000
0000
0000
,  // measure 29
0001
0000
0000
0000
,  // measure 30
0100
0000
0000
0000
,  // measure 31
0100
0000
0000
0000
,  // measure 32
1001
0000
0000
0000
,  // measure 33
1000
0000
0000
0000
,  // measure 34
0010
0000
0000
0000
,  // measure 35
0010
0000
0000
0000
,  // measure 36
1001
0000
0000
0000
,  // measure 37
0001
0000
0000
0000
,  // measure 38
0100
0000
0000
0000
,  // measure 39
0100
0000
0000
0000
,  // measure 40
0100
0000
0000
0000
,  // measure 41
0100
0000
0000
0000
,  // measure 42
0100
0000
0000
0000
,  // measure 43
0200
0000
0300
0000
,  // measure 44
0010
0000
0000
0000
,  // measure 45
0010
0000
0000
0000
,  // measure 46
0010
0000
0000
0000
,  // measure 47
0020
0000
0030
0000
,  // measure 48
1001
0000
0000
0000
,  // measure 49
1000
0000
0000
0000
,  // measure 50
0010
0000
0000
0000
,  // measure 51
0010
0000
0000
0000
,  // measure 52
1001
0000
0000
0000
,  // measure 53
0001
0000
0000
0000
,  // measure 54
0100
0000
0000
0000
,  // measure 55
0100
0000
0100
0000
,  // measure 56
1001
0000
0000
0000
;

//---------------dance-single - ----------------
#NOTEDATA:;
#CHARTNAME:;
#STEPSTYPE:dance-single;
#DESCRIPTION:;
#CHARTSTYLE:;
#DIFFICULTY:Challenge;
#METER:3;
#RADARVALUES:0.083679,0.126162,0.072093,0.054070,0.000000,65.000000,57.000000,8.000000,6.000000,0.000000,0.000000,0.000000,0.000000,0.000000,0.083679,0.126162,0.072093,0.054070,0.000000,65.000000,57.000000,8.000000,6.000000,0.000000,0.000000,0.000000,0.000000,0.000000;
#CREDIT:;
#NOTES:
// measure 0
0000
0000
0000
0000
,  // measure 1
0000
0000
0000
0000
,  // measure 2
0000
0000
0000
0000
,  // measure 3
0000
0000
0000
0000
,  // measure 4
0000
0000
0000
0000
,  // measure 5
0000
0000
0000
0000
,  // measure 6
0000
0000
0000
0000
,  // measure 7
0000
0000
0000
0000
,  // measure 8
1001
0000
0000
0000
,  // measure 9
1000
0000
0000
0000
,  // measure 10
0001
0000
0000
0000
,  // measure 11
0001
0000
0000
0000
,  // measure 12
0010
0000
0000
0000
,  // measure 13
0010
0000
0000
0000
,  // measure 14
0010
0000
0000
0000
,  // measure 15
0010
0000
0000
0000
,  // measure 16
0200
0000
0000
0000
,  // measure 17
0010
0000
0000
0300
,  // measure 18
0020
0000
0000
0000
,  // measure 19
1000
0000
0000
0030
,  // measure 20
0200
0000
0000
0000
,  // measure 21
0001
0000
0000
0300
,  // measure 22
0020
0000
0000
0000
,  // measure 23
0100
0000
0000
0030
,  // measure 24
1001
0000
0000
0000
,  // measure 25
1000
0000
0000
0000
,  // measure 26
0010
0000
0000
0000
,  // measure 27
0010
0000
0010
0000
,  // measure 28
1001
0000
0000
0000
,  // measure 29
0001
0000
0000
0000
,  // measure 30
0100
0000
0000
0000
,  // measure 31
0100
0000
0100
0000
,  // measure 32
1001
0000
0000
0000
,  // measure 33
1000
0000
0000
0000
,  // measure 34
0010
0000
0000
0000
,  // measure 35
0010
0000
0010
0000
,  // measure 36
1001
0000
0000
0000
,  // measure 37
0001
0000
0000
0000
,  // measure 38
0100
0000
0000
0000
,  // measure 39
0100
0000
0100
0000
,  // measure 40
0100
0000
0000
0000
,  // measure 41
0100
0000
0000
0000
,  // measure 42
0100
0000
0000
0000
,  // measure 43
0200
0000
0310
0000
,  // measure 44
0010
0000
0000
0000
,  // measure 45
0010
0000
0000
0000
,  // measure 46
0010
0000
0000
0000
,  // measure 47
0020
0000
0130
0000
,  // measure 48
1001
0000
0000
0000
,  // measure 49
1000
0000
0000
0000
,  // measure 50
0010
0000
0000
0000
,  // measure 51
0010
0000
0010
0000
,  // measure 52
1001
0000
0000
0000
,  // measure 53
0001
0000
0000
0000
,  // measure 54
0100
0000
0000
0000
,  // measure 55
0100
0000
0100
0000
,  // measure 56
1001
0000
0000
0000
;

//---------------dance-single - Deluxe----------------
#NOTEDATA:;
#CHARTNAME:Deluxe;
#STEPSTYPE:dance-single;
#DESCRIPTION:Deluxe;
#CHARTSTYLE:;
#DIFFICULTY:Edit;
#METER:3;
#RADARVALUES:0.099128,0.151395,0.117151,0.108139,0.000000,77.000000,64.000000,13.000000,12.000000,0.000000,0.000000,0.000000,0.000000,0.000000,0.099128,0.151395,0.117151,0.108139,0.000000,77.000000,64.000000,13.000000,12.000000,0.000000,0.000000,0.000000,0.000000,0.000000;
#CREDIT:;
#NOTES:
// measure 0
0000
0000
0000
0000
,  // measure 1
0000
0000
0000
0000
,  // measure 2
0000
0000
0000
0000
,  // measure 3
0000
0000
0000
0000
,  // measure 4
0000
0000
0000
0000
,  // measure 5
0000
0000
0000
0000
,  // measure 6
0000
0000
0000
0000
,  // measure 7
0000
0000
0000
0000
,  // measure 8
1001
0000
0000
0000
,  // measure 9
1000
0000
0000
0000
,  // measure 10
1001
0000
0000
0000
,  // measure 11
0001
0000
0000
0000
,  // measure 12
0010
0000
0000
0000
,  // measure 13
0010
0000
0000
0000
,  // measure 14
0010
0000
0000
0000
,  // measure 15
0010
0000
0010
0000
,  // measure 16
0210
0000
0000
0000
,  // measure 17
0010
0000
0000
0300
,  // measure 18
1020
0000
0000
0000
,  // measure 19
1000
0000
0000
0030
,  // measure 20
0201
0000
0000
0000
,  // measure 21
0001
0000
0000
0300
,  // measure 22
0120
0000
0000
0000
,  // measure 23
0100
0000
0000
0030
,  // measure 24
1001
0000
0000
0000
,  // measure 25
1000
0000
0000
0000
,  // measure 26
0010
0000
0010
0000
,  // measure 27
0010
0000
0010
0000
,  // measure 28
1001
0000
0000
0000
,  // measure 29
0001
0000
0000
0000
,  // measure 30
0100
0000
0100
0000
,  // measure 31
0100
0000
0100
0000
,  // measure 32
1001
0000
0000
0000
,  // measure 33
1000
0000
0000
0000
,  // measure 34
0010
0000
0010
0000
,  // measure 35
0010
0000
0010
0000
,  // measure 36
1001
0000
0000
0000
,  // measure 37
0001
0000
0000
0000
,  // measure 38
0100
0000
0100
0000
,  // measure 39
0100
0000
0100
0000
,  // measure 40
0200
0000
0000
0300
,  // measure 41
0200
0000
0000
0300
,  // measure 42
0200
0000
0000
0300
,  // measure 43
0200
0000
0310
0000
,  // measure 44
0020
0000
0000
0030
,  // measure 45
0020
0000
0000
0030
,  // measure 46
0020
0000
0000
0030
,  // measure 47
0020
0000
0130
0000
,  // measure 48
1001
0000
0000
0000
,  // measure 49
1000
0000
0000
0000
,  // measure 50
0010
0000
0010
0000
,  // measure 51
0010
0000
0010
0000
,  // measure 52
1001
0000
0000
0000
,  // measure 53
0001
0000
0000
0000
,  // measure 54
0100
0000
0100
0000
,  // measure 55
0100
0000
0100
0000
,  // measure 56
1001
0000
0000
0000
;

//---------------dance-single - Enjoy----------------
#NOTEDATA:;
#CHARTNAME:Enjoy;
#STEPSTYPE:dance-single;
#DESCRIPTION:Enjoy;
#CHARTSTYLE:;
#DIFFICULTY:Edit;
#METER:1;
#RADARVALUES:0.016736,0.050465,0.009012,0.009012,0.000000,13.000000,12.000000,1.000000,1.000000,0.000000,0.000000,0.000000,0.000000,0.000000,0.016736,0.050465,0.009012,0.009012,0.000000,13.000000,12.000000,1.000000,1.000000,0.000000,0.000000,0.000000,0.000000,0.000000;
#CREDIT:;
#NOTES:
// measure 0
0000
0000
0000
0000
,  // measure 1
0000
0000
0000
0000
,  // measure 2
0000
0000
0000
0000
,  // measure 3
0000
0000
0000
0000
,  // measure 4
0000
0000
0000
0000
,  // measure 5
0000
0000
0000
0000
,  // measure 6
0000
0000
0000
0000
,  // measure 7
0000
0000
0000
0000
,  // measure 8
0010
0000
0000
0000
,  // measure 9
0000
0000
0000
0000
,  // measure 10
0000
0000
0000
0000
,  // measure 11
0000
0000
0000
0000
,  // measure 12
0100
0000
0000
0000
,  // measure 13
0000
0000
0000
0000
,  // measure 14
0000
0000
0000
0000
,  // measure 15
0000
0000
0000
0000
,  // measure 16
0020
0000
0000
0000
,  // measure 17
0000
0000
0000
0000
,  // measure 18
0000
0000
0000
0000
,  // measure 19
0000
0000
0000
0000
,  // measure 20
0000
0000
0000
0000
,  // measure 21
0000
0000
0000
0000
,  // measure 22
0000
0000
0000
0000
,  // measure 23
0030
0000
0000
0000
,  // measure 24
0010
0000
0000
0000
,  // measure 25
0000
0000
0000
0000
,  // measure 26
0000
0000
0000
0000
,  // measure 27
0000
0000
0000
0000
,  // measure 28
0010
0000
0000
0000
,  // measure 29
0000
0000
0000
0000
,  // measure 30
0000
0000
0000
0000
,  // measure 31
0000
0000
0000
0000
,  // measure 32
0100
0000
0000
0000
,  // measure 33
0000
0000
0000
0000
,  // measure 34
0000
0000
0000
0000
,  // measure 35
0000
0000
0000
0000
,  // measure 36
0100
0000
0000
0000
,  // measure 37
0000
0000
0000
0000
,  // measure 38
0000
0000
0000
0000
,  // measure 39
0000
0000
0000
0000
,  // measure 40
0100
0000
0000
0000
,  // measure 41
0000
0000
0000
0000
,  // measure 42
0000
0000
0000
0000
,  // measure 43
0000
0000
0000
0000
,  // measure 44
0010
0000
0000
0000
,  // measure 45
0000
0000
0000
0000
,  // measure 46
0000
0000
0000
0000
,  // measure 47
0000
0000
0000
0000
,  // measure 48
0001
0000
0000
0000
,  // measure 49
0000
0000
0000
0000
,  // measure 50
0000
0000
0000
0000
,  // measure 51
0000
0000
0000
0000
,  // measure 52
1000
0000
0000
0000
,  // measure 53
0000
0000
0000
0000
,  // measure 54
0000
0000
0000
0000
,  // measure 55
0000
0000
0000
0000
,  // measure 56
1001
0000
0000
0000
;

//---------------dance-single - Hell----------------
#NOTEDATA:;
#CHARTNAME:Hell;
#STEPSTYPE:dance-single;
#DESCRIPTION:Hell;
#CHARTSTYLE:;
#DIFFICULTY:Edit;
#METER:17;
#RADARVALUES:0.811045,0.883138,0.198255,0.198255,1.148980,630.000000,608.000000,22.000000,22.000000,0.000000,0.000000,0.000000,0.000000,0.000000,0.811045,0.883138,0.198255,0.198255,1.148980,630.000000,608.000000,22.000000,22.000000,0.000000,0.000000,0.000000,0.000000,0.000000;
#CREDIT:;
#NOTES:
// measure 0
0000
0000
0000
0000
,  // measure 1
0000
0000
0000
0000
,  // measure 2
0000
0000
0000
0000
,  // measure 3
0000
0000
0000
0000
,  // measure 4
0000
0000
0000
0000
,  // measure 5
0000
0000
0000
0000
,  // measure 6
0000
0000
0000
0000
,  // measure 7
0000
0000
0000
0000
,  // measure 8
1000
0000
0100
0000
0001
0000
0100
0000
1000
0000
0100
0000
0010
0001
1000
0000
,  // measure 9
0110
0000
0010
0000
0010
0000
1001
0000
0100
0000
0010
0000
0100
0010
0100
0010
,  // measure 10
0001
0000
0010
0000
1000
0000
0010
0000
0001
0000
0010
0000
0100
1000
0001
0000
,  // measure 11
0110
0000
0100
0000
0100
0000
1001
0000
0010
0000
0100
0000
0010
0100
0010
0100
,  // measure 12
0010
0000
1000
0000
0100
0000
1000
0000
0010
0000
1000
0000
0001
0100
0010
0000
,  // measure 13
1001
0000
0001
0000
0001
0000
0110
0000
1000
0000
0001
0000
1000
0001
1000
0001
,  // measure 14
0100
0000
0001
0000
0010
0000
0001
0000
0100
0000
0001
0000
1000
0010
0100
0000
,  // measure 15
1001
0000
1000
0000
1000
0000
0110
0000
0001
0000
1000
0000
0001
1000
0001
1000
,  // measure 16
0200
0000
0010
0000
0001
0000
0010
0000
1000
0000
0010
0000
0302
0000
0010
0000
1000
0000
0010
0000
0000
0013
0000
0000
,  // measure 17
0020
0000
0100
0000
1000
0000
0100
0000
0001
0000
0100
0000
2030
0000
0100
0000
0001
0000
0100
0000
0000
3100
0000
0000
,  // measure 18
2000
0000
0001
0000
0100
0000
0001
0000
0010
0000
0001
0000
3200
0000
0001
0000
0010
0000
0001
0000
0000
0301
0000
0000
,  // measure 19
0002
0000
1000
0000
0010
0000
1000
0000
0100
0000
1000
0000
0023
0000
1000
0000
0100
0000
1000
0000
0000
1030
0000
0000
,  // measure 20
0200
0000
0010
0000
0001
0000
0010
0000
1000
0000
0010
0000
0302
0000
0010
0000
1000
0000
0010
0000
0000
0013
0000
0000
,  // measure 21
0020
0000
0100
0000
1000
0000
0100
0000
0001
0000
0100
0000
2030
0000
0100
0000
0001
0000
0100
0000
0000
3100
0000
0000
,  // measure 22
2000
0000
0001
0000
0100
0000
0001
0000
0010
0000
0001
0000
3200
0000
0001
0000
0010
0000
0001
0000
0000
0301
0000
0000
,  // measure 23
2002
0000
0000
3003
0220
0000
0000
0330
2002
0000
0000
3003
1000
0001
1000
0001
,  // measure 24
0100
0010
0100
0000
0001
0100
0001
0000
0100
0001
0100
0000
0010
1000
0010
0000
,  // measure 25
0100
0010
1000
0001
0100
0010
1000
0001
0100
0010
1000
0001
0100
0010
1000
0001
,  // measure 26
0010
0100
0010
0000
1000
0010
1000
0000
0010
1000
0010
0000
0100
0001
0100
0000
,  // measure 27
0010
0100
0001
1000
0010
0100
0001
1000
0010
0100
0001
1000
0010
0100
0001
1000
,  // measure 28
0001
1000
0001
0000
0010
0001
0010
0000
0001
0010
0001
0000
1000
0100
1000
0000
,  // measure 29
0001
1000
0100
0010
0001
1000
0100
0010
0001
1000
0100
0010
0001
1000
0100
0010
,  // measure 30
1000
0001
1000
0000
0100
1000
0100
0000
1000
0100
1000
0000
0001
0010
0001
0000
,  // measure 31
1000
0001
0010
0100
1000
0001
0010
0100
1000
0001
0010
0100
1000
0001
0010
0100
,  // measure 32
0010
0100
0010
0000
1000
0010
1000
0000
0010
1000
0010
0000
0100
0001
0100
0000
,  // measure 33
0010
0100
0001
1000
0010
0100
0001
1000
0010
0100
0001
1000
0010
0100
0001
1000
,  // measure 34
0100
0010
0100
0000
0001
0100
0001
0000
0100
0001
0100
0000
0010
1000
0010
0000
,  // measure 35
0100
0010
1000
0001
0100
0010
1000
0001
0100
0010
1000
0001
0100
0010
1000
0001
,  // measure 36
1000
0001
1000
0000
0100
1000
0100
0000
1000
0100
1000
0000
0001
0010
0001
0000
,  // measure 37
1000
0001
0010
0100
1000
0001
0010
0100
1000
0001
0010
0100
1000
0001
0010
0100
,  // measure 38
0001
1000
0001
0000
0010
0001
0010
0000
0001
0010
0001
0000
1000
0100
1000
0000
,  // measure 39
0001
1000
0100
0010
0001
1000
0100
0010
0001
1000
0100
0010
0001
1000
0100
0010
,  // measure 40
0100
0010
1000
0110
0000
0000
0100
1000
0100
0010
0001
0010
0100
1000
0100
0010
,  // measure 41
0100
0010
1000
0101
0000
0000
0100
0001
0100
1000
0001
1000
0100
0001
0100
1000
,  // measure 42
0010
0100
0001
0110
0000
0000
0010
0001
0010
0100
1000
0100
0010
0001
0010
0100
,  // measure 43
0010
0100
0001
1010
0000
0000
0010
1000
0010
0001
1000
0001
0010
1000
0010
0001
,  // measure 44
1000
0001
0010
1001
0000
0000
1000
0010
1000
0001
0100
0001
1000
0010
1000
0001
,  // measure 45
1000
0001
0010
1100
0000
0000
1000
0100
1000
0010
0100
0010
1000
0100
1000
0010
,  // measure 46
0001
1000
0100
1001
0000
0000
0001
0100
0001
1000
0010
1000
0001
0100
0001
1000
,  // measure 47
0100
0010
0110
1000
0100
0110
0001
0010
0220
0000
0000
0330
1000
0001
1000
0001
,  // measure 48
0100
0010
0100
0000
0001
0100
0001
0000
0100
0001
0100
0000
0010
1000
0010
0000
,  // measure 49
0100
0010
1000
0001
0100
0010
1000
0001
0100
0010
1000
0001
0100
0010
1000
0001
,  // measure 50
0010
0100
0010
0000
1000
0010
1000
0000
0010
1000
0010
0000
0100
0001
0100
0000
,  // measure 51
0010
0100
0001
1000
0010
0100
0001
1000
0010
0100
0001
1000
0010
0100
0001
1000
,  // measure 52
0001
1000
0001
0000
0010
0001
0010
0000
0001
0010
0001
0000
1000
0100
1000
0000
,  // measure 53
0001
1000
0100
0010
0001
1000
0100
0010
0001
1000
0100
0010
0001
1000
0100
0010
,  // measure 54
1000
0001
1000
0000
0100
1000
0100
0000
1000
0100
1000
0000
0001
0010
0001
0000
,  // measure 55
1000
0001
0010
0100
1000
0001
0010
0100
1000
0001
0010
0100
1000
0001
0010
0100
,  // measure 56
1001
0000
0000
0000
;
