#VERSION:0.83;
#TITLE:Like a bird;
#SUBTITLE:;
#ARTIST:Est;
#TITLETRANSLIT:;
#SUBTITLETRANSLIT:;
#ARTISTTRANSLIT:;
#GENRE:OKAYAMA (KAWAIICORE);
#ORIGIN:;
#CREDIT:;
#BANNER:;
#BACKGROUND:;
#PREVIEWVID:;
#JACKET:;
#CDIMAGE:;
#DISCIMAGE:;
#LYRICSPATH:;
#CDTITLE:;
#MUSIC:Like a bird.ogg;
#OFFSET:0.000000;
#SAMPLESTART:34.550560;
#SAMPLELENGTH:15.000000;
#SELECTABLE:YES;
#BPMS:0.000=178.000;
#STOPS:;
#DELAYS:;
#WARPS:;
#TIMESIGNATURES:0.000=4=4;
#TICKCOUNTS:0.000=4;
#COMBOS:0.000=1;
#SPEEDS:0.000=1.000=0.000=0;
#SCROLLS:0.000=1.000;
#FAKES:;
#LABELS:0.000=Song Start;
#BGCHANGES:;
#KEYSOUNDS:;
#ATTACKS:
;

//---------------dance-single - ----------------
#NOTEDATA:;
#CHARTNAME:;
#STEPSTYPE:dance-single;
#DESCRIPTION:;
#CHARTSTYLE:;
#DIFFICULTY:Easy;
#METER:5;
#RADARVALUES:0.184525,0.250480,0.087275,0.087275,0.000000,148.000000,138.000000,10.000000,10.000000,0.000000,0.000000,0.000000,0.000000,0.000000,0.184525,0.250480,0.087275,0.087275,0.000000,148.000000,138.000000,10.000000,10.000000,0.000000,0.000000,0.000000,0.000000,0.000000;
#CREDIT:;
#NOTES:
0000
0000
0000
0000
,
0000
0000
0000
0000
,
0000
0000
0000
0000
,
0000
0000
0000
0000
,
0000
0000
0000
0000
,
0000
0000
0000
0000
,
0000
0000
0000
0000
,
0000
0000
0000
0000
,
0000
0000
0000
0000
,
0010
0000
0010
0000
,
1000
0000
0010
0000
,
0100
0000
0100
0000
,
0001
0000
0100
0000
,
0001
0000
0001
0000
,
0010
0000
0001
0000
,
1000
0000
1000
0000
,
0100
0000
1000
0000
,
0010
0000
0010
0000
,
0010
0000
0010
0000
,
0100
0000
0100
0000
,
0100
0000
0100
0000
,
0001
0000
0001
0000
,
0001
0000
0001
0000
,
1000
0000
0001
0000
,
1000
0000
0001
0000
,
2002
0000
0000
3003
,
1000
0000
0010
0000
,
0100
0000
0110
0000
,
0001
0000
0100
0000
,
0010
0000
0110
0000
,
0010
0000
0001
0000
,
1000
0000
1001
0000
,
0100
0000
1000
0000
,
0001
0000
1001
0000
,
1000
0000
0010
0000
,
0100
0000
0110
0000
,
0001
0000
0100
0000
,
0010
0000
0110
0000
,
0010
0000
0001
0000
,
1000
0000
1001
0000
,
0100
0000
1000
0000
,
0001
0000
1001
0000
,
0010
0000
0010
0010
,
0100
0000
0100
0000
,
0100
0000
0100
0100
,
0010
0000
0010
0000
,
0001
0000
0001
0001
,
1000
0000
1000
0000
,
1000
0000
1000
1000
,
0001
0000
0001
0000
,
0010
0000
0010
0010
,
0100
0000
0100
0000
,
0100
0000
0100
0100
,
0010
0000
0010
0000
,
0001
0000
0001
0001
,
1000
0000
1000
0000
,
1000
0000
1000
1000
,
0001
0000
0001
0000
,
0020
0000
0000
0000
,
0100
0000
0000
0030
,
0200
0000
0000
0000
,
0010
0000
0000
0300
,
0002
0000
0000
0000
,
1000
0000
0000
0003
,
2000
0000
0000
0000
,
0001
0000
0000
3000
,
0020
0000
0000
0000
,
0100
0000
0000
0030
,
0200
0000
0000
0000
,
0010
0000
0000
0300
,
0002
0000
0000
0000
,
1000
0000
0000
0003
,
2000
0000
0000
0000
,
0001
0000
0000
3000
,
1000
0000
0100
0000
,
0001
0000
0100
0000
,
1000
0000
0100
0000
,
0001
0000
0100
0000
,
0001
0000
0010
0000
,
1000
0000
0010
0000
,
0001
0000
0010
0000
,
1000
0000
0010
0000
,
1001
0000
0000
0000
;

//---------------dance-single - ----------------
#NOTEDATA:;
#CHARTNAME:;
#STEPSTYPE:dance-single;
#DESCRIPTION:;
#CHARTSTYLE:;
#DIFFICULTY:Beginner;
#METER:5;
#RADARVALUES:0.169563,0.214697,0.052365,0.087275,0.000000,136.000000,130.000000,6.000000,10.000000,0.000000,0.000000,0.000000,0.000000,0.000000,0.169563,0.214697,0.052365,0.087275,0.000000,136.000000,130.000000,6.000000,10.000000,0.000000,0.000000,0.000000,0.000000,0.000000;
#CREDIT:;
#NOTES:
0000
0000
0000
0000
,
0000
0000
0000
0000
,
0000
0000
0000
0000
,
0000
0000
0000
0000
,
0000
0000
0000
0000
,
0000
0000
0000
0000
,
0000
0000
0000
0000
,
0000
0000
0000
0000
,
0000
0000
0000
0000
,
0010
0000
0010
0000
,
1000
0000
0010
0000
,
0100
0000
0100
0000
,
0001
0000
0100
0000
,
0001
0000
0001
0000
,
0010
0000
0001
0000
,
1000
0000
1000
0000
,
0100
0000
1000
0000
,
0010
0000
0010
0000
,
0010
0000
0010
0000
,
0100
0000
0100
0000
,
0100
0000
0100
0000
,
0001
0000
0001
0000
,
0001
0000
0001
0000
,
1000
0000
0001
0000
,
1000
0000
0001
0000
,
2002
0000
0000
3003
,
1000
0000
0010
0000
,
0100
0000
0010
0000
,
0001
0000
0100
0000
,
0010
0000
0110
0000
,
0010
0000
0001
0000
,
1000
0000
0001
0000
,
0100
0000
1000
0000
,
0001
0000
1001
0000
,
1000
0000
0010
0000
,
0100
0000
0010
0000
,
0001
0000
0100
0000
,
0010
0000
0110
0000
,
0010
0000
0001
0000
,
1000
0000
0001
0000
,
0100
0000
1000
0000
,
0001
0000
1001
0000
,
0010
0000
0010
0000
,
0100
0000
0100
0000
,
0100
0000
0100
0000
,
0010
0000
0010
0000
,
0001
0000
0001
0000
,
1000
0000
1000
0000
,
1000
0000
1000
0000
,
0001
0000
0001
0000
,
0010
0000
0010
0000
,
0100
0000
0100
0000
,
0100
0000
0100
0000
,
0010
0000
0010
0000
,
0001
0000
0001
0000
,
1000
0000
1000
0000
,
1000
0000
1000
0000
,
0001
0000
0001
0000
,
0020
0000
0000
0000
,
0100
0000
0000
0030
,
0200
0000
0000
0000
,
0010
0000
0000
0300
,
0002
0000
0000
0000
,
1000
0000
0000
0003
,
2000
0000
0000
0000
,
0001
0000
0000
3000
,
0020
0000
0000
0000
,
0100
0000
0000
0030
,
0200
0000
0000
0000
,
0010
0000
0000
0300
,
0002
0000
0000
0000
,
1000
0000
0000
0003
,
2000
0000
0000
0000
,
0001
0000
0000
3000
,
1000
0000
0100
0000
,
0001
0000
0100
0000
,
1000
0000
0100
0000
,
0001
0000
0100
0000
,
0001
0000
0010
0000
,
1000
0000
0010
0000
,
0001
0000
0010
0000
,
1000
0000
0010
0000
,
1001
0000
0000
0000
;

//---------------dance-single - ----------------
#NOTEDATA:;
#CHARTNAME:;
#STEPSTYPE:dance-single;
#DESCRIPTION:;
#CHARTSTYLE:;
#DIFFICULTY:Medium;
#METER:5;
#RADARVALUES:0.201980,0.286263,0.122185,0.087275,0.000000,162.000000,148.000000,14.000000,10.000000,0.000000,0.000000,0.000000,0.000000,0.000000,0.201980,0.286263,0.122185,0.087275,0.000000,162.000000,148.000000,14.000000,10.000000,0.000000,0.000000,0.000000,0.000000,0.000000;
#CREDIT:;
#NOTES:
0000
0000
0000
0000
,
0000
0000
0000
0000
,
0000
0000
0000
0000
,
0000
0000
0000
0000
,
0000
0000
0000
0000
,
0000
0000
0000
0000
,
0000
0000
0000
0000
,
0000
0000
0000
0000
,
0000
0000
0000
0000
,
0010
0000
0010
0000
,
1000
0000
0010
0000
,
0100
0000
0100
0000
,
0001
0000
0100
0000
,
0001
0000
0001
0000
,
0010
0000
0001
0000
,
1000
0000
1000
0000
,
0100
0000
1000
0000
,
0010
0000
0010
0000
,
0010
0000
0010
0000
,
0100
0000
0100
0000
,
0100
0000
0100
0000
,
0001
0000
0001
0000
,
0001
0000
0001
0000
,
1000
0000
0001
0000
,
1000
0000
0001
0000
,
2002
0000
0000
3003
,
1001
0000
0010
0000
,
0100
0000
0110
0000
,
0001
0000
0100
0000
,
0010
0000
0110
0000
,
0110
0000
0001
0000
,
1000
0000
1001
0000
,
0100
0000
1000
0000
,
0001
0000
1001
0000
,
1001
0000
0010
0000
,
0100
0000
0110
0000
,
0001
0000
0100
0000
,
0010
0000
0110
0000
,
0110
0000
0001
0000
,
1000
0000
1001
0000
,
0100
0000
1000
0000
,
0001
0000
1001
0000
,
0010
0010
0010
0010
,
0100
0000
0100
0000
,
0100
0100
0100
0100
,
0010
0000
0010
0000
,
0001
0001
0001
0001
,
1000
0000
1000
0000
,
1000
1000
1000
1000
,
0001
0000
0001
0000
,
0010
0010
0010
0010
,
0100
0000
0100
0000
,
0100
0100
0100
0100
,
0010
0000
0010
0000
,
0001
0001
0001
0001
,
1000
0000
1000
0000
,
1000
1000
1000
1000
,
0001
0000
0001
0000
,
0020
0000
0000
0000
,
0100
0000
0000
0030
,
0200
0000
0000
0000
,
0010
0000
0000
0300
,
0002
0000
0000
0000
,
1000
0000
0000
0003
,
2000
0000
0000
0000
,
0001
0000
0000
3000
,
0020
0000
0000
0000
,
0100
0000
0000
0030
,
0200
0000
0000
0000
,
0010
0000
0000
0300
,
0002
0000
0000
0000
,
1000
0000
0000
0003
,
2000
0000
0000
0000
,
0001
0000
0000
3000
,
1000
0000
0100
0000
,
0001
0000
0100
0000
,
1000
0000
0100
0000
,
0001
0000
0100
1000
,
0001
0000
0010
0000
,
1000
0000
0010
0000
,
0001
0000
0010
0000
,
1000
0000
0010
0001
,
1001
0000
0000
0000
;

//---------------dance-single - ----------------
#NOTEDATA:;
#CHARTNAME:;
#STEPSTYPE:dance-single;
#DESCRIPTION:;
#CHARTSTYLE:;
#DIFFICULTY:Hard;
#METER:5;
#RADARVALUES:0.215695,0.322046,0.157095,0.087275,0.000000,173.000000,155.000000,18.000000,10.000000,0.000000,0.000000,0.000000,0.000000,0.000000,0.215695,0.322046,0.157095,0.087275,0.000000,173.000000,155.000000,18.000000,10.000000,0.000000,0.000000,0.000000,0.000000,0.000000;
#CREDIT:;
#NOTES:
0000
0000
0000
0000
,
0000
0000
0000
0000
,
0000
0000
0000
0000
,
0000
0000
0000
0000
,
0000
0000
0000
0000
,
0000
0000
0000
0000
,
0000
0000
0000
0000
,
0000
0000
0000
0000
,
0000
0000
0000
0000
,
0010
0000
0010
0000
,
1000
0000
0010
0000
,
0100
0000
0100
0000
,
0001
0000
0100
0000
,
0001
0000
0001
0000
,
0010
0000
0001
0000
,
1000
0000
1000
0000
,
0100
0000
1000
0000
,
0010
0000
0010
0000
,
0010
0000
0010
0100
,
0100
0000
0100
0000
,
0100
0000
0100
0010
,
0001
0000
0001
0000
,
0001
0000
0001
1000
,
1000
0000
0001
0000
,
1000
0001
1000
0001
,
2002
0000
0000
3003
,
1001
0000
0010
0000
,
0100
0000
0110
0000
,
0001
0000
0100
0000
,
0010
0000
0110
0000
,
0110
0000
0001
0000
,
1000
0000
1001
0000
,
0100
0000
1000
0000
,
0001
0000
1001
0000
,
1001
0000
0010
0000
,
0100
0000
0110
0000
,
0001
0000
0100
0000
,
0010
0000
0110
0000
,
0110
0000
0001
0000
,
1000
0000
1001
0000
,
0100
0000
1000
0000
,
0001
0000
1001
0000
,
0010
0010
0010
0010
,
0100
0000
0110
0000
,
0100
0100
0100
0100
,
0010
0000
0010
0000
,
0001
0001
0001
0001
,
1000
0000
1001
0000
,
1000
1000
1000
1000
,
0001
0000
0001
0000
,
0010
0010
0010
0010
,
0100
0000
0110
0000
,
0100
0100
0100
0100
,
0010
0000
0010
0000
,
0001
0001
0001
0001
,
1000
0000
1001
0000
,
1000
1000
1000
1000
,
0001
0000
0001
0000
,
0020
0000
0000
0000
,
0100
0000
0000
0030
,
0200
0000
0000
0000
,
0010
0000
0000
0300
,
0002
0000
0000
0000
,
1000
0000
0000
0003
,
2000
0000
0000
0000
,
0001
0000
0000
3000
,
0020
0000
0000
0000
,
0100
0000
0000
0030
,
0200
0000
0000
0000
,
0010
0000
0000
0300
,
0002
0000
0000
0000
,
1000
0000
0000
0003
,
2000
0000
0000
0000
,
0001
0000
0000
3000
,
1000
0000
0100
0001
,
0001
0000
0100
0000
,
1000
0000
0100
0000
,
0001
0000
0100
1000
,
0001
0000
0010
1000
,
1000
0000
0010
0000
,
0001
0000
0010
0000
,
1000
0000
0010
0001
,
1001
0000
0000
0000
;

//---------------dance-single - ----------------
#NOTEDATA:;
#CHARTNAME:;
#STEPSTYPE:dance-single;
#DESCRIPTION:;
#CHARTSTYLE:;
#DIFFICULTY:Challenge;
#METER:6;
#RADARVALUES:0.240630,0.322046,0.226916,0.087275,0.000000,193.000000,167.000000,26.000000,10.000000,0.000000,0.000000,0.000000,0.000000,0.000000,0.240630,0.322046,0.226916,0.087275,0.000000,193.000000,167.000000,26.000000,10.000000,0.000000,0.000000,0.000000,0.000000,0.000000;
#CREDIT:;
#NOTES:
0000
0000
0000
0000
,
0000
0000
0000
0000
,
0000
0000
0000
0000
,
0000
0000
0000
0000
,
0000
0000
0000
0000
,
0000
0000
0000
0000
,
0000
0000
0000
0000
,
0000
0000
0000
0000
,
0000
0000
0000
0000
,
0010
0000
0010
0000
,
1000
0000
0010
0010
,
0100
0000
0100
0000
,
0001
0000
0100
0100
,
0001
0000
0001
0000
,
0010
0000
0001
0001
,
1000
0000
1000
0000
,
0100
0000
1000
1000
,
0010
0000
0010
0000
,
0010
0000
0010
0100
,
0100
0000
0100
0000
,
0100
0000
0100
0010
,
0001
0000
0001
0000
,
0001
0000
0001
1000
,
1000
0000
0001
0000
,
1000
0001
1000
0001
,
2002
0000
0000
3003
,
1001
0000
0010
0000
,
0100
0000
0110
0000
,
1001
0000
0100
0000
,
0010
0000
0110
0000
,
0110
0000
0001
0000
,
1000
0000
1001
0000
,
0110
0000
1000
0000
,
0001
0000
1001
0000
,
1001
0000
0010
0000
,
0100
0000
0110
0000
,
1001
0000
0100
0000
,
0010
0000
0110
0000
,
0110
0000
0001
0000
,
1000
0000
1001
0000
,
0110
0000
1000
0000
,
0001
0000
1001
0000
,
0010
0010
0010
0010
,
0100
0000
0110
0000
,
0100
0100
0100
0100
,
0010
0000
0110
0000
,
0001
0001
0001
0001
,
1000
0000
1001
0000
,
1000
1000
1000
1000
,
0001
0000
1001
0000
,
0010
0010
0010
0010
,
0100
0000
0110
0000
,
0100
0100
0100
0100
,
0010
0000
0110
0000
,
0001
0001
0001
0001
,
1000
0000
1001
0000
,
1000
1000
1000
1000
,
0001
0000
1001
0000
,
0020
0000
0000
0000
,
0100
0000
0100
0030
,
0200
0000
0000
0000
,
0010
0000
0010
0300
,
0002
0000
0000
0000
,
1000
0000
1000
0003
,
2000
0000
0000
0000
,
0001
0000
0001
3000
,
0020
0000
0000
0000
,
0100
0000
0100
0030
,
0200
0000
0000
0000
,
0010
0000
0010
0300
,
0002
0000
0000
0000
,
1000
0000
1000
0003
,
2000
0000
0000
0000
,
0001
0000
0001
3000
,
1000
0000
0100
0001
,
0001
0000
0100
0000
,
1000
0000
0100
0000
,
0001
0000
0100
1000
,
0001
0000
0010
1000
,
1000
0000
0010
0000
,
0001
0000
0010
0000
,
1000
0000
0010
0001
,
1001
0000
0000
0000
;

//---------------dance-single - Deluxe----------------
#NOTEDATA:;
#CHARTNAME:Deluxe;
#STEPSTYPE:dance-single;
#DESCRIPTION:Deluxe;
#CHARTSTYLE:;
#DIFFICULTY:Edit;
#METER:6;
#RADARVALUES:0.265566,0.357829,0.366556,0.087275,0.000000,213.000000,171.000000,42.000000,10.000000,0.000000,0.000000,0.000000,0.000000,0.000000,0.265566,0.357829,0.366556,0.087275,0.000000,213.000000,171.000000,42.000000,10.000000,0.000000,0.000000,0.000000,0.000000,0.000000;
#CREDIT:;
#NOTES:
0000
0000
0000
0000
,
0000
0000
0000
0000
,
0000
0000
0000
0000
,
0000
0000
0000
0000
,
0000
0000
0000
0000
,
0000
0000
0000
0000
,
0000
0000
0000
0000
,
0000
0000
0000
0000
,
0000
0000
0000
0000
,
0010
0000
0010
0000
,
1000
0000
0010
0010
,
0100
0000
0100
0000
,
0001
0000
0100
0100
,
0001
0000
0001
0000
,
0010
0000
0001
0001
,
1000
0000
1000
0000
,
0100
0000
1000
1000
,
0010
0000
0010
0000
,
0010
0000
0010
0100
,
0100
0000
0100
0000
,
0100
0000
0100
0010
,
0001
0000
0001
0000
,
0001
0000
0001
1000
,
1000
0000
0001
0000
,
1000
0001
1000
0001
,
2002
0000
0000
3003
,
1001
0000
0010
0000
,
0100
0000
0110
0000
,
1001
0000
0100
0000
,
0010
0000
0110
0000
,
0110
0000
0001
0000
,
1000
0000
1001
0000
,
0110
0000
1000
0000
,
0001
0000
1001
0000
,
1001
0000
0010
0000
,
0100
0000
0110
0000
,
1001
0000
0100
0000
,
0010
0000
0110
0000
,
0110
0000
0001
0000
,
1000
0000
1001
0000
,
0110
0000
1000
0000
,
0001
0000
1001
0000
,
0010
0010
0010
0010
,
0110
0000
0110
0000
,
0100
0100
0100
0100
,
0110
0000
0110
0000
,
0001
0001
0001
0001
,
1001
0000
1001
0000
,
1000
1000
1000
1000
,
1001
0000
1001
0000
,
0010
0010
0010
0010
,
0110
0000
0110
0000
,
0100
0100
0100
0100
,
0110
0000
0110
0000
,
0001
0001
0001
0001
,
1001
0000
1001
0000
,
1000
1000
1000
1000
,
1001
0000
1001
0000
,
0120
0000
0000
0000
,
0100
0000
0100
0030
,
0210
0000
0000
0000
,
0010
0000
0010
0300
,
1002
0000
0000
0000
,
1000
0000
1000
0003
,
2001
0000
0000
0000
,
0001
0000
0001
3000
,
0120
0000
0000
0000
,
0100
0000
0100
0030
,
0210
0000
0000
0000
,
0010
0000
0010
0300
,
1002
0000
0000
0000
,
1000
0000
1000
0003
,
2001
0000
0000
0000
,
0001
0000
0001
3000
,
1000
0000
0100
0001
,
0001
0000
0100
1000
,
1000
0000
0100
0001
,
0001
0000
0100
1000
,
0001
0000
0010
1000
,
1000
0000
0010
0001
,
0001
0000
0010
1000
,
1000
0000
0010
0001
,
1001
0000
0000
0000
;

//---------------dance-single - Casual----------------
#NOTEDATA:;
#CHARTNAME:Casual;
#STEPSTYPE:dance-single;
#DESCRIPTION:Casual;
#CHARTSTYLE:;
#DIFFICULTY:Edit;
#METER:4;
#RADARVALUES:0.150862,0.214697,0.017455,0.087275,0.000000,121.000000,119.000000,2.000000,10.000000,0.000000,0.000000,0.000000,0.000000,0.000000,0.150862,0.214697,0.017455,0.087275,0.000000,121.000000,119.000000,2.000000,10.000000,0.000000,0.000000,0.000000,0.000000,0.000000;
#CREDIT:;
#NOTES:
// measure 0
0000
0000
0000
0000
,  // measure 1
0000
0000
0000
0000
,  // measure 2
0000
0000
0000
0000
,  // measure 3
0000
0000
0000
0000
,  // measure 4
0000
0000
0000
0000
,  // measure 5
0000
0000
0000
0000
,  // measure 6
0000
0000
0000
0000
,  // measure 7
0000
0000
0000
0000
,  // measure 8
0000
0000
0000
0000
,  // measure 9
0010
0000
0010
0000
,  // measure 10
1000
0000
0000
0000
,  // measure 11
0100
0000
0100
0000
,  // measure 12
0001
0000
0000
0000
,  // measure 13
0001
0000
0001
0000
,  // measure 14
0010
0000
0000
0000
,  // measure 15
1000
0000
1000
0000
,  // measure 16
0100
0000
0000
0000
,  // measure 17
0010
0000
0000
0000
,  // measure 18
0010
0000
0010
0000
,  // measure 19
0100
0000
0000
0000
,  // measure 20
0100
0000
0100
0000
,  // measure 21
0001
0000
0000
0000
,  // measure 22
0001
0000
0001
0000
,  // measure 23
1000
0000
0001
0000
,  // measure 24
1000
0000
0001
0000
,  // measure 25
2002
0000
0000
3003
,  // measure 26
1000
0000
0010
0000
,  // measure 27
0100
0000
0010
0000
,  // measure 28
0001
0000
0100
0000
,  // measure 29
0010
0000
0100
0000
,  // measure 30
0010
0000
0001
0000
,  // measure 31
1000
0000
0001
0000
,  // measure 32
0100
0000
1000
0000
,  // measure 33
0001
0000
1000
0000
,  // measure 34
1000
0000
0010
0000
,  // measure 35
0100
0000
0010
0000
,  // measure 36
0001
0000
0100
0000
,  // measure 37
0010
0000
0100
0000
,  // measure 38
0010
0000
0001
0000
,  // measure 39
1000
0000
0001
0000
,  // measure 40
0100
0000
1000
0000
,  // measure 41
0001
0000
1000
0000
,  // measure 42
0010
0000
0010
0000
,  // measure 43
0100
0000
0100
0000
,  // measure 44
0100
0000
0100
0000
,  // measure 45
0010
0000
0010
0000
,  // measure 46
0001
0000
0001
0000
,  // measure 47
1000
0000
1000
0000
,  // measure 48
1000
0000
1000
0000
,  // measure 49
0001
0000
0001
0000
,  // measure 50
0010
0000
0010
0000
,  // measure 51
0100
0000
0100
0000
,  // measure 52
0100
0000
0100
0000
,  // measure 53
0010
0000
0010
0000
,  // measure 54
0001
0000
0001
0000
,  // measure 55
1000
0000
1000
0000
,  // measure 56
1000
0000
1000
0000
,  // measure 57
0001
0000
0001
0000
,  // measure 58
0020
0000
0000
0000
,  // measure 59
0100
0000
0000
0030
,  // measure 60
0200
0000
0000
0000
,  // measure 61
0010
0000
0000
0300
,  // measure 62
0002
0000
0000
0000
,  // measure 63
1000
0000
0000
0003
,  // measure 64
2000
0000
0000
0000
,  // measure 65
0001
0000
0000
3000
,  // measure 66
0020
0000
0000
0000
,  // measure 67
0100
0000
0000
0030
,  // measure 68
0200
0000
0000
0000
,  // measure 69
0010
0000
0000
0300
,  // measure 70
0002
0000
0000
0000
,  // measure 71
1000
0000
0000
0003
,  // measure 72
2000
0000
0000
0000
,  // measure 73
0001
0000
0000
3000
,  // measure 74
1000
0000
0100
0000
,  // measure 75
0001
0000
0000
0000
,  // measure 76
1000
0000
0100
0000
,  // measure 77
0001
0000
0000
0000
,  // measure 78
0001
0000
0010
0000
,  // measure 79
1000
0000
0000
0000
,  // measure 80
0001
0000
0010
0000
,  // measure 81
1000
0000
0000
0000
,  // measure 82
1001
0000
0000
0000
;

//---------------dance-single - Enjoy----------------
#NOTEDATA:;
#CHARTNAME:Enjoy;
#STEPSTYPE:dance-single;
#DESCRIPTION:Enjoy;
#CHARTSTYLE:;
#DIFFICULTY:Edit;
#METER:1;
#RADARVALUES:0.022442,0.071566,0.026183,0.017455,0.000000,18.000000,15.000000,3.000000,2.000000,0.000000,0.000000,0.000000,0.000000,0.000000,0.022442,0.071566,0.026183,0.017455,0.000000,18.000000,15.000000,3.000000,2.000000,0.000000,0.000000,0.000000,0.000000,0.000000;
#CREDIT:;
#NOTES:
// measure 0
0000
0000
0000
0000
,  // measure 1
0000
0000
0000
0000
,  // measure 2
0000
0000
0000
0000
,  // measure 3
0000
0000
0000
0000
,  // measure 4
0000
0000
0000
0000
,  // measure 5
0000
0000
0000
0000
,  // measure 6
0000
0000
0000
0000
,  // measure 7
0000
0000
0000
0000
,  // measure 8
0000
0000
0000
0000
,  // measure 9
1000
0000
0000
0000
,  // measure 10
0000
0000
0000
0000
,  // measure 11
0000
0000
0000
0000
,  // measure 12
0000
0000
0000
0000
,  // measure 13
0001
0000
0000
0000
,  // measure 14
0000
0000
0000
0000
,  // measure 15
0000
0000
0000
0000
,  // measure 16
0000
0000
0000
0000
,  // measure 17
0010
0000
0000
0000
,  // measure 18
0000
0000
0000
0000
,  // measure 19
0000
0000
0000
0000
,  // measure 20
0000
0000
0000
0000
,  // measure 21
0100
0000
0000
0000
,  // measure 22
0000
0000
0000
0000
,  // measure 23
0000
0000
0000
0000
,  // measure 24
0000
0000
0000
0000
,  // measure 25
0000
0000
0000
0000
,  // measure 26
1010
0000
0000
0000
,  // measure 27
0000
0000
0000
0000
,  // measure 28
0000
0000
0000
0000
,  // measure 29
0000
0000
0000
0000
,  // measure 30
0000
0000
0000
0000
,  // measure 31
0000
0000
0000
0000
,  // measure 32
0000
0000
0000
0000
,  // measure 33
0000
0000
0000
0000
,  // measure 34
0101
0000
0000
0000
,  // measure 35
0000
0000
0000
0000
,  // measure 36
0000
0000
0000
0000
,  // measure 37
0000
0000
0000
0000
,  // measure 38
0000
0000
0000
0000
,  // measure 39
0000
0000
0000
0000
,  // measure 40
0000
0000
0000
0000
,  // measure 41
0000
0000
0000
0000
,  // measure 42
1000
0000
0000
0000
,  // measure 43
0000
0000
0000
0000
,  // measure 44
0000
0000
0000
0000
,  // measure 45
0000
0000
0000
0000
,  // measure 46
0001
0000
0000
0000
,  // measure 47
0000
0000
0000
0000
,  // measure 48
0000
0000
0000
0000
,  // measure 49
0000
0000
0000
0000
,  // measure 50
0100
0000
0000
0000
,  // measure 51
0000
0000
0000
0000
,  // measure 52
0000
0000
0000
0000
,  // measure 53
0000
0000
0000
0000
,  // measure 54
0010
0000
0000
0000
,  // measure 55
0000
0000
0000
0000
,  // measure 56
0000
0000
0000
0000
,  // measure 57
0000
0000
0000
0000
,  // measure 58
0200
0000
0000
0000
,  // measure 59
0000
0000
0000
0000
,  // measure 60
0000
0000
0000
0000
,  // measure 61
0000
0000
0300
0000
,  // measure 62
0000
0000
0000
0000
,  // measure 63
0000
0000
0000
0000
,  // measure 64
0000
0000
0000
0000
,  // measure 65
0000
0000
0000
0000
,  // measure 66
0020
0000
0000
0000
,  // measure 67
0000
0000
0000
0000
,  // measure 68
0000
0000
0000
0000
,  // measure 69
0000
0000
0030
0000
,  // measure 70
0000
0000
0000
0000
,  // measure 71
0000
0000
0000
0000
,  // measure 72
0000
0000
0000
0000
,  // measure 73
0000
0000
0000
0000
,  // measure 74
1000
0000
0000
0000
,  // measure 75
0000
0000
0000
0000
,  // measure 76
0000
0000
0000
0000
,  // measure 77
0000
0000
0000
0000
,  // measure 78
0001
0000
0000
0000
,  // measure 79
0000
0000
0000
0000
,  // measure 80
0000
0000
0000
0000
,  // measure 81
0000
0000
0000
0000
,  // measure 82
1001
0000
0000
0000
;
