#VERSION:0.83;
#TITLE:これでホントにサヨナラ;
#SUBTITLE:;
#ARTIST:Toby Fox;
#TITLETRANSLIT:Last Goodbye;
#SUBTITLETRANSLIT:;
#ARTISTTRANSLIT:;
#GENRE:;
#ORIGIN:;
#CREDIT:;
#BANNER:;
#BACKGROUND:;
#PREVIEWVID:;
#JACKET:;
#CDIMAGE:;
#DISCIMAGE:;
#LYRICSPATH:;
#CDTITLE:;
#MUSIC:Last Goodbye.ogg;
#OFFSET:0.001000;
#SAMPLESTART:68.332336;
#SAMPLELENGTH:15.000000;
#SELECTABLE:YES;
#DISPLAYBPM:*;
#BPMS:0.000=180.000;
#STOPS:;
#DELAYS:;
#WARPS:;
#TIMESIGNATURES:0.000=4=4;
#TICKCOUNTS:0.000=4;
#COMBOS:0.000=1;
#SPEEDS:0.000=1.000=0.000=0;
#SCROLLS:0.000=1.000;
#FAKES:;
#LABELS:0.000=Song Start;
#BGCHANGES:;
#KEYSOUNDS:;
#ATTACKS:
;

//---------------dance-single - ----------------
#NOTEDATA:;
#CHARTNAME:;
#STEPSTYPE:dance-single;
#DESCRIPTION:;
#CHARTSTYLE:;
#DIFFICULTY:Easy;
#METER:4;
#RADARVALUES:0.117292,0.261476,0.044381,0.044381,0.000000,111.000000,105.000000,6.000000,6.000000,96.000000,0.000000,0.000000,0.000000,0.000000,0.117292,0.261476,0.044381,0.044381,0.000000,111.000000,105.000000,6.000000,6.000000,96.000000,0.000000,0.000000,0.000000,0.000000;
#CREDIT:;
#DISPLAYBPM:*;
#NOTES:
// measure 0
0000
0000
0000
0000
,  // measure 1
0000
0000
0000
0000
,  // measure 2
1000
0000
1000
0000
,  // measure 3
0001
0000
0001
0000
,  // measure 4
0100
0000
0010
0000
,  // measure 5
MMMM
0000
MMMM
0000
,  // measure 6
0001
0000
0001
0000
,  // measure 7
1000
0000
1000
0000
,  // measure 8
0010
0000
0100
0000
,  // measure 9
MMMM
0000
MMMM
0000
,  // measure 10
0010
0000
0010
0000
,  // measure 11
0100
0000
0100
0000
,  // measure 12
1000
0000
0001
0000
,  // measure 13
MMMM
0000
MMMM
0000
,  // measure 14
0100
0000
0100
0000
,  // measure 15
0010
0000
0010
0000
,  // measure 16
0001
0000
1000
0000
,  // measure 17
MMMM
0000
MMMM
0000
,  // measure 18
1000
0000
1000
0000
,  // measure 19
0010
0000
0001
0000
,  // measure 20
0100
0000
0010
0000
,  // measure 21
MMMM
0000
1000
0000
,  // measure 22
0001
0000
0001
0000
,  // measure 23
0100
0000
1000
0000
,  // measure 24
0010
0000
0100
0000
,  // measure 25
MMMM
0000
0001
0000
,  // measure 26
0010
0000
0010
0000
,  // measure 27
0001
0000
0100
0000
,  // measure 28
1000
0000
0001
0000
,  // measure 29
MMMM
0000
0010
0000
,  // measure 30
0100
0000
0100
0000
,  // measure 31
1000
0000
0010
0000
,  // measure 32
0001
0000
1000
0000
,  // measure 33
MMMM
0000
0100
0000
,  // measure 34
0100
0000
0000
0000
,  // measure 35
0000
0000
0000
0000
,  // measure 36
0000
0100
0000
0000
,  // measure 37
0000
0000
0000
0000
,  // measure 38
0000
0000
0000
0010
0000
0000
0000
0000
,  // measure 39
0000
0000
0000
0000
,  // measure 40
0000
0000
0010
0000
,  // measure 41
0000
0000
0000
0000
,  // measure 42
0000
0000
0000
0100
,  // measure 43
0000
0000
0000
0000
,  // measure 44
0000
0000
0000
0100
,  // measure 45
0000
0000
0000
0000
,  // measure 46
0000
0000
0000
0000
,  // measure 47
0010
0000
0000
0000
,  // measure 48
0000
0000
0000
0000
,  // measure 49
0000
0010
0000
0000
0000
0000
0000
0000
,  // measure 50
0000
0000
0000
0000
,  // measure 51
0000
1000
0000
1000
,  // measure 52
0000
0010
0000
0010
,  // measure 53
0000
1000
0000
1000
,  // measure 54
0000
MMMM
0000
MMMM
,  // measure 55
0000
0001
0000
0001
,  // measure 56
0000
0100
0000
0100
,  // measure 57
0000
0001
0000
0001
,  // measure 58
0000
MMMM
0000
MMMM
,  // measure 59
0000
0010
0000
0010
,  // measure 60
0000
0001
0000
0001
,  // measure 61
0000
0010
0000
0010
,  // measure 62
0000
MMMM
0000
MMMM
,  // measure 63
0000
0100
0000
0100
,  // measure 64
0000
1000
0000
1000
,  // measure 65
0000
0100
0000
0100
,  // measure 66
0000
MMMM
0000
MMMM
,  // measure 67
0000
1000
0000
MMMM
,  // measure 68
0000
0001
0000
0001
,  // measure 69
0000
0100
0000
MMMM
,  // measure 70
0000
1000
0000
0100
,  // measure 71
0000
0001
0000
MMMM
,  // measure 72
0000
1000
0000
1000
,  // measure 73
0000
0010
0000
MMMM
,  // measure 74
0000
0001
0000
0010
,  // measure 75
0000
2002
0000
0000
,  // measure 76
0000
0000
0000
0000
,  // measure 77
3003
0220
0000
0000
,  // measure 78
0000
0000
0000
0000
,  // measure 79
0330
1001
0000
0000
,  // measure 80
1001
0000
0000
1001
,  // measure 81
0000
0000
1000
0000
0000
0000
0000
0001
,  // measure 82
0000
0000
0000
0000
0000
0100
0000
0000
,  // measure 83
0000
2002
0000
0000
0000
0000
0000
0000
,  // measure 84
0000
0000
0000
0000
,  // measure 85
0000
0000
0000
0000
,  // measure 86
0000
0000
0000
0000
,  // measure 87
0000
0000
0000
0000
,  // measure 88
0000
0000
0000
0000
,  // measure 89
0000
0000
0000
0000
,  // measure 90
0000
0000
0000
0000
,  // measure 91
0000
0000
0000
0000
,  // measure 92
0000
0000
0000
0000
,  // measure 93
0000
0000
0000
0000
,  // measure 94
0000
0000
0000
0000
,  // measure 95
0000
0000
0000
0000
,  // measure 96
0000
0000
0000
0000
,  // measure 97
0000
0000
0000
0000
,  // measure 98
0000
0000
0000
0000
,  // measure 99
0000
0000
0000
0000
,  // measure 100
0000
0000
0000
0000
,  // measure 101
3003
0000
0000
0000
;

//---------------dance-single - ----------------
#NOTEDATA:;
#CHARTNAME:;
#STEPSTYPE:dance-single;
#DESCRIPTION:;
#CHARTSTYLE:;
#DIFFICULTY:Beginner;
#METER:4;
#RADARVALUES:0.102498,0.261476,0.044381,0.044381,0.000000,97.000000,91.000000,6.000000,6.000000,96.000000,0.000000,0.000000,0.000000,0.000000,0.102498,0.261476,0.044381,0.044381,0.000000,97.000000,91.000000,6.000000,6.000000,96.000000,0.000000,0.000000,0.000000,0.000000;
#CREDIT:;
#DISPLAYBPM:*;
#NOTES:
0000
0000
0000
0000
,
0000
0000
0000
0000
,
1000
0000
0000
0000
,
0001
0000
0001
0000
,
0100
0000
0010
0000
,
MMMM
0000
MMMM
0000
,
0001
0000
0000
0000
,
1000
0000
1000
0000
,
0010
0000
0100
0000
,
MMMM
0000
MMMM
0000
,
0010
0000
0000
0000
,
0100
0000
0100
0000
,
1000
0000
0001
0000
,
MMMM
0000
MMMM
0000
,
0100
0000
0000
0000
,
0010
0000
0010
0000
,
0001
0000
1000
0000
,
MMMM
0000
MMMM
0000
,
1000
0000
0000
0000
,
0010
0000
0001
0000
,
0100
0000
0010
0000
,
MMMM
0000
1000
0000
,
0001
0000
0000
0000
,
0100
0000
1000
0000
,
0010
0000
0100
0000
,
MMMM
0000
0001
0000
,
0010
0000
0000
0000
,
0001
0000
0100
0000
,
1000
0000
0001
0000
,
MMMM
0000
0010
0000
,
0100
0000
0000
0000
,
1000
0000
0010
0000
,
0001
0000
1000
0000
,
MMMM
0000
0100
0000
,
0100
0000
0000
0000
,
0000
0000
0000
0000
,
0000
0100
0000
0000
,
0000
0000
0000
0000
,
0000
0000
0000
0010
0000
0000
0000
0000
,
0000
0000
0000
0000
,
0000
0000
0010
0000
,
0000
0000
0000
0000
,
0000
0000
0000
0100
,
0000
0000
0000
0000
,
0000
0000
0000
0100
,
0000
0000
0000
0000
,
0000
0000
0000
0000
,
0010
0000
0000
0000
,
0000
0000
0000
0000
,
0000
0010
0000
0000
0000
0000
0000
0000
,
0000
0000
0000
0000
,
0000
1000
0000
0000
,
0000
0010
0000
0010
,
0000
1000
0000
1000
,
0000
MMMM
0000
MMMM
,
0000
0001
0000
0000
,
0000
0100
0000
0100
,
0000
0001
0000
0001
,
0000
MMMM
0000
MMMM
,
0000
0010
0000
0000
,
0000
0001
0000
0001
,
0000
0010
0000
0010
,
0000
MMMM
0000
MMMM
,
0000
0100
0000
0000
,
0000
1000
0000
1000
,
0000
0100
0000
0100
,
0000
MMMM
0000
MMMM
,
0000
1000
0000
MMMM
,
0000
0001
0000
0000
,
0000
0100
0000
MMMM
,
0000
1000
0000
0100
,
0000
0001
0000
MMMM
,
0000
1000
0000
0000
,
0000
0010
0000
MMMM
,
0000
0001
0000
0010
,
0000
2002
0000
0000
,
0000
0000
0000
0000
,
3003
0220
0000
0000
,
0000
0000
0000
0000
,
0330
1001
0000
0000
,
1001
0000
0000
1001
,
0000
0000
1000
0000
0000
0000
0000
0001
,
0000
0000
0000
0000
0000
0100
0000
0000
,
0000
2002
0000
0000
0000
0000
0000
0000
,
0000
0000
0000
0000
,
0000
0000
0000
0000
,
0000
0000
0000
0000
,
0000
0000
0000
0000
,
0000
0000
0000
0000
,
0000
0000
0000
0000
,
0000
0000
0000
0000
,
0000
0000
0000
0000
,
0000
0000
0000
0000
,
0000
0000
0000
0000
,
0000
0000
0000
0000
,
0000
0000
0000
0000
,
0000
0000
0000
0000
,
0000
0000
0000
0000
,
0000
0000
0000
0000
,
0000
0000
0000
0000
,
0000
0000
0000
0000
,
3003
0000
0000
0000
;

//---------------dance-single - ----------------
#NOTEDATA:;
#CHARTNAME:;
#STEPSTYPE:dance-single;
#DESCRIPTION:;
#CHARTSTYLE:;
#DIFFICULTY:Medium;
#METER:4;
#RADARVALUES:0.140539,0.261476,0.051777,0.044381,0.007397,133.000000,126.000000,7.000000,6.000000,96.000000,0.000000,0.000000,0.000000,0.000000,0.140539,0.261476,0.051777,0.044381,0.007397,133.000000,126.000000,7.000000,6.000000,96.000000,0.000000,0.000000,0.000000,0.000000;
#CREDIT:;
#DISPLAYBPM:*;
#NOTES:
0000
0000
0000
0000
,
0000
0000
0000
0000
,
1000
0000
1000
0000
,
0001
0000
0001
0000
,
0100
0100
0010
0000
,
MMMM
0000
MMMM
0000
,
0001
0000
0001
0000
,
1000
0000
1000
0000
,
0010
0010
0100
0000
,
MMMM
0000
MMMM
0000
,
0010
0000
0010
0000
,
0100
0000
0100
0000
,
1000
1000
0001
0000
,
MMMM
0000
MMMM
0000
,
0100
0000
0100
0000
,
0010
0000
0010
0000
,
0001
0001
1000
0000
,
MMMM
0000
MMMM
0000
,
1000
0000
1000
0000
,
0010
0000
0001
0000
,
0100
0100
0010
0000
,
MMMM
0000
1000
0000
,
0001
0000
0001
0000
,
0100
0000
1000
0000
,
0010
0010
0100
0000
,
MMMM
0000
0001
0000
,
0010
0000
0010
0000
,
0001
0000
0100
0000
,
1000
1000
0001
0000
,
MMMM
0000
0010
0000
,
0100
0000
0100
0000
,
1000
0000
0010
0000
,
0001
0001
1000
0000
,
MMMM
0000
0100
0000
,
0100
0000
0000
0000
,
0000
0100
0000
0000
0000
0000
0000
0000
,
0000
0100
0000
0000
,
0000
0000
0000
0000
,
0000
0000
0000
0010
0000
0000
0000
0000
,
0000
0000
0000
0010
0000
0000
0000
0000
,
0000
0000
0010
0000
,
0000
0000
0000
0000
,
0000
0000
0000
0100
,
0000
0000
0000
0100
,
0000
0000
0000
0100
,
0000
0000
0000
0000
,
0000
0000
0000
0000
,
0010
0000
0000
0000
,
0010
0000
0000
0000
,
0000
0010
0000
0000
0000
0000
0000
0000
,
0000
1001
0000
0000
,
0000
1000
0000
1000
,
0000
0010
0000
0010
,
0000
1000
1000
1000
,
0000
MMMM
0000
MMMM
,
0000
0001
0000
0001
,
0000
0100
0000
0100
,
0000
0001
0001
0001
,
0000
MMMM
0000
MMMM
,
0000
0010
0000
0010
,
0000
0001
0000
0001
,
0000
0010
0010
0010
,
0000
MMMM
0000
MMMM
,
0000
0100
0000
0100
,
0000
1000
0000
1000
,
0000
0100
0100
0100
,
0000
MMMM
0000
MMMM
,
0000
1000
0000
MMMM
,
0000
0001
0000
0001
,
0000
0100
0000
MMMM
,
0000
1000
0000
0100
,
0010
0001
0000
MMMM
,
0000
1000
0000
1000
,
0000
0010
0000
MMMM
,
0000
0001
0000
0010
,
0100
2002
0000
0000
,
0000
0000
0000
0000
,
3003
0220
0000
0000
,
0000
0000
0000
0000
,
0330
1001
0000
0000
,
1001
0000
0000
1001
,
0000
0000
0000
0000
1000
0000
0000
0000
0000
0100
0000
0000
0000
0000
0001
0000
,
0000
0000
0000
0000
0000
0010
0000
0000
0000
0000
0100
0000
0000
0000
0000
0000
,
0000
2002
0000
0000
0000
0000
0000
0000
,
0000
0000
0000
0000
,
0000
0000
0000
0000
,
0000
0000
0000
0000
,
0000
0000
0000
0000
,
0000
0000
0000
0000
,
0000
0000
0000
0000
,
0000
0000
0000
0000
,
0000
0000
0000
0000
,
0000
0000
0000
0000
,
0000
0000
0000
0000
,
0000
0000
0000
0000
,
0000
0000
0000
0000
,
0000
0000
0000
0000
,
0000
0000
0000
0000
,
0000
0000
0000
0000
,
0000
0000
0000
0000
,
0000
0000
0000
0000
,
3003
0000
0000
0000
;

//---------------dance-single - ----------------
#NOTEDATA:;
#CHARTNAME:;
#STEPSTYPE:dance-single;
#DESCRIPTION:;
#CHARTSTYLE:;
#DIFFICULTY:Hard;
#METER:5;
#RADARVALUES:0.155332,0.261476,0.051777,0.044381,0.007397,147.000000,140.000000,7.000000,6.000000,96.000000,0.000000,0.000000,0.000000,0.000000,0.155332,0.261476,0.051777,0.044381,0.007397,147.000000,140.000000,7.000000,6.000000,96.000000,0.000000,0.000000,0.000000,0.000000;
#CREDIT:;
#DISPLAYBPM:*;
#NOTES:
0000
0000
0000
0000
,
0000
0000
0000
0000
,
1000
0000
1000
0000
,
0001
0000
0001
0000
,
0100
0100
0010
0000
,
MMMM
0010
MMMM
0000
,
0001
0000
0001
0000
,
1000
0000
1000
0000
,
0010
0010
0100
0000
,
MMMM
0100
MMMM
0000
,
0010
0000
0010
0000
,
0100
0000
0100
0000
,
1000
1000
0001
0000
,
MMMM
0001
MMMM
0000
,
0100
0000
0100
0000
,
0010
0000
0010
0000
,
0001
0001
1000
0000
,
MMMM
1000
MMMM
0000
,
1000
1000
1000
0000
,
0010
0000
0001
0000
,
0100
0100
0010
0000
,
MMMM
0000
1000
0000
,
0001
0001
0001
0000
,
0100
0000
1000
0000
,
0010
0010
0100
0000
,
MMMM
0000
0001
0000
,
0010
0010
0010
0000
,
0001
0000
0100
0000
,
1000
1000
0001
0000
,
MMMM
0000
0010
0000
,
0100
0100
0100
0000
,
1000
0000
0010
0000
,
0001
0001
1000
0000
,
MMMM
0000
0100
0000
,
0100
0000
0000
0000
,
0000
0100
0000
0000
0000
0000
0000
0000
,
0000
0100
0000
0000
,
0000
0000
0000
0000
,
0000
0000
0000
0010
0000
0000
0000
0000
,
0000
0000
0000
0010
0000
0000
0000
0000
,
0000
0000
0010
0000
,
0000
0000
0000
0000
,
0000
0000
0000
0100
,
0000
0000
0000
0100
,
0000
0000
0000
0100
,
0000
0000
0000
0000
,
0000
0000
0000
0000
,
0010
0000
0000
0000
,
0010
0000
0000
0000
,
0000
0010
0000
0000
0000
0000
0000
0000
,
0000
1001
0000
0000
,
0000
1000
1000
1000
,
0000
0010
0000
0010
,
0000
1000
1000
1000
,
0000
MMMM
0000
MMMM
,
0000
0001
0001
0001
,
0000
0100
0000
0100
,
0000
0001
0001
0001
,
0000
MMMM
0000
MMMM
,
0000
0010
0010
0010
,
0000
0001
0000
0001
,
0000
0010
0010
0010
,
0000
MMMM
0000
MMMM
,
0000
0100
0100
0100
,
0000
1000
0000
1000
,
0000
0100
0100
0100
,
0000
MMMM
0000
MMMM
,
0000
1000
1000
MMMM
,
0000
0001
0000
0001
,
0000
0100
0000
MMMM
,
0000
1000
0000
0100
,
0010
0001
0001
MMMM
,
0000
1000
0000
1000
,
0000
0010
0000
MMMM
,
0000
0001
0000
0010
,
0100
2002
0000
0000
,
0000
0000
0000
0000
,
3003
0220
0000
0000
,
0000
0000
0000
0000
,
0330
1001
0000
0000
,
1001
0000
0000
1001
,
0000
0000
0000
0000
1000
0000
0000
0000
0000
0100
0000
0000
0000
0000
0001
0000
,
0000
0000
0000
0000
0000
0010
0000
0000
0000
0000
0100
0000
0000
0000
0000
0000
,
0000
2002
0000
0000
0000
0000
0000
0000
,
0000
0000
0000
0000
,
0000
0000
0000
0000
,
0000
0000
0000
0000
,
0000
0000
0000
0000
,
0000
0000
0000
0000
,
0000
0000
0000
0000
,
0000
0000
0000
0000
,
0000
0000
0000
0000
,
0000
0000
0000
0000
,
0000
0000
0000
0000
,
0000
0000
0000
0000
,
0000
0000
0000
0000
,
0000
0000
0000
0000
,
0000
0000
0000
0000
,
0000
0000
0000
0000
,
0000
0000
0000
0000
,
0000
0000
0000
0000
,
3003
0000
0000
0000
;

//---------------dance-single - ----------------
#NOTEDATA:;
#CHARTNAME:;
#STEPSTYPE:dance-single;
#DESCRIPTION:;
#CHARTSTYLE:;
#DIFFICULTY:Challenge;
#METER:5;
#RADARVALUES:0.171183,0.336184,0.059174,0.044381,0.007397,162.000000,154.000000,8.000000,6.000000,96.000000,0.000000,0.000000,0.000000,0.000000,0.171183,0.336184,0.059174,0.044381,0.007397,162.000000,154.000000,8.000000,6.000000,96.000000,0.000000,0.000000,0.000000,0.000000;
#CREDIT:;
#DISPLAYBPM:*;
#NOTES:
0000
0000
0000
0000
,
0000
0000
0000
0000
,
1000
1000
1000
0000
,
0001
0000
0001
0000
,
0100
0100
0010
0000
,
MMMM
0010
MMMM
0000
,
0001
0001
0001
0000
,
1000
0000
1000
0000
,
0010
0010
0100
0000
,
MMMM
0100
MMMM
0000
,
0010
0010
0010
0000
,
0100
0000
0100
0000
,
1000
1000
0001
0000
,
MMMM
0001
MMMM
0000
,
0100
0100
0100
0000
,
0010
0000
0010
0000
,
0001
0001
1000
0000
,
MMMM
1000
MMMM
0000
,
1000
1000
1000
0000
,
0010
0000
0001
0000
,
0100
0100
0010
0000
,
MMMM
0000
1000
0000
,
0001
0001
0001
0000
,
0100
0000
1000
0000
,
0010
0010
0100
0000
,
MMMM
0000
0001
0000
,
0010
0010
0010
0000
,
0001
0000
0100
0000
,
1000
1000
0001
0000
,
MMMM
0000
0010
0000
,
0100
0100
0100
0000
,
1000
0000
0010
0000
,
0001
0001
1000
0000
,
MMMM
0000
0100
0000
,
0100
0000
0000
0000
,
0000
0100
0000
0000
0000
0000
0000
0000
,
0000
0100
0000
0000
,
0000
0100
0000
0000
,
0000
0000
0000
0010
0000
0000
0000
0000
,
0000
0000
0000
0010
0000
0000
0000
0000
,
0000
0000
0010
0000
,
0000
0000
0000
0000
0000
0010
0000
0000
,
0000
0000
0000
0100
,
0000
0000
0000
0100
,
0000
0000
0000
0100
,
0000
0000
0000
0000
,
0100
0000
0000
0000
,
0010
0000
0000
0000
,
0010
0000
0000
0000
,
0000
0010
0000
0000
0000
0000
0000
0000
,
0000
1001
0000
0000
,
0000
1000
1000
1000
,
0000
0010
0000
0010
,
0000
1000
1000
1000
,
0000
MMMM
1000
MMMM
,
0000
0001
0001
0001
,
0000
0100
0000
0100
,
0000
0001
0001
0001
,
0000
MMMM
0001
MMMM
,
0000
0010
0010
0010
,
0000
0001
0000
0001
,
0000
0010
0010
0010
,
0000
MMMM
0010
MMMM
,
0000
0100
0100
0100
,
0000
1000
0000
1000
,
0000
0100
0100
0100
,
0000
MMMM
0100
MMMM
,
0000
1000
1000
MMMM
,
0000
0001
0001
0001
,
0000
0100
0000
MMMM
,
0000
1000
0000
0100
,
0010
0001
0001
MMMM
,
0000
1000
1000
1000
,
0000
0010
0000
MMMM
,
0000
0001
0000
0010
,
0100
2002
0000
0000
,
0000
0000
0000
0000
,
3003
0220
0000
0000
,
0000
0000
0000
0000
,
0330
1001
0000
0000
,
1001
0000
0000
1001
,
0000
0000
0000
0000
1000
0000
0000
0000
0000
0100
0000
0000
0000
0000
0001
0000
,
0000
0000
0000
0000
0000
0010
0000
0000
0000
0000
0100
0000
0000
0000
1001
0000
,
0000
2002
0000
0000
0000
0000
0000
0000
,
0000
0000
0000
0000
,
0000
0000
0000
0000
,
0000
0000
0000
0000
,
0000
0000
0000
0000
,
0000
0000
0000
0000
,
0000
0000
0000
0000
,
0000
0000
0000
0000
,
0000
0000
0000
0000
,
0000
0000
0000
0000
,
0000
0000
0000
0000
,
0000
0000
0000
0000
,
0000
0000
0000
0000
,
0000
0000
0000
0000
,
0000
0000
0000
0000
,
0000
0000
0000
0000
,
0000
0000
0000
0000
,
0000
0000
0000
0000
,
3003
0000
0000
0000
;

//---------------dance-single - Deluxe----------------
#NOTEDATA:;
#CHARTNAME:Deluxe;
#STEPSTYPE:dance-single;
#DESCRIPTION:Deluxe;
#CHARTSTYLE:;
#DIFFICULTY:Edit;
#METER:5;
#RADARVALUES:0.185976,0.336184,0.059174,0.044381,0.007397,176.000000,168.000000,8.000000,6.000000,96.000000,0.000000,0.000000,0.000000,0.000000,0.185976,0.336184,0.059174,0.044381,0.007397,176.000000,168.000000,8.000000,6.000000,96.000000,0.000000,0.000000,0.000000,0.000000;
#CREDIT:;
#DISPLAYBPM:*;
#NOTES:
0000
0000
0000
0000
,
0000
0000
0000
0000
,
1000
1000
1000
0000
,
0001
0001
0001
0000
,
0100
0100
0010
0000
,
MMMM
0010
MMMM
0000
,
0001
0001
0001
0000
,
1000
1000
1000
0000
,
0010
0010
0100
0000
,
MMMM
0100
MMMM
0000
,
0010
0010
0010
0000
,
0100
0100
0100
0000
,
1000
1000
0001
0000
,
MMMM
0001
MMMM
0000
,
0100
0100
0100
0000
,
0010
0010
0010
0000
,
0001
0001
1000
0000
,
MMMM
1000
MMMM
0000
,
1000
1000
1000
0000
,
0010
1000
0001
0000
,
0100
0100
0010
0000
,
MMMM
0000
1000
0000
,
0001
0001
0001
0000
,
0100
0001
1000
0000
,
0010
0010
0100
0000
,
MMMM
0000
0001
0000
,
0010
0010
0010
0000
,
0001
0010
0100
0000
,
1000
1000
0001
0000
,
MMMM
0000
0010
0000
,
0100
0100
0100
0000
,
1000
0100
0010
0000
,
0001
0001
1000
0000
,
MMMM
0000
0100
0000
,
0100
0000
0000
0000
,
0000
0100
0000
0000
0000
0000
0000
0000
,
0000
0100
0000
0000
,
0000
0100
0000
0000
,
0000
0000
0000
0010
0000
0000
0000
0000
,
0000
0000
0000
0010
0000
0000
0000
0000
,
0000
0000
0010
0000
,
0000
0000
0000
0000
0000
0010
0000
0000
,
0000
0000
0000
0100
,
0000
0000
0000
0100
,
0000
0000
0000
0100
,
0000
0000
0000
0000
,
0100
0000
0000
0000
,
0010
0000
0000
0000
,
0010
0000
0000
0000
,
0000
0010
0000
0000
0000
0000
0000
0000
,
0000
1001
0000
0000
,
0000
1000
1000
1000
,
0000
0010
0010
0010
,
0000
1000
1000
1000
,
0000
MMMM
1000
MMMM
,
0000
0001
0001
0001
,
0000
0100
0100
0100
,
0000
0001
0001
0001
,
0000
MMMM
0001
MMMM
,
0000
0010
0010
0010
,
0000
0001
0001
0001
,
0000
0010
0010
0010
,
0000
MMMM
0010
MMMM
,
0000
0100
0100
0100
,
0000
1000
1000
1000
,
0000
0100
0100
0100
,
0000
MMMM
0100
MMMM
,
0000
1000
1000
MMMM
,
0000
0001
0001
0001
,
0000
0100
0100
MMMM
,
0000
1000
0000
0100
,
0010
0001
0001
MMMM
,
0000
1000
1000
1000
,
0000
0010
0010
MMMM
,
0000
0001
0000
0010
,
0100
2002
0000
0000
,
0000
0000
0000
0000
,
3003
0220
0000
0000
,
0000
0000
0000
0000
,
0330
1001
0000
0000
,
1001
0000
0000
1001
,
0000
0000
0000
0000
1000
0000
0000
0000
0000
0100
0000
0000
0000
0000
0001
0000
,
0000
0000
0000
0000
0000
0010
0000
0000
0000
0000
0100
0000
0000
0000
1001
0000
,
0000
2002
0000
0000
0000
0000
0000
0000
,
0000
0000
0000
0000
,
0000
0000
0000
0000
,
0000
0000
0000
0000
,
0000
0000
0000
0000
,
0000
0000
0000
0000
,
0000
0000
0000
0000
,
0000
0000
0000
0000
,
0000
0000
0000
0000
,
0000
0000
0000
0000
,
0000
0000
0000
0000
,
0000
0000
0000
0000
,
0000
0000
0000
0000
,
0000
0000
0000
0000
,
0000
0000
0000
0000
,
0000
0000
0000
0000
,
0000
0000
0000
0000
,
0000
0000
0000
0000
,
3003
0000
0000
0000
;

//---------------dance-single - Casual----------------
#NOTEDATA:;
#CHARTNAME:;
#STEPSTYPE:dance-single;
#DESCRIPTION:Casual;
#CHARTSTYLE:;
#DIFFICULTY:Edit;
#METER:3;
#RADARVALUES:0.085591,0.186769,0.036984,0.044381,0.000000,81.000000,76.000000,5.000000,6.000000,96.000000,0.000000,0.000000,0.000000,0.000000,0.085591,0.186769,0.036984,0.044381,0.000000,81.000000,76.000000,5.000000,6.000000,96.000000,0.000000,0.000000,0.000000,0.000000;
#CREDIT:;
#DISPLAYBPM:*;
#NOTES:
0000
0000
0000
0000
,
0000
0000
0000
0000
,
1000
0000
0000
0000
,
0001
0000
0000
0000
,
0100
0000
0010
0000
,
MMMM
0000
MMMM
0000
,
0001
0000
0000
0000
,
1000
0000
0000
0000
,
0010
0000
0100
0000
,
MMMM
0000
MMMM
0000
,
0010
0000
0000
0000
,
0100
0000
0000
0000
,
1000
0000
0001
0000
,
MMMM
0000
MMMM
0000
,
0100
0000
0000
0000
,
0010
0000
0000
0000
,
0001
0000
1000
0000
,
MMMM
0000
MMMM
0000
,
1000
0000
0000
0000
,
0010
0000
0000
0000
,
0100
0000
0010
0000
,
MMMM
0000
1000
0000
,
0001
0000
0000
0000
,
0100
0000
0000
0000
,
0010
0000
0100
0000
,
MMMM
0000
0001
0000
,
0010
0000
0000
0000
,
0001
0000
0000
0000
,
1000
0000
0001
0000
,
MMMM
0000
0010
0000
,
0100
0000
0000
0000
,
1000
0000
0000
0000
,
0001
0000
1000
0000
,
MMMM
0000
0100
0000
,
0100
0000
0000
0000
,
0000
0000
0000
0000
,
0000
0100
0000
0000
,
0000
0000
0000
0000
,
0000
0000
0000
0010
0000
0000
0000
0000
,
0000
0000
0000
0000
,
0000
0000
0010
0000
,
0000
0000
0000
0000
,
0000
0000
0000
0100
,
0000
0000
0000
0000
,
0000
0000
0000
0100
,
0000
0000
0000
0000
,
0000
0000
0000
0000
,
0010
0000
0000
0000
,
0000
0000
0000
0000
,
0000
0010
0000
0000
0000
0000
0000
0000
,
0000
0000
0000
0000
,
0000
1000
0000
0000
,
0000
0010
0000
0000
,
0000
1000
0000
1000
,
0000
MMMM
0000
MMMM
,
0000
0001
0000
0000
,
0000
0100
0000
0000
,
0000
0001
0000
0001
,
0000
MMMM
0000
MMMM
,
0000
0010
0000
0000
,
0000
0001
0000
0000
,
0000
0010
0000
0010
,
0000
MMMM
0000
MMMM
,
0000
0100
0000
0000
,
0000
1000
0000
0000
,
0000
0100
0000
0100
,
0000
MMMM
0000
MMMM
,
0000
1000
0000
MMMM
,
0000
0001
0000
0000
,
0000
0100
0000
MMMM
,
0000
1000
0000
0000
,
0000
0001
0000
MMMM
,
0000
1000
0000
0000
,
0000
0010
0000
MMMM
,
0000
0001
0000
0000
,
0000
2002
0000
0000
,
0000
0000
0000
0000
,
3003
0220
0000
0000
,
0000
0000
0000
0000
,
0330
1001
0000
0000
,
0000
0000
0000
1001
,
0000
0000
1000
0000
0000
0000
0000
0001
,
0000
0000
0000
0000
0000
0100
0000
0000
,
0000
2002
0000
0000
0000
0000
0000
0000
,
0000
0000
0000
0000
,
0000
0000
0000
0000
,
0000
0000
0000
0000
,
0000
0000
0000
0000
,
0000
0000
0000
0000
,
0000
0000
0000
0000
,
0000
0000
0000
0000
,
0000
0000
0000
0000
,
0000
0000
0000
0000
,
0000
0000
0000
0000
,
0000
0000
0000
0000
,
0000
0000
0000
0000
,
0000
0000
0000
0000
,
0000
0000
0000
0000
,
0000
0000
0000
0000
,
0000
0000
0000
0000
,
0000
0000
0000
0000
,
3003
0000
0000
0000
;

//---------------dance-single - Enjoy----------------
#NOTEDATA:;
#CHARTNAME:Enjoy;
#STEPSTYPE:dance-single;
#DESCRIPTION:Enjoy;
#CHARTSTYLE:;
#DIFFICULTY:Edit;
#METER:1;
#RADARVALUES:0.023247,0.074707,0.007397,0.014794,0.000000,22.000000,21.000000,1.000000,2.000000,32.000000,0.000000,0.000000,0.000000,0.000000,0.023247,0.074707,0.007397,0.014794,0.000000,22.000000,21.000000,1.000000,2.000000,32.000000,0.000000,0.000000,0.000000,0.000000;
#CREDIT:;
#DISPLAYBPM:*;
#NOTES:
0000
0000
0000
0000
,
0000
0000
0000
0000
,
0010
0000
0000
0000
,
0000
0000
0000
0000
,
0000
0000
0000
0000
,
0000
0000
0000
0000
,
0100
0000
0000
0000
,
0000
0000
0000
0000
,
MMMM
0000
0000
0000
,
0000
0000
0000
0000
,
0001
0000
0000
0000
,
0000
0000
0000
0000
,
0000
0000
0000
0000
,
0000
0000
0000
0000
,
1000
0000
0000
0000
,
0000
0000
0000
0000
,
MMMM
0000
0000
0000
,
0000
0000
0000
0000
,
1000
0000
0000
0000
,
0000
0000
0000
0000
,
0000
0000
0000
0000
,
0000
0000
0000
0000
,
0001
0000
0000
0000
,
MMMM
0000
0000
0000
,
0000
0000
0000
0000
,
0000
0000
0000
0000
,
0010
0000
0000
0000
,
0000
0000
0000
0000
,
0000
0000
0000
0000
,
0000
0000
0000
0000
,
0100
0000
0000
0000
,
MMMM
0000
0000
0000
,
0000
0000
0000
0000
,
0000
0000
0000
0000
,
0010
0000
0000
0000
,
0000
0000
0000
0000
,
0000
0000
0000
0000
,
0000
0000
0000
0000
,
0000
0000
0000
0000
,
0000
0000
0000
0000
,
0000
0000
0000
0000
,
0000
0000
0000
0000
,
0000
0000
0000
0100
,
0000
0000
0000
0000
,
0000
0000
0000
0000
,
0000
0000
0000
0000
,
0000
0000
0000
0000
,
0000
0000
0000
0000
,
0000
0000
0000
0000
,
0000
0000
0000
0000
,
0000
0000
0000
0000
,
0000
1000
0000
0000
,
0000
0000
0000
0000
,
0000
0000
0000
0000
,
0000
0000
0000
0000
,
0000
0001
0000
0000
,
0000
0000
0000
0000
,
0000
MMMM
0000
0000
,
0000
0000
0000
0000
,
0000
0010
0000
0000
,
0000
0000
0000
0000
,
0000
0000
0000
0000
,
0000
0000
0000
0000
,
0000
0100
0000
0000
,
0000
0000
0000
0000
,
0000
MMMM
0000
0000
,
0000
0000
0000
0000
,
0000
1000
0000
0000
,
0000
0000
0000
0000
,
0000
1000
0000
0000
,
0000
0000
0000
MMMM
,
0000
0001
0000
0000
,
0000
0000
0000
0000
,
0000
0001
0000
0000
,
0000
0000
0000
MMMM
,
0000
0010
0000
0000
,
0000
0000
0000
0000
,
0000
0000
0000
0000
,
0000
0000
0000
0000
,
0000
0100
0000
0000
,
0000
0000
0000
0000
,
0000
0000
0000
0000
,
0000
0000
0000
0000
,
0000
2002
0000
0000
0000
0000
0000
0000
,
0000
0000
0000
0000
,
0000
0000
0000
0000
,
0000
0000
0000
0000
,
0000
0000
0000
0000
,
0000
0000
0000
0000
,
0000
0000
0000
0000
,
0000
0000
0000
0000
,
0000
0000
0000
0000
,
0000
0000
0000
0000
,
0000
0000
0000
0000
,
0000
0000
0000
0000
,
0000
0000
0000
0000
,
0000
0000
0000
0000
,
0000
0000
0000
0000
,
0000
0000
0000
0000
,
0000
0000
0000
0000
,
0000
0000
0000
0000
,
3003
0000
0000
0000
;
