#TITLE:GADARINA;
#SUBTITLE:;
#ARTIST:D-Crew;
#TITLETRANSLIT:;
#SUBTITLETRANSLIT:;
#ARTISTTRANSLIT:;
#GENRE:FORTUNE-TALE BEAT;
#CREDIT:;
#BANNER:;
#BACKGROUND:;
#LYRICSPATH:;
#CDTITLE:;
#MUSIC:GADARINA.ogg;
#OFFSET:-2.946000;
#SAMPLESTART:11.347177;
#SAMPLELENGTH:15.000000;
#SELECTABLE:YES;
#BPMS:0.000000=199.972000
;
#STOPS:
;
#BGCHANGES:;
#KEYSOUNDS:;
#ATTACKS:;

//---------------dance-single - ----------------
#NOTES:
     dance-single:
     :
     Easy:
     11:
     0.421247,0.629486,0.135117,0.119221,0.000000,371.000000,354.000000,17.000000,15.000000,0.000000,0.000000,0.421247,0.629486,0.135117,0.119221,0.000000,371.000000,354.000000,17.000000,15.000000,0.000000,0.000000:
// measure 0
0000
0000
0000
0000
,  // measure 1
0000
0000
0000
0000
,  // measure 2
0000
0000
0000
0000
,  // measure 3
0000
0000
0000
0000
,  // measure 4
0000
0000
0000
0000
,  // measure 5
0000
0000
0000
0000
,  // measure 6
0000
0000
0000
0000
,  // measure 7
1001
0000
0000
0010
0000
0000
0010
0000
,  // measure 8
0100
0000
0100
0010
1000
0010
0100
0010
,  // measure 9
0001
0000
1000
1000
0001
1000
0001
0001
,  // measure 10
0000
0000
0000
0000
,  // measure 11
0000
0000
0000
0000
,  // measure 12
0000
0000
0000
0000
,  // measure 13
0000
0000
0000
0000
,  // measure 14
0000
0000
0000
0000
,  // measure 15
1001
0000
0000
0100
0000
0000
0100
0000
,  // measure 16
0010
0000
0010
0100
0001
0100
0010
0100
,  // measure 17
1000
0000
0001
0001
1000
0001
1000
1000
,  // measure 18
0000
0000
0000
0000
,  // measure 19
1001
0000
0000
0010
0000
0000
0010
0000
,  // measure 20
0000
0000
0000
0000
,  // measure 21
0000
0000
0000
0000
,  // measure 22
0000
0000
0000
0000
,  // measure 23
0110
0000
0000
0001
0000
0000
0001
0000
,  // measure 24
1000
0000
1000
0001
0010
0001
1000
0001
,  // measure 25
0100
0000
0010
0010
0100
0010
0100
0100
,  // measure 26
0000
0000
1001
0000
,  // measure 27
0110
0000
0000
1000
0000
0000
1000
0000
,  // measure 28
0001
0000
0001
1000
0100
1000
0001
1000
,  // measure 29
0010
0000
0100
0100
0010
0100
0010
0010
,  // measure 30
0000
0000
1001
0000
,  // measure 31
1001
0000
0000
0010
0000
0000
0010
0000
,  // measure 32
0100
0000
0100
0010
1000
0010
0100
0010
,  // measure 33
0001
0000
1000
1000
0001
1000
0001
0001
,  // measure 34
0000
0000
0000
0000
,  // measure 35
1001
0000
0000
0100
0000
0000
0100
0000
,  // measure 36
0010
0000
0010
0100
0001
0100
0010
0100
,  // measure 37
1000
0000
0001
0001
1000
0001
1000
1000
,  // measure 38
0010
0010
0010
0010
,  // measure 39
0010
0010
0010
0010
,  // measure 40
0100
0000
0100
0010
1000
0010
0100
0010
,  // measure 41
0001
0000
1000
1000
0001
1000
0001
0001
,  // measure 42
0010
0010
0010
0010
,  // measure 43
0010
0010
0010
0010
,  // measure 44
0100
0000
0100
0010
1000
0010
0100
0010
,  // measure 45
0001
0000
1000
1000
0001
1000
0001
0001
,  // measure 46
1000
0001
0010
0000
0010
0000
0010
0000
,  // measure 47
0010
0010
0010
0010
,  // measure 48
0100
0000
0100
0010
1000
0010
0100
0010
,  // measure 49
0001
0000
1000
1000
0001
1000
0001
0001
,  // measure 50
0010
0000
0010
0100
0001
0100
0010
0100
,  // measure 51
1000
0000
0001
0001
1000
0001
1000
1000
,  // measure 52
1000
0000
1000
0001
0010
0001
1000
0001
,  // measure 53
0100
0000
0010
0010
0100
0010
0100
0100
,  // measure 54
0001
0000
0001
1000
0100
1000
0001
1000
,  // measure 55
0010
0000
0100
0100
0010
0100
0010
0010
,  // measure 56
1001
0010
0010
0010
,  // measure 57
2000
0000
3100
0010
0001
0100
0010
0001
,  // measure 58
1000
0000
0001
0000
1000
0001
1000
0001
,  // measure 59
2000
0000
0000
0000
,  // measure 60
3002
0000
0000
0000
,  // measure 61
2003
0000
0000
0000
,  // measure 62
3002
0000
0000
0000
,  // measure 63
2003
0000
0000
0000
0000
0000
0000
3000
,  // measure 64
1001
0100
0100
0100
,  // measure 65
0002
0000
0013
0100
1000
0010
0100
1000
,  // measure 66
0001
0000
1000
0000
0001
1000
0001
1000
,  // measure 67
0002
0000
0000
0000
,  // measure 68
2003
0000
0000
0000
,  // measure 69
3002
0000
0000
0000
,  // measure 70
2003
0000
0000
0000
,  // measure 71
3002
0000
0000
0000
0000
0000
0000
0003
,  // measure 72
0110
0001
0001
0001
,  // measure 73
0020
0000
1030
0001
0100
1000
0001
0100
,  // measure 74
0010
0000
0100
0000
0010
0100
0010
0100
,  // measure 75
0010
0010
0100
0100
,  // measure 76
0110
1000
1000
1000
,  // measure 77
0200
0000
0301
1000
0010
0001
1000
0010
,  // measure 78
0100
0000
0010
0000
0100
0010
0100
0010
,  // measure 79
0100
0100
0010
0010
,  // measure 80
1001
0010
0010
0010
,  // measure 81
2000
0000
3100
0010
0001
0100
0010
0001
,  // measure 82
1000
0000
0001
0000
1000
0001
1000
0001
,  // measure 83
1000
0100
0010
0001
1000
0100
0010
0001
,  // measure 84
1000
1000
1000
0000
0010
0000
0001
0000
,  // measure 85
0110
0000
1000
0100
0010
0100
1000
0000
,  // measure 86
0010
1000
0001
0010
0001
0000
1001
0001
,  // measure 87
0010
0100
0010
0100
0010
0100
0010
0100
,  // measure 88
1001
0000
0000
0000
;

//---------------dance-single - ----------------
#NOTES:
     dance-single:
     :
     Beginner:
     10:
     0.372423,0.559543,0.135117,0.119221,0.000000,328.000000,311.000000,17.000000,15.000000,0.000000,0.000000,0.372423,0.559543,0.135117,0.119221,0.000000,328.000000,311.000000,17.000000,15.000000,0.000000,0.000000:
// measure 0
0000
0000
0000
0000
,  // measure 1
0000
0000
0000
0000
,  // measure 2
0000
0000
0000
0000
,  // measure 3
0000
0000
0000
0000
,  // measure 4
0000
0000
0000
0000
,  // measure 5
0000
0000
0000
0000
,  // measure 6
0000
0000
0000
0000
,  // measure 7
1001
0000
0000
0010
0000
0000
0010
0000
,  // measure 8
0100
0000
0100
0000
1000
0010
0100
0010
,  // measure 9
0001
0000
1000
0000
0001
1000
0001
0001
,  // measure 10
0000
0000
0000
0000
,  // measure 11
0000
0000
0000
0000
,  // measure 12
0000
0000
0000
0000
,  // measure 13
0000
0000
0000
0000
,  // measure 14
0000
0000
0000
0000
,  // measure 15
1001
0000
0000
0100
0000
0000
0100
0000
,  // measure 16
0010
0000
0010
0000
0001
0100
0010
0100
,  // measure 17
1000
0000
0001
0000
1000
0001
1000
1000
,  // measure 18
0000
0000
0000
0000
,  // measure 19
1001
0000
0000
0010
0000
0000
0010
0000
,  // measure 20
0000
0000
0000
0000
,  // measure 21
0000
0000
0000
0000
,  // measure 22
0000
0000
0000
0000
,  // measure 23
0110
0000
0000
0001
0000
0000
0001
0000
,  // measure 24
1000
0000
1000
0000
0010
0001
1000
0001
,  // measure 25
0100
0000
0010
0000
0100
0010
0100
0100
,  // measure 26
0000
0000
1001
0000
,  // measure 27
0110
0000
0000
1000
0000
0000
1000
0000
,  // measure 28
0001
0000
0001
0000
0100
1000
0001
1000
,  // measure 29
0010
0000
0100
0000
0010
0100
0010
0010
,  // measure 30
0000
0000
1001
0000
,  // measure 31
1001
0000
0000
0010
0000
0000
0010
0000
,  // measure 32
0100
0000
0100
0000
1000
0010
0100
0010
,  // measure 33
0001
0000
1000
0000
0001
1000
0001
0001
,  // measure 34
0000
0000
0000
0000
,  // measure 35
1001
0000
0000
0100
0000
0000
0100
0000
,  // measure 36
0010
0000
0010
0000
0001
0100
0010
0100
,  // measure 37
1000
0000
0001
0000
1000
0001
1000
1000
,  // measure 38
0010
0010
0010
0010
,  // measure 39
0010
0010
0010
0010
,  // measure 40
0100
0000
0100
0000
1000
0010
0100
0010
,  // measure 41
0001
0000
1000
0000
0001
1000
0001
0001
,  // measure 42
0010
0010
0010
0010
,  // measure 43
0010
0010
0010
0010
,  // measure 44
0100
0000
0100
0000
1000
0010
0100
0010
,  // measure 45
0001
0000
1000
0000
0001
1000
0001
0001
,  // measure 46
1000
0001
0010
0000
0010
0000
0010
0000
,  // measure 47
0010
0010
0010
0010
,  // measure 48
0100
0000
0100
0000
1000
0010
0100
0010
,  // measure 49
0001
0000
1000
0000
0001
1000
0001
0001
,  // measure 50
0010
0000
0010
0000
0001
0100
0010
0100
,  // measure 51
1000
0000
0001
0000
1000
0001
1000
1000
,  // measure 52
1000
0000
1000
0000
0010
0001
1000
0001
,  // measure 53
0100
0000
0010
0000
0100
0010
0100
0100
,  // measure 54
0001
0000
0001
0000
0100
1000
0001
1000
,  // measure 55
0010
0000
0100
0000
0010
0100
0010
0010
,  // measure 56
1001
0010
0010
0010
,  // measure 57
2000
0000
3100
0010
0001
0000
0010
0001
,  // measure 58
1000
0001
1000
0001
,  // measure 59
2000
0000
0000
0000
,  // measure 60
3002
0000
0000
0000
,  // measure 61
2003
0000
0000
0000
,  // measure 62
3002
0000
0000
0000
,  // measure 63
2003
0000
0000
0000
0000
0000
0000
3000
,  // measure 64
1001
0100
0100
0100
,  // measure 65
0002
0000
0013
0100
1000
0000
0100
1000
,  // measure 66
0001
1000
0001
1000
,  // measure 67
0002
0000
0000
0000
,  // measure 68
2003
0000
0000
0000
,  // measure 69
3002
0000
0000
0000
,  // measure 70
2003
0000
0000
0000
,  // measure 71
3002
0000
0000
0000
0000
0000
0000
0003
,  // measure 72
0110
0001
0001
0001
,  // measure 73
0020
0000
1030
0001
0100
0000
0001
0100
,  // measure 74
0010
0100
0010
0100
,  // measure 75
0010
0010
0100
0100
,  // measure 76
0110
1000
1000
1000
,  // measure 77
0200
0000
0301
1000
0010
0000
1000
0010
,  // measure 78
0100
0010
0100
0010
,  // measure 79
0100
0100
0010
0010
,  // measure 80
1001
0010
0010
0010
,  // measure 81
2000
0000
3100
0010
0001
0000
0010
0001
,  // measure 82
1000
0001
1000
0001
,  // measure 83
1000
0000
0001
0000
1000
0100
0010
0001
,  // measure 84
1000
0001
1000
0000
0010
0000
0001
0000
,  // measure 85
0110
0000
1000
0100
0010
0100
1000
0000
,  // measure 86
0010
1000
0001
0010
0001
0000
1001
0000
,  // measure 87
0010
0100
0010
0100
0010
0100
0010
0000
,  // measure 88
1001
0000
0000
0000
;

//---------------dance-single - ----------------
#NOTES:
     dance-single:
     :
     Medium:
     12:
     0.484831,0.664457,0.174857,0.119221,0.000000,427.000000,405.000000,22.000000,15.000000,0.000000,0.000000,0.484831,0.664457,0.174857,0.119221,0.000000,427.000000,405.000000,22.000000,15.000000,0.000000,0.000000:
// measure 0
0000
0000
0000
0000
,  // measure 1
0000
0000
0000
0000
,  // measure 2
0000
0000
0000
0000
,  // measure 3
0000
0000
0000
0000
,  // measure 4
0000
0000
0000
0000
,  // measure 5
0000
0000
0000
0000
,  // measure 6
0000
0000
0000
0000
,  // measure 7
1001
0000
0000
0010
0000
0000
0010
0000
,  // measure 8
0100
0001
0100
0010
1000
0010
0100
0010
,  // measure 9
0001
0001
1000
1000
0001
1000
0001
0001
,  // measure 10
0000
0000
0000
0000
,  // measure 11
0000
0000
0000
0000
,  // measure 12
0000
0000
0000
0000
,  // measure 13
0000
0000
0000
0000
,  // measure 14
0000
0000
0000
0000
,  // measure 15
1001
0000
0000
0100
0000
0000
0100
0000
,  // measure 16
0010
1000
0010
0100
0001
0100
0010
0100
,  // measure 17
1000
1000
0001
0001
1000
0001
1000
1000
,  // measure 18
0000
0000
0000
0000
,  // measure 19
1001
0000
0000
0010
0000
0000
0010
0000
,  // measure 20
0000
0000
0000
0000
,  // measure 21
0000
0000
0000
0000
,  // measure 22
0000
0000
0000
0000
,  // measure 23
0110
0000
0000
0001
0000
0000
0001
0000
,  // measure 24
1000
0100
1000
0001
0010
0001
1000
0001
,  // measure 25
0100
0100
0010
0010
0100
0010
0100
0100
,  // measure 26
0000
0000
1001
0000
,  // measure 27
0110
0000
0000
1000
0000
0000
1000
0000
,  // measure 28
0001
0010
0001
1000
0100
1000
0001
1000
,  // measure 29
0010
0010
0100
0100
0010
0100
0010
0010
,  // measure 30
0000
0000
1001
0000
,  // measure 31
1001
0000
0000
0010
0000
0000
0010
0000
,  // measure 32
0100
0001
0100
0010
1000
0010
0100
0010
,  // measure 33
0001
0001
1000
1000
0001
1000
0001
0001
,  // measure 34
0000
0000
0000
0000
,  // measure 35
1001
0000
0000
0100
0000
0000
0100
0000
,  // measure 36
0010
1000
0010
0100
0001
0100
0010
0100
,  // measure 37
1000
1000
0001
0001
1000
0001
1000
1000
,  // measure 38
0010
0010
0010
0010
,  // measure 39
0010
0010
0010
0010
,  // measure 40
0100
0001
0100
0010
1000
0010
0100
0010
,  // measure 41
0001
0001
1000
1000
0001
1000
0001
0001
,  // measure 42
0010
0010
0010
0010
,  // measure 43
0010
0010
0010
0010
,  // measure 44
0100
0001
0100
0010
1000
0010
0100
0010
,  // measure 45
0001
0001
1000
1000
0001
1000
0001
0001
,  // measure 46
1000
0001
0010
0000
0010
0000
0010
0000
,  // measure 47
0010
0010
0010
0010
,  // measure 48
0100
0001
0100
0010
1000
0010
0100
0010
,  // measure 49
0001
0001
1000
1000
0001
1000
0001
0001
,  // measure 50
0010
0000
0010
0100
0001
0100
0010
0100
,  // measure 51
1000
1000
0001
0001
1000
0001
1000
1000
,  // measure 52
1000
0100
1000
0001
0010
0001
1000
0001
,  // measure 53
0100
0100
0010
0010
0100
0010
0100
0100
,  // measure 54
0001
0010
0001
1000
0100
1000
0001
1000
,  // measure 55
0010
0010
0100
0100
0010
0100
0010
0010
,  // measure 56
1001
0000
0010
0000
0010
0100
0010
0000
,  // measure 57
2000
0000
3100
0010
0001
0100
0010
0001
,  // measure 58
1000
0001
1000
0001
1000
0001
1000
0001
,  // measure 59
2000
0000
0001
0000
,  // measure 60
3002
0000
1000
0000
,  // measure 61
2003
0000
0001
0000
,  // measure 62
3002
0000
1000
0000
,  // measure 63
2003
0000
0000
0000
0001
0000
0000
3000
,  // measure 64
1001
0000
0100
0000
0100
0010
0100
0000
,  // measure 65
0002
0000
0013
0100
1000
0010
0100
1000
,  // measure 66
0001
1000
0001
1000
0001
1000
0001
1000
,  // measure 67
0002
0000
1000
0000
,  // measure 68
2003
0000
0001
0000
,  // measure 69
3002
0000
1000
0000
,  // measure 70
2003
0000
0001
0000
,  // measure 71
3002
0000
0000
0000
1000
0000
0000
0003
,  // measure 72
0110
0000
0001
0000
0001
1000
0001
0000
,  // measure 73
0020
0000
1030
0001
0100
1000
0001
0100
,  // measure 74
0010
0100
0010
0100
0010
0100
0010
0100
,  // measure 75
0010
0110
0100
0110
,  // measure 76
0110
0000
1000
0000
1000
0001
1000
0000
,  // measure 77
0200
0000
0301
1000
0010
0001
1000
0010
,  // measure 78
0100
0010
0100
0010
0100
0010
0100
0010
,  // measure 79
0100
0110
0010
0110
,  // measure 80
1001
0000
0010
0000
0010
0100
0010
0000
,  // measure 81
2000
0000
3100
0010
0001
0100
0010
0001
,  // measure 82
1000
0001
1000
0001
1000
0001
1000
0001
,  // measure 83
1000
0100
0010
0001
1000
0100
0010
0001
,  // measure 84
1000
1000
1001
0000
0010
0100
0001
0000
,  // measure 85
0110
0000
1000
0100
0010
0100
1000
0100
,  // measure 86
0010
1000
0001
0010
0001
0100
1001
0001
,  // measure 87
0010
0100
0010
0100
0001
1000
0001
1000
,  // measure 88
1001
0000
0000
0000
;

//---------------dance-single - ----------------
#NOTES:
     dance-single:
     :
     Hard:
     13:
     0.516623,0.734400,0.278182,0.119221,0.000000,455.000000,420.000000,35.000000,15.000000,0.000000,0.000000,0.516623,0.734400,0.278182,0.119221,0.000000,455.000000,420.000000,35.000000,15.000000,0.000000,0.000000:
// measure 0
0000
0000
0000
0000
,  // measure 1
0000
0000
0000
0000
,  // measure 2
0000
0000
0000
0000
,  // measure 3
0000
0000
0000
0000
,  // measure 4
0000
0000
0000
0000
,  // measure 5
0000
0000
0000
0000
,  // measure 6
0000
0000
0000
0000
,  // measure 7
1001
0000
0000
0010
0000
0000
0010
0000
,  // measure 8
0100
0001
0100
0010
1000
0010
0100
0010
,  // measure 9
0001
0001
1000
1000
0001
1000
0001
0001
,  // measure 10
0010
0000
0000
0010
,  // measure 11
0000
0000
0000
0000
,  // measure 12
0100
0000
0000
0100
,  // measure 13
0000
0000
0000
0000
,  // measure 14
1001
0000
0000
0000
,  // measure 15
1001
0000
0000
0100
0000
0000
0100
0000
,  // measure 16
0010
1000
0010
0100
0001
0100
0010
0100
,  // measure 17
1000
1000
0001
0001
1000
0001
1000
1000
,  // measure 18
0000
0000
0000
0000
,  // measure 19
1001
0000
0000
0010
0000
0000
0010
0000
,  // measure 20
0100
0000
0000
0100
,  // measure 21
0000
0000
0000
0000
,  // measure 22
0010
0000
0000
0010
,  // measure 23
0110
0000
0000
0001
0000
0000
0001
0000
,  // measure 24
1000
0100
1000
0001
0010
0001
1000
0001
,  // measure 25
0100
0100
0010
0010
0100
0010
0100
0100
,  // measure 26
0000
0000
1001
0000
,  // measure 27
0110
0000
0000
1000
0000
0000
1000
0000
,  // measure 28
0001
0010
0001
1000
0100
1000
0001
1000
,  // measure 29
0010
0010
0100
0100
0010
0100
0010
0010
,  // measure 30
0000
0000
1001
0000
,  // measure 31
1001
0000
0000
0010
0000
0000
0010
0000
,  // measure 32
0100
0001
0100
0010
1000
0010
0100
0010
,  // measure 33
0001
0001
1000
1000
0001
1000
0001
0001
,  // measure 34
0000
0000
0000
0000
,  // measure 35
1001
0000
0000
0100
0000
0000
0100
0000
,  // measure 36
0010
1000
0010
0100
0001
0100
0010
0100
,  // measure 37
1000
1000
0001
0001
1000
0001
1000
1000
,  // measure 38
0010
0000
0010
0000
0010
0010
0010
0000
,  // measure 39
0010
0000
0010
0000
0010
0010
0010
0000
,  // measure 40
0100
0001
0100
0010
1000
0010
0100
0010
,  // measure 41
0001
0001
1000
1000
0001
1000
0001
0001
,  // measure 42
0010
0000
0010
0000
0010
0010
0010
0000
,  // measure 43
0010
0000
0010
0000
0010
0010
0010
0000
,  // measure 44
0100
0001
0100
0010
1000
0010
0100
0010
,  // measure 45
0001
0001
1000
1000
0001
1000
0001
0001
,  // measure 46
1000
0001
0010
0000
0010
0010
0010
0000
,  // measure 47
0010
0000
0010
0000
0010
0010
0010
0000
,  // measure 48
0100
0001
0100
0010
1000
0010
0100
0010
,  // measure 49
0001
0001
1000
1000
0001
1000
0001
0001
,  // measure 50
0010
0000
0010
0100
0001
0100
0010
0100
,  // measure 51
1000
1000
0001
0001
1000
0001
1000
1000
,  // measure 52
1000
0100
1000
0001
0010
0001
1000
0001
,  // measure 53
0100
0100
0010
0010
0100
0010
0100
0100
,  // measure 54
0001
0010
0001
1000
0100
1000
0001
1000
,  // measure 55
0010
0010
0100
0100
0010
0100
0010
0010
,  // measure 56
1001
0000
0010
0000
0010
0100
0010
0000
,  // measure 57
2001
0000
3100
0010
0001
0100
0010
0001
,  // measure 58
1000
0001
1000
0001
1000
0001
1000
0001
,  // measure 59
2000
0000
0001
0000
,  // measure 60
3002
0000
1000
0000
,  // measure 61
2003
0000
0001
0000
,  // measure 62
3002
0000
1000
0000
,  // measure 63
2003
0000
0000
0000
0001
0000
0000
3000
,  // measure 64
1001
0000
0100
0000
0100
0010
0100
0000
,  // measure 65
1002
0000
0013
0100
1000
0010
0100
1000
,  // measure 66
0001
1000
0001
1000
0001
1000
0001
1000
,  // measure 67
0002
0000
1000
0000
,  // measure 68
2003
0000
0001
0000
,  // measure 69
3002
0000
1000
0000
,  // measure 70
2003
0000
0001
0000
,  // measure 71
3002
0000
0000
0000
1000
0000
0000
0003
,  // measure 72
0110
0000
0001
0000
0001
1000
0001
0000
,  // measure 73
0120
0000
1030
0001
0100
1000
0001
0100
,  // measure 74
0010
0100
0010
0100
0010
0100
0010
0100
,  // measure 75
0010
0110
0100
0110
,  // measure 76
0110
0000
1000
0000
1000
0001
1000
0000
,  // measure 77
0210
0000
0301
1000
0010
0001
1000
0010
,  // measure 78
0100
0010
0100
0010
0100
0010
0100
0010
,  // measure 79
0100
0110
0010
0110
,  // measure 80
1001
0000
0010
0000
0010
0100
0010
0000
,  // measure 81
2001
0000
3100
0010
0001
0100
0010
0001
,  // measure 82
1000
0001
1000
0001
1000
0001
1000
0001
,  // measure 83
1001
0100
0010
0001
1001
0100
0010
0001
,  // measure 84
1001
1000
1001
0000
0010
0100
0011
0000
,  // measure 85
0110
0000
1001
0100
0010
0100
1000
0100
,  // measure 86
0110
1000
0001
0010
0001
0100
1001
0001
,  // measure 87
0010
0100
0010
0100
1001
1000
0001
1000
,  // measure 88
1001
0000
0000
0000
;

//---------------dance-single - ----------------
#NOTES:
     dance-single:
     :
     Challenge:
     13:
     0.582479,0.769371,0.540468,0.119221,0.000000,513.000000,445.000000,68.000000,15.000000,0.000000,0.000000,0.582479,0.769371,0.540468,0.119221,0.000000,513.000000,445.000000,68.000000,15.000000,0.000000,0.000000:
// measure 0
0000
0000
0000
0000
,  // measure 1
0000
0000
0000
0000
,  // measure 2
0000
0000
0000
0000
,  // measure 3
0000
0000
0000
0000
,  // measure 4
0000
0000
0000
0000
,  // measure 5
0000
0000
0000
0000
,  // measure 6
0000
0000
0000
0000
,  // measure 7
1001
0000
0000
0010
0000
0000
0110
0000
,  // measure 8
0110
0001
0100
0010
1000
0010
0100
0010
,  // measure 9
1001
0001
1000
1000
0001
1000
0001
0001
,  // measure 10
0010
0000
0000
0010
,  // measure 11
0000
0000
0000
0000
,  // measure 12
0100
0000
0000
0100
,  // measure 13
0000
0000
0000
0000
,  // measure 14
1001
0000
0000
0000
,  // measure 15
1001
0000
0000
0100
0000
0000
0110
0000
,  // measure 16
0110
1000
0010
0100
0001
0100
0010
0100
,  // measure 17
1001
1000
0001
0001
1000
0001
1000
1000
,  // measure 18
0100
0000
0000
0000
,  // measure 19
1001
0000
0000
0010
0000
0000
0010
0000
,  // measure 20
0100
0000
0000
0100
,  // measure 21
0000
0000
0000
0000
,  // measure 22
0010
0000
0000
0010
,  // measure 23
0110
0000
0000
0001
0000
0000
0001
0000
,  // measure 24
1001
0100
1000
0001
0010
0001
1000
0001
,  // measure 25
0110
0100
0010
0010
0100
0010
0100
0100
,  // measure 26
0000
0000
1001
0000
,  // measure 27
0110
0000
0000
1000
0000
0000
1001
0000
,  // measure 28
1001
0010
0001
1000
0100
1000
0001
1000
,  // measure 29
0110
0010
0100
0100
0010
0100
0010
0010
,  // measure 30
1001
0000
1001
0000
,  // measure 31
1001
0000
0000
0010
0000
0000
0110
0000
,  // measure 32
0110
0001
0100
0010
1000
0010
0100
0010
,  // measure 33
1001
0001
1000
1000
0001
1000
0001
0001
,  // measure 34
1001
0000
1001
0000
,  // measure 35
1001
0000
0000
0100
0000
0000
0110
0000
,  // measure 36
0110
1000
0010
0100
0001
0100
0010
0100
,  // measure 37
1001
1000
0001
0001
1000
0001
1000
1000
,  // measure 38
0010
1000
0010
0000
0010
0010
0010
0000
,  // measure 39
0010
0001
0010
0000
0010
0010
0010
0000
,  // measure 40
0110
0001
0100
0010
1000
0010
0100
0010
,  // measure 41
1001
0001
1000
1000
0001
1000
0001
0001
,  // measure 42
0010
0001
0010
0000
0010
0010
0010
0000
,  // measure 43
0010
1000
0010
0000
0010
0010
0010
0000
,  // measure 44
0110
0001
0100
0010
1000
0010
0100
0010
,  // measure 45
1001
0001
1000
1000
0001
1000
0001
0001
,  // measure 46
1000
0001
0010
0000
0010
0010
0010
0000
,  // measure 47
0010
0010
0010
0000
0010
0010
0010
0000
,  // measure 48
0110
0001
0100
0010
1000
0010
0100
0010
,  // measure 49
1001
0001
1000
1000
0001
1000
0001
0001
,  // measure 50
0110
0000
0010
0100
0001
0100
0010
0100
,  // measure 51
1001
1000
0001
0001
1000
0001
1000
1000
,  // measure 52
1001
0100
1000
0001
0010
0001
1000
0001
,  // measure 53
0110
0100
0010
0010
0100
0010
0100
0100
,  // measure 54
1001
0010
0001
1000
0100
1000
0001
1000
,  // measure 55
0110
0010
0100
0100
0010
0100
0010
0010
,  // measure 56
1001
0000
0010
0100
0010
0100
0010
0000
,  // measure 57
2001
0000
3100
0010
0001
0100
0010
0001
,  // measure 58
1000
0001
1000
0001
1000
0001
1000
0001
,  // measure 59
2000
0000
0001
0001
,  // measure 60
3002
0000
1000
1000
,  // measure 61
2003
0000
0001
0001
,  // measure 62
3002
0000
1000
1000
,  // measure 63
2003
0000
0000
0000
0001
0000
0001
3000
,  // measure 64
1001
0000
0100
0010
0100
0010
0100
0000
,  // measure 65
1002
0000
0013
0100
1000
0010
0100
1000
,  // measure 66
0001
1000
0001
1000
0001
1000
0001
1000
,  // measure 67
0002
0000
1000
1000
,  // measure 68
2003
0000
0001
0001
,  // measure 69
3002
0000
1000
1000
,  // measure 70
2003
0000
0001
0001
,  // measure 71
3002
0000
0000
0000
1000
0000
1000
0003
,  // measure 72
0110
0000
0001
1000
0001
1000
0001
0000
,  // measure 73
0120
0000
1030
0001
0100
1000
0001
0100
,  // measure 74
0010
0100
0010
0100
0010
0100
0010
0100
,  // measure 75
0010
0110
0100
0110
,  // measure 76
0110
0000
1000
0001
1000
0001
1000
0000
,  // measure 77
0210
0000
0301
1000
0010
0001
1000
0010
,  // measure 78
0100
0010
0100
0010
0100
0010
0100
0010
,  // measure 79
0100
0110
0010
0110
,  // measure 80
1001
0000
0010
0100
0010
0100
0010
0000
,  // measure 81
2001
0000
3100
0010
0001
0100
0010
0001
,  // measure 82
1000
0001
1000
0001
1000
0001
1000
0001
,  // measure 83
1001
0100
0010
0001
1001
0100
0010
0001
,  // measure 84
1001
1000
1001
0000
0010
0100
0011
0000
,  // measure 85
0110
0001
1001
0100
0010
0100
1000
0100
,  // measure 86
0110
1000
0001
0010
0001
0100
1001
0001
,  // measure 87
0110
0100
0010
0100
1001
1000
0001
1000
,  // measure 88
1001
0000
0000
0000
;

//---------------dance-single - Deluxe----------------
#NOTES:
     dance-single:
     :
     Edit:
     13:
     0.624490,0.804343,0.596104,0.119221,0.000000,550.000000,475.000000,75.000000,15.000000,0.000000,0.000000,0.624490,0.804343,0.596104,0.119221,0.000000,550.000000,475.000000,75.000000,15.000000,0.000000,0.000000:
// measure 0
0000
0000
0000
0000
,  // measure 1
0000
0000
0000
0000
,  // measure 2
0000
0000
0000
0000
,  // measure 3
0000
0000
0000
0000
,  // measure 4
0000
0000
0000
0000
,  // measure 5
0000
0000
0000
0000
,  // measure 6
0000
0000
0000
0000
,  // measure 7
1001
0000
0000
0011
0000
0000
0110
0000
,  // measure 8
0110
0001
0100
0010
1000
0010
0100
0010
,  // measure 9
1001
0001
1000
1000
0001
1000
0001
0001
,  // measure 10
0010
0000
0000
0010
,  // measure 11
0000
0000
0000
0000
,  // measure 12
0100
0000
0000
0100
,  // measure 13
0000
0000
0000
0000
,  // measure 14
1001
0000
0000
0000
,  // measure 15
1001
0000
0000
1100
0000
0000
0110
0000
,  // measure 16
0110
1000
0010
0100
0001
0100
0010
0100
,  // measure 17
1001
1000
0001
0001
1000
0001
1000
1000
,  // measure 18
0100
0000
0000
0000
,  // measure 19
1001
0000
0000
0110
0000
0000
0010
0000
,  // measure 20
0100
0000
0000
0100
,  // measure 21
0000
0000
0000
0000
,  // measure 22
0010
0000
0000
0010
,  // measure 23
0110
0000
0000
0101
0000
0000
0001
0000
,  // measure 24
1001
0100
1000
0001
0010
0001
1000
0001
,  // measure 25
0110
0100
0010
0010
0100
0010
0100
0100
,  // measure 26
0000
0000
1001
0000
,  // measure 27
0110
0000
0000
1010
0000
0000
1001
0000
,  // measure 28
1001
0010
0001
1000
0100
1000
0001
1000
,  // measure 29
0110
0010
0100
0100
0010
0100
0010
0010
,  // measure 30
1001
0010
1001
0100
,  // measure 31
1001
0000
0000
0011
0000
0000
0110
0000
,  // measure 32
0110
0001
0100
0010
1000
0010
0100
0010
,  // measure 33
1001
0001
1000
1000
0001
1000
0001
0001
,  // measure 34
1001
0100
1001
0010
,  // measure 35
1001
0000
0000
1100
0000
0000
0110
0000
,  // measure 36
0110
1000
0010
0100
0001
0100
0010
0100
,  // measure 37
1001
1000
0001
0001
1000
0001
1000
1000
,  // measure 38
0010
1000
0010
0001
0010
0010
0010
0000
,  // measure 39
0010
0001
0010
1000
0010
0010
0010
0000
,  // measure 40
0110
0001
0100
0010
1000
0010
0100
0010
,  // measure 41
1001
0001
1000
1000
0001
1000
0001
0001
,  // measure 42
0010
0001
0010
1000
0010
0010
0010
0000
,  // measure 43
0010
1000
0010
0001
0010
0010
0010
0000
,  // measure 44
0110
0001
0100
0010
1000
0010
0100
0010
,  // measure 45
1001
0001
1000
1000
0001
1000
0001
0001
,  // measure 46
1000
0001
0010
0000
0010
0010
0010
0000
,  // measure 47
0010
0010
0010
0000
0010
0010
0010
0000
,  // measure 48
0110
0001
0100
0010
1000
0010
0100
0010
,  // measure 49
1001
0001
1000
1000
0001
1000
0001
0001
,  // measure 50
0110
0000
0010
0100
0001
0100
0010
0100
,  // measure 51
1001
1000
0001
0001
1000
0001
1000
1000
,  // measure 52
1001
0100
1000
0001
0010
0001
1000
0001
,  // measure 53
0110
0100
0010
0010
0100
0010
0100
0100
,  // measure 54
1001
0010
0001
1000
0100
1000
0001
1000
,  // measure 55
0110
0010
0100
0100
0010
0100
0010
0010
,  // measure 56
1001
0000
0010
0100
0010
0100
0010
0100
,  // measure 57
2001
0010
3100
0010
0001
0100
0010
0001
,  // measure 58
1000
0001
1000
0001
1000
0001
1000
0001
,  // measure 59
2000
0001
0001
0001
,  // measure 60
3002
1000
1000
1000
,  // measure 61
2003
0001
0001
0001
,  // measure 62
3002
1000
1000
1000
,  // measure 63
2003
0000
0001
0000
0001
0000
0001
3000
,  // measure 64
1001
0000
0100
0010
0100
0010
0100
0010
,  // measure 65
1002
0100
0013
0100
1000
0010
0100
1000
,  // measure 66
0001
1000
0001
1000
0001
1000
0001
1000
,  // measure 67
0002
1000
1000
1000
,  // measure 68
2003
0001
0001
0001
,  // measure 69
3002
1000
1000
1000
,  // measure 70
2003
0001
0001
0001
,  // measure 71
3002
0000
1000
0000
1000
0000
1000
0003
,  // measure 72
0110
0000
0001
1000
0001
1000
0001
1000
,  // measure 73
0120
0001
1030
0001
0100
1000
0001
0100
,  // measure 74
0010
0100
0010
0100
0010
0100
0010
0100
,  // measure 75
0010
0110
0100
0110
,  // measure 76
0110
0000
1000
0001
1000
0001
1000
0001
,  // measure 77
0210
1000
0301
1000
0010
0001
1000
0010
,  // measure 78
0100
0010
0100
0010
0100
0010
0100
0010
,  // measure 79
0100
0110
0010
0110
,  // measure 80
1001
0000
0010
0100
0010
0100
0010
0100
,  // measure 81
2001
0010
3100
0010
0001
0100
0010
0001
,  // measure 82
1000
0001
1000
0001
1000
0001
1000
0001
,  // measure 83
1001
0100
0010
0001
1001
0100
0010
0001
,  // measure 84
1001
1000
1001
0001
0010
0100
0011
1000
,  // measure 85
0110
0001
1001
0100
0010
0100
1000
0100
,  // measure 86
0110
1000
0001
0010
0001
0100
1001
0001
,  // measure 87
0110
0100
0010
0100
1001
1000
0001
1000
,  // measure 88
1001
0000
0000
0000
;

//---------------dance-single - Enjoy----------------
#NOTES:
     dance-single:
     :
     Edit:
     1:
     0.024980,0.104914,0.023844,0.000000,0.000000,22.000000,19.000000,3.000000,0.000000,0.000000,0.000000,0.024980,0.104914,0.023844,0.000000,0.000000,22.000000,19.000000,3.000000,0.000000,0.000000,0.000000:
// measure 0
0000
0000
0000
0000
,  // measure 1
0000
0000
0000
0000
,  // measure 2
0000
0000
0000
0000
,  // measure 3
0000
0000
0000
0000
,  // measure 4
0000
0000
0000
0000
,  // measure 5
0000
0000
0000
0000
,  // measure 6
0000
0000
0000
0000
,  // measure 7
0000
0000
0000
0000
,  // measure 8
0010
0000
0000
0000
,  // measure 9
0000
0000
0000
0000
,  // measure 10
0000
0000
0000
0000
,  // measure 11
0000
0000
0000
0000
,  // measure 12
0000
0000
0000
0000
,  // measure 13
0000
0000
0000
0000
,  // measure 14
0000
0000
0000
0000
,  // measure 15
0000
0000
0000
0000
,  // measure 16
0100
0000
0000
0000
,  // measure 17
0000
0000
0000
0000
,  // measure 18
0000
0000
0000
0000
,  // measure 19
0000
0000
0000
0000
,  // measure 20
0000
0000
0000
0000
,  // measure 21
0000
0000
0000
0000
,  // measure 22
0000
0000
0000
0000
,  // measure 23
0000
0000
0000
0000
,  // measure 24
1000
0000
0000
0000
,  // measure 25
0000
0000
0000
0000
,  // measure 26
0000
0000
0000
0000
,  // measure 27
0000
0000
0000
0000
,  // measure 28
0001
0000
0000
0000
,  // measure 29
0000
0000
0000
0000
,  // measure 30
0000
0000
0000
0000
,  // measure 31
0000
0000
0000
0000
,  // measure 32
0010
0000
0000
0000
,  // measure 33
0000
0000
0000
0000
,  // measure 34
0000
0000
0000
0000
,  // measure 35
0000
0000
0000
0000
,  // measure 36
0100
0000
0000
0000
,  // measure 37
0000
0000
0000
0000
,  // measure 38
0000
0000
0000
0000
,  // measure 39
0000
0000
0000
0000
,  // measure 40
1000
0000
0000
0000
,  // measure 41
0000
0000
0000
0000
,  // measure 42
0000
0000
0000
0000
,  // measure 43
0000
0000
0000
0000
,  // measure 44
0001
0000
0000
0000
,  // measure 45
0000
0000
0000
0000
,  // measure 46
0000
0000
0000
0000
,  // measure 47
0000
0000
0000
0000
,  // measure 48
0010
0000
0000
0000
,  // measure 49
0000
0000
0000
0000
,  // measure 50
0000
0000
0000
0000
,  // measure 51
0100
0000
0000
0000
,  // measure 52
0000
0000
0000
0000
,  // measure 53
0000
0000
0000
0000
,  // measure 54
0000
0000
0000
0000
,  // measure 55
0010
0000
0000
0000
,  // measure 56
1001
0000
0000
0000
,  // measure 57
0000
0000
0000
0000
,  // measure 58
0000
0000
0000
0000
,  // measure 59
0000
0000
0000
0000
,  // measure 60
0000
0000
0000
0000
,  // measure 61
0000
0000
0000
0000
,  // measure 62
0000
0000
0000
0000
,  // measure 63
0000
0000
0000
0000
,  // measure 64
0110
0000
0000
0000
,  // measure 65
0000
0000
0000
0000
,  // measure 66
0000
0000
0000
0000
,  // measure 67
0000
0000
0000
0000
,  // measure 68
0000
0000
0000
0000
,  // measure 69
0000
0000
0000
0000
,  // measure 70
0000
0000
0000
0000
,  // measure 71
0000
0000
0000
0000
,  // measure 72
0100
0000
0000
0000
,  // measure 73
0000
0000
0000
0000
,  // measure 74
0000
0000
0000
0000
,  // measure 75
0000
0000
0000
0000
,  // measure 76
0010
0000
0000
0000
,  // measure 77
0000
0000
0000
0000
,  // measure 78
0000
0000
0000
0000
,  // measure 79
0000
0000
0000
0000
,  // measure 80
1000
0000
0000
0000
,  // measure 81
0000
0000
0000
0000
,  // measure 82
0000
0000
0000
0000
,  // measure 83
0000
0000
0000
0000
,  // measure 84
0001
0000
0000
0000
,  // measure 85
0000
0000
0000
0000
,  // measure 86
1000
0000
0000
0000
,  // measure 87
0000
0000
0000
0000
,  // measure 88
1001
0000
0000
0000
;
