#VERSION:0.83;
#TITLE:F/S;
#SUBTITLE:;
#ARTIST:Power of Nature;
#TITLETRANSLIT:;
#SUBTITLETRANSLIT:;
#ARTISTTRANSLIT:PON;
#GENRE:;
#ORIGIN:;
#CREDIT:;
#BANNER:;
#BACKGROUND:;
#PREVIEWVID:;
#JACKET:;
#CDIMAGE:;
#DISCIMAGE:;
#LYRICSPATH:;
#CDTITLE:;
#MUSIC:FS.ogg;
#OFFSET:-1.265000;
#SAMPLESTART:31.865000;
#SAMPLELENGTH:15.000000;
#SELECTABLE:YES;
#BPMS:0.000=200.000;
#STOPS:;
#DELAYS:;
#WARPS:;
#TIMESIGNATURES:0.000=4=4;
#TICKCOUNTS:0.000=4;
#COMBOS:0.000=1;
#SPEEDS:0.000=1.000=0.000=0;
#SCROLLS:0.000=1.000;
#FAKES:;
#LABELS:0.000=Song Start;
#BGCHANGES:;
#KEYSOUNDS:;
#ATTACKS:
;

//---------------dance-single - ----------------
#NOTEDATA:;
#CHARTNAME:;
#STEPSTYPE:dance-single;
#DESCRIPTION:;
#CHARTSTYLE:;
#DIFFICULTY:Easy;
#METER:1;
#RADARVALUES:1.271729,1.351915,0.756640,0.131254,1.455374,1153.000000,1055.000000,98.000000,17.000000,0.000000,0.000000,0.000000,0.000000,0.000000,1.271729,1.351915,0.756640,0.131254,1.455374,1153.000000,1055.000000,98.000000,17.000000,0.000000,0.000000,0.000000,0.000000,0.000000;
#CREDIT:;
#NOTES:
2002
0000
0000
0000
,
0000
0000
0000
0000
0000
0000
0000
3003
,
2010
0000
0000
0010
0000
0000
0010
0000
,
0000
0001
0000
0000
0001
0010
3100
0102
,
0000
0000
0100
0000
0000
0100
0000
0000
,
1000
0000
0000
1000
0100
0013
1010
0010
,
0110
0100
0101
0001
1001
1000
1001
0001
,
1001
0000
1000
0000
1001
0000
0001
0000
0001
0010
0001
0010
0100
1000
0100
1000
,
0100
0010
0100
0010
0001
0010
0001
0010
1000
0100
1000
0100
0010
0001
0010
0001
,
0010
0100
0010
0100
1000
0100
1000
0100
0011
0000
0010
0000
0000
0000
1100
0000
,
0100
0000
0101
0100
0000
1010
0010
0000
,
1100
0010
0000
0011
0100
0000
1010
0100
,
0000
0000
0101
0000
0010
0000
0000
0000
1000
0010
1000
0010
1000
0010
1000
0010
,
1000
0001
1000
0010
1000
0001
1000
0010
1100
0000
0100
0000
0000
0000
0011
0000
,
0010
0000
1010
0010
0000
0101
0100
0000
,
0011
0100
0000
1100
0010
0000
0101
0010
,
0000
0000
1010
0000
0100
0000
0000
0000
0001
0100
0001
0100
0001
0100
0001
0100
,
0001
1000
0001
0100
0001
1000
0001
0100
0020
0000
0100
0000
0000
0000
0000
0000
,
0001
0000
0000
0000
0000
0000
0130
0000
1000
0100
1000
0000
0010
0100
0010
0000
,
0100
0001
0100
0000
0010
0010
0010
0000
0200
0000
0010
0000
0000
0000
0000
0000
,
1000
0000
0000
0000
0000
0000
0310
0000
0001
0010
0001
0000
0100
0010
0100
0000
,
0010
1000
0010
0000
0100
0100
0100
0000
0002
0000
1000
0000
0000
0000
0000
0000
,
0100
0000
0000
0000
0000
0000
1003
0000
0010
1000
0010
0000
0001
1000
0001
0000
,
1000
0100
1000
0000
0001
0001
0001
0000
2000
0000
0001
0000
0000
0000
0000
0000
,
0010
0000
0000
0000
0000
0000
3001
0000
0100
0001
0100
0000
1000
0001
1000
0000
,
0001
0010
0001
0000
1000
1000
1000
0000
0110
0000
0001
0000
0010
0000
0100
0000
,
1000
0100
1000
0010
0101
0010
0001
0100
,
1000
0000
0000
0100
0000
0000
1000
0000
0100
0000
0001
0000
0100
0000
0000
0010
0000
0000
1000
0000
0000
0010
0000
0000
,
1000
0000
0001
0000
0010
0000
0001
0000
1000
0010
1000
0010
0100
0010
0100
0010
,
0001
0010
0100
1000
0100
0100
0010
0010
0110
0000
1000
0000
0100
0000
0010
0000
,
0001
0010
0001
0100
1010
0100
1000
0010
,
0001
0000
0000
0010
0000
0000
0001
0000
0010
0000
1000
0000
0010
0000
0000
0100
0000
0000
0001
0000
0000
0100
0000
0000
,
0001
0000
1000
0000
0100
0000
1000
0000
0001
0100
0001
0100
0010
0100
0010
0100
,
1000
0100
0010
0001
0010
0010
0100
0100
0001
0010
1000
0010
1000
0010
1000
0010
,
0001
0010
0100
1000
0001
0100
0010
0001
1000
0100
0001
0100
0001
0100
0001
0100
,
1000
0100
0010
0001
1000
0010
0100
1000
0100
0001
0010
0001
0010
0001
0010
0001
,
0100
0001
1000
0010
0100
1000
0001
0100
0010
1000
0100
1000
0100
1000
0100
1000
,
0010
0000
0000
1000
0000
0000
0001
0000
0000
0100
0000
0000
0010
0000
0000
0001
0000
0000
1000
0000
0000
0010
0000
0000
0100
0000
0000
0000
0100
0000
0000
0000
0100
0000
0000
0000
0100
0000
0000
0000
0100
0000
0000
0000
0100
0000
0000
0000
,
1010
0000
0000
0000
0100
0000
0000
0000
0011
0000
0000
0000
0100
0000
0000
0000
1010
0000
0000
0000
0100
0000
0000
0000
0001
0000
0000
0010
0000
0000
0001
0000
0000
0000
0000
0000
0100
0000
0000
0010
0000
0000
0100
0000
0000
0000
0000
0000
,
1000
0100
1000
0000
0001
1000
0001
1000
0011
0000
0110
0000
1100
0000
1001
0000
,
0110
1010
0101
0110
1001
1010
1001
0101
,
1001
0000
0110
0000
1000
0100
0010
0001
1000
0010
1000
0010
1000
0000
1000
0000
,
0001
0010
0100
1000
0100
0000
0010
0000
0001
0100
0001
0100
0001
0000
0001
0000
,
1000
0100
0010
0001
0010
0000
0100
0000
1010
0000
0010
0000
0011
0000
0100
0000
,
1010
0100
0101
0010
0101
0100
1100
0010
,
0101
0010
1010
0100
1010
1010
1010
1010
,
0001
0100
0001
0100
0001
0100
0001
0100
0101
0000
0101
0000
0101
0000
0101
0000
,
1000
0010
1000
0010
1000
0010
1000
0010
0101
0000
0001
0000
0000
0000
1010
0000
,
1000
0000
1100
1000
0000
0011
0001
0000
,
1010
0001
0000
0101
1000
0000
0011
1000
,
0000
0000
1100
0000
0001
0000
0000
0000
0010
0001
0010
0001
0010
0001
0010
0001
,
0010
0000
0000
0100
0000
0000
0010
0000
0000
0001
0000
0000
0010
0000
0000
0100
0000
0000
0010
0000
0000
0001
0000
0000
1000
0000
0000
0000
0100
0000
0000
0000
0010
0000
0000
0000
1000
0000
0000
0000
0001
0000
0000
0000
0010
0000
0000
0000
,
1000
0100
0010
1000
0001
0010
0100
0010
0001
0100
1000
0010
,
0001
1000
0100
0010
1000
0100
0001
0010
0100
0001
1000
0100
,
0001
0010
0100
0001
1000
0100
0010
0100
1000
0010
0001
0100
,
1000
0001
0010
0100
0001
0010
0010
1000
0001
0010
0100
0001
,
0010
1000
0001
0010
0100
0001
1000
0001
0100
1000
0010
0001
,
0100
0010
1000
0001
0010
1000
0100
0001
1000
0100
0010
1000
,
0100
0001
1000
0100
0010
1000
0001
1000
0010
0001
0100
1000
,
0010
0100
0001
1000
0100
0001
2002
0000
0000
0000
0000
0000
,
0000
0000
0000
0000
,
0000
0000
0000
3003
0210
0000
0010
0000
,
0010
0000
0000
0000
0010
0000
0000
0000
0301
0010
0001
0000
1000
0100
1000
0000
,
0010
0100
0010
0100
0010
0100
0010
0100
0011
0000
0011
0000
0011
0000
0011
0000
,
1000
0100
0010
0001
0010
0100
0010
0010
1100
0000
1100
0000
1100
0000
1100
0000
,
0001
0000
0000
0010
0000
0000
0100
0000
0000
1000
0000
0000
0100
0000
0000
0010
0000
0000
0100
0000
0000
0100
0000
0000
0010
0000
0000
0000
0100
0000
0000
0000
0010
0000
0000
0000
1000
0000
0000
0000
0001
0000
0000
0000
0100
0000
0000
0000
,
0010
0000
0000
0000
0100
0000
0000
0000
0010
0000
0000
0000
1000
0000
0000
0001
0000
0000
1000
0000
0000
0001
0000
0000
0010
0000
0000
1000
0000
0000
0010
0000
0000
0000
0000
0000
0100
0000
0000
0001
0000
0000
0100
0000
0000
0000
0000
0000
,
0010
0100
0010
0000
0100
1000
0100
0000
0101
0000
0101
0000
0101
0000
0101
0000
,
0010
1000
0001
0100
0001
1000
0001
0001
1010
0000
1010
0000
1010
0000
1010
0000
,
0100
0001
1000
0010
1000
0001
1000
1000
0001
0010
0001
0000
0100
0010
0100
0000
,
1000
0001
1000
0000
0001
0010
0001
0000
1000
0010
1000
0010
1000
0010
1000
0010
,
0100
0000
0000
0001
0000
0000
0100
0000
0000
0001
0000
0000
0100
0000
0000
0001
0000
0000
0100
0000
0000
0001
0000
0000
1100
0000
0000
0000
1000
0000
0000
0000
0100
0000
0000
0000
0010
0000
0000
0000
0001
0000
0000
0000
0010
0000
0000
0000
,
0110
0001
0010
0100
1000
0001
0011
0001
0010
0100
1000
0100
,
0110
0000
0000
0000
1000
0000
0000
0000
0100
0000
0000
0000
0010
0000
0000
0000
0001
0000
0000
0000
1000
0000
0000
0000
1000
0000
0000
0100
0000
0000
1000
0000
0000
0000
0000
0000
0010
0000
0000
0100
0000
0000
0010
0000
0000
0000
0000
0000
,
0001
1000
0001
0000
1000
0100
1000
0000
0010
1000
0010
0000
0001
1000
0001
0000
,
0100
0010
0100
0000
0010
1000
0010
0000
2010
0000
0010
0000
0010
0000
0010
0000
,
0010
0010
0010
3010
0102
0100
0100
0100
,
0100
0000
0100
0000
0100
0000
0103
0000
1000
0000
0010
0000
1000
0000
0010
0001
,
0010
0001
0010
0100
1000
0100
0010
0001
0100
0010
1000
0100
0010
1000
0100
0010
,
0001
0010
0100
1000
0010
0001
0100
0010
1000
0100
1000
0100
0010
0000
0010
0000
,
1000
0100
1000
0100
0001
0000
0010
0000
0001
0010
0001
0010
0100
0000
0100
0000
,
0001
0010
0001
0010
1000
0000
0100
0000
0010
1000
0010
1000
0001
0000
0001
0000
,
0010
1000
0010
1000
0100
0000
0001
0000
0100
0001
0100
0001
1000
0000
1000
0000
,
0100
0001
0100
0001
0010
0000
1000
0000
0001
0010
0001
0010
0100
0000
0100
0000
,
0001
0010
0001
0010
1000
0000
0100
0000
1000
0100
1000
0100
0010
0000
0010
0000
,
1000
0100
1000
0100
0001
0000
0010
0000
0100
0001
0100
0001
1000
0000
1000
0000
,
0100
0001
0100
0001
0010
0000
1000
0000
1000
0100
0001
0100
1000
0100
0001
0100
,
0001
0010
1000
0010
0001
0010
1000
0010
1000
0100
0010
0000
0001
0000
0010
0000
,
0001
0010
0100
0000
0010
0000
0100
0000
0001
0010
0100
0000
1000
0000
0100
0000
,
1000
0100
0010
0000
0100
0000
0010
0000
0010
1000
0001
0000
0100
0000
0001
0000
,
0100
0001
1000
0000
0001
0000
1000
0000
0100
0001
1000
0000
0010
0000
1000
0000
,
0010
1000
0001
0000
1000
0000
0001
0000
0021
0000
0001
0000
0001
0000
0001
0000
,
0001
0001
0001
0031
1200
1000
1000
1000
,
1000
0000
1000
0000
1000
0000
1300
0000
0001
0010
0001
0010
0100
0010
0100
0010
,
0100
1000
0100
1000
0010
0100
0010
0100
0010
0100
0010
0100
0010
0100
0010
0100
,
0010
0100
0010
0100
0010
0100
0010
0001
0200
0000
0000
0000
0010
0000
0000
0000
,
0010
0000
0000
0000
0000
0000
0000
0000
0310
1000
0010
1000
0010
0100
0010
0100
,
0001
0010
0001
0010
0100
1000
0020
0000
0000
0000
0100
0000
0000
0000
0100
0000
,
0000
0000
0130
0001
0100
0001
0100
0010
0100
0010
1000
0100
1000
0100
0010
0001
,
1000
0001
1000
0001
1000
0000
0100
0000
0001
0000
0100
0000
1000
0000
0100
0000
,
0001
0010
1000
0010
0001
0010
1000
0001
,
1000
0000
0001
1000
0001
1000
0010
1000
0010
0100
0010
0100
0010
0001
0010
0001
,
0010
0100
0010
0100
1000
0001
1000
0001
1000
0001
1000
0001
1000
0001
1000
0001
,
1001
0000
0000
0000
;

//---------------dance-single - ----------------
#NOTEDATA:;
#CHARTNAME:;
#STEPSTYPE:dance-single;
#DESCRIPTION:;
#CHARTSTYLE:;
#DIFFICULTY:Beginner;
#METER:1;
#RADARVALUES:1.232021,1.312153,0.756640,0.131254,1.324120,1117.000000,1019.000000,98.000000,17.000000,0.000000,0.000000,0.000000,0.000000,0.000000,1.232021,1.312153,0.756640,0.131254,1.324120,1117.000000,1019.000000,98.000000,17.000000,0.000000,0.000000,0.000000,0.000000,0.000000;
#CREDIT:;
#NOTES:
2002
0000
0000
0000
,
0000
0000
0000
0000
0000
0000
0000
3003
,
2010
0000
0000
0010
0000
0000
0010
0000
,
0000
0001
0000
0000
0001
0000
3100
0102
,
0000
0000
0100
0000
0000
0100
0000
0000
,
1000
0000
0000
1000
0000
0013
1010
0010
,
0110
0100
0101
0001
1001
1000
1001
0001
,
1001
0000
1000
0000
1001
0000
0001
0000
0001
0010
0001
0000
0100
1000
0100
0000
,
0100
0010
0100
0010
0001
0010
0001
0010
1000
0100
1000
0000
0010
0001
0010
0000
,
0010
0100
0010
0100
1000
0100
1000
0100
0011
0000
0010
0000
0000
0000
1100
0000
,
0100
0000
0101
0100
0000
1010
0010
0000
,
1100
0010
0000
0011
0100
0000
1010
0100
,
0000
0000
0101
0000
0010
0000
0000
0000
1000
0010
1000
0000
1000
0010
1000
0000
,
1000
0001
1000
0010
1000
0001
1000
0010
1100
0000
0100
0000
0000
0000
0011
0000
,
0010
0000
1010
0010
0000
0101
0100
0000
,
0011
0100
0000
1100
0010
0000
0101
0010
,
0000
0000
1010
0000
0100
0000
0000
0000
0001
0100
0001
0000
0001
0100
0001
0000
,
0001
1000
0001
0100
0001
1000
0001
0100
0020
0000
0100
0000
0000
0000
0000
0000
,
0001
0000
0000
0000
0000
0000
0130
0000
1000
0100
1000
0000
0010
0100
0010
0000
,
0100
0001
0100
0000
0010
0010
0010
0000
0200
0000
0010
0000
0000
0000
0000
0000
,
1000
0000
0000
0000
0000
0000
0310
0000
0001
0010
0001
0000
0100
0010
0100
0000
,
0010
1000
0010
0000
0100
0100
0100
0000
0002
0000
1000
0000
0000
0000
0000
0000
,
0100
0000
0000
0000
0000
0000
1003
0000
0010
1000
0010
0000
0001
1000
0001
0000
,
1000
0100
1000
0000
0001
0001
0001
0000
2000
0000
0001
0000
0000
0000
0000
0000
,
0010
0000
0000
0000
0000
0000
3001
0000
0100
0001
0100
0000
1000
0001
1000
0000
,
0001
0010
0001
0000
1000
1000
1000
0000
0110
0000
0001
0000
0010
0000
0100
0000
,
1000
0100
1000
0010
0101
0010
0001
0100
,
1000
0000
0000
0100
0000
0000
1000
0000
0100
0000
0001
0000
0100
0000
0000
0010
0000
0000
1000
0000
0000
0010
0000
0000
,
1000
0000
0001
0000
0010
0000
0001
0000
1000
0010
1000
0000
0100
0010
0100
0010
,
0001
0010
0100
1000
0100
0100
0010
0010
0110
0000
1000
0000
0100
0000
0010
0000
,
0001
0010
0001
0100
1010
0100
1000
0010
,
0001
0000
0000
0010
0000
0000
0001
0000
0010
0000
1000
0000
0010
0000
0000
0100
0000
0000
0001
0000
0000
0100
0000
0000
,
0001
0000
1000
0000
0100
0000
1000
0000
0001
0100
0001
0000
0010
0100
0010
0100
,
1000
0100
0010
0001
0010
0010
0100
0100
0001
0010
1000
0000
1000
0010
1000
0010
,
0001
0010
0100
1000
0001
0100
0010
0001
1000
0100
0001
0000
0001
0100
0001
0100
,
1000
0100
0010
0001
1000
0010
0100
1000
0100
0001
0010
0000
0010
0001
0010
0001
,
0100
0001
1000
0010
0100
1000
0001
0100
0010
1000
0100
0000
0100
1000
0100
1000
,
0010
0000
0000
1000
0000
0000
0001
0000
0000
0100
0000
0000
0010
0000
0000
0001
0000
0000
1000
0000
0000
0010
0000
0000
0100
0000
0000
0000
0100
0000
0000
0000
0100
0000
0000
0000
0100
0000
0000
0000
0100
0000
0000
0000
0100
0000
0000
0000
,
1010
0000
0000
0000
0100
0000
0000
0000
0011
0000
0000
0000
0100
0000
0000
0000
1010
0000
0000
0000
0100
0000
0000
0000
0001
0000
0000
0010
0000
0000
0001
0000
0000
0000
0000
0000
0100
0000
0000
0010
0000
0000
0100
0000
0000
0000
0000
0000
,
1000
0100
1000
0000
0001
1000
0001
1000
0011
0000
0110
0000
1100
0000
1001
0000
,
0110
1010
0101
0110
1001
1010
1001
0101
,
1001
0000
0110
0000
1000
0100
0010
0001
1000
0010
1000
0000
1000
0000
1000
0000
,
0001
0010
0100
1000
0100
0000
0010
0000
0001
0100
0001
0000
0001
0000
0001
0000
,
1000
0100
0010
0001
0010
0000
0100
0000
1010
0000
0010
0000
0011
0000
0100
0000
,
1010
0100
0101
0010
0101
0100
1100
0010
,
0101
0010
1010
0100
1010
1010
1010
1010
,
0001
0100
0001
0100
0001
0100
0001
0000
0101
0000
0101
0000
0101
0000
0101
0000
,
1000
0010
1000
0010
1000
0010
1000
0000
0101
0000
0001
0000
0000
0000
1010
0000
,
1000
0000
1100
1000
0000
0011
0001
0000
,
1010
0001
0000
0101
1000
0000
0011
1000
,
0000
0000
1100
0000
0001
0000
0000
0000
0010
0001
0010
0000
0010
0001
0010
0000
,
0010
0000
0000
0100
0000
0000
0010
0000
0000
0001
0000
0000
0010
0000
0000
0100
0000
0000
0010
0000
0000
0001
0000
0000
1000
0000
0000
0000
0100
0000
0000
0000
0000
0000
0000
0000
1000
0000
0000
0000
0001
0000
0000
0000
0010
0000
0000
0000
,
1000
0100
0010
1000
0001
0010
0100
0010
0001
0100
1000
0010
,
0001
1000
0100
0010
1000
0100
0001
0010
0000
0001
1000
0100
,
0001
0010
0100
0001
1000
0100
0010
0100
1000
0010
0001
0100
,
1000
0001
0010
0100
0001
0010
0010
1000
0000
0010
0100
0001
,
0010
1000
0001
0010
0100
0001
1000
0001
0100
1000
0010
0001
,
0100
0010
1000
0001
0010
1000
0100
0001
0000
0100
0010
1000
,
0100
0001
1000
0100
0010
1000
0001
1000
0010
0001
0100
1000
,
0010
0100
0001
1000
0100
0001
2002
0000
0000
0000
0000
0000
,
0000
0000
0000
0000
,
0000
0000
0000
3003
0210
0000
0010
0000
,
0010
0000
0000
0000
0010
0000
0000
0000
0301
0010
0001
0000
1000
0100
1000
0000
,
0010
0100
0010
0100
0010
0100
0010
0000
0011
0000
0011
0000
0011
0000
0011
0000
,
1000
0100
0010
0001
0010
0100
0010
0010
1100
0000
1100
0000
1100
0000
1100
0000
,
0001
0000
0000
0010
0000
0000
0100
0000
0000
1000
0000
0000
0100
0000
0000
0010
0000
0000
0100
0000
0000
0100
0000
0000
0010
0000
0000
0000
0100
0000
0000
0000
0010
0000
0000
0000
1000
0000
0000
0000
0001
0000
0000
0000
0100
0000
0000
0000
,
0010
0000
0000
0000
0100
0000
0000
0000
0010
0000
0000
0000
1000
0000
0000
0001
0000
0000
1000
0000
0000
0001
0000
0000
0010
0000
0000
1000
0000
0000
0010
0000
0000
0000
0000
0000
0100
0000
0000
0001
0000
0000
0100
0000
0000
0000
0000
0000
,
0010
0100
0010
0000
0100
1000
0100
0000
0101
0000
0101
0000
0101
0000
0101
0000
,
0010
1000
0001
0100
0001
1000
0001
0001
1010
0000
1010
0000
1010
0000
1010
0000
,
0100
0001
1000
0010
1000
0001
1000
1000
0001
0010
0001
0000
0100
0010
0100
0000
,
1000
0001
1000
0000
0001
0010
0001
0000
1000
0010
1000
0010
1000
0010
1000
0000
,
0100
0000
0000
0001
0000
0000
0100
0000
0000
0001
0000
0000
0100
0000
0000
0001
0000
0000
0100
0000
0000
0000
0000
0000
1100
0000
0000
0000
1000
0000
0000
0000
0100
0000
0000
0000
0010
0000
0000
0000
0001
0000
0000
0000
0010
0000
0000
0000
,
0110
0001
0010
0100
1000
0001
0011
0001
0010
0100
1000
0100
,
0110
0000
0000
0000
1000
0000
0000
0000
0100
0000
0000
0000
0010
0000
0000
0000
0001
0000
0000
0000
1000
0000
0000
0000
1000
0000
0000
0100
0000
0000
1000
0000
0000
0000
0000
0000
0010
0000
0000
0100
0000
0000
0010
0000
0000
0000
0000
0000
,
0001
1000
0001
0000
1000
0100
1000
0000
0010
1000
0010
0000
0001
1000
0001
0000
,
0100
0010
0100
0000
0010
1000
0010
0000
2010
0000
0010
0000
0010
0000
0010
0000
,
0010
0010
0010
3010
0102
0100
0100
0100
,
0100
0000
0100
0000
0100
0000
0103
0000
1000
0000
0010
0000
1000
0000
0010
0001
,
0010
0001
0010
0000
1000
0100
0010
0001
0100
0010
1000
0100
0010
1000
0100
0010
,
0001
0010
0100
1000
0010
0001
0100
0010
1000
0100
1000
0100
0010
0000
0010
0000
,
1000
0100
1000
0100
0001
0000
0010
0000
0001
0010
0001
0010
0100
0000
0100
0000
,
0001
0010
0001
0010
1000
0000
0100
0000
0010
1000
0010
1000
0001
0000
0001
0000
,
0010
1000
0010
1000
0100
0000
0001
0000
0100
0001
0100
0001
1000
0000
1000
0000
,
0100
0001
0100
0001
0010
0000
1000
0000
0001
0010
0001
0010
0100
0000
0100
0000
,
0001
0010
0001
0010
1000
0000
0100
0000
1000
0100
1000
0100
0010
0000
0010
0000
,
1000
0100
1000
0100
0001
0000
0010
0000
0100
0001
0100
0001
1000
0000
1000
0000
,
0100
0001
0100
0001
0010
0000
1000
0000
1000
0100
0001
0100
1000
0100
0001
0000
,
0001
0010
1000
0010
0001
0010
1000
0000
1000
0100
0010
0000
0001
0000
0010
0000
,
0001
0010
0100
0000
0010
0000
0100
0000
0001
0010
0100
0000
1000
0000
0100
0000
,
1000
0100
0010
0000
0100
0000
0010
0000
0010
1000
0001
0000
0100
0000
0001
0000
,
0100
0001
1000
0000
0001
0000
1000
0000
0100
0001
1000
0000
0010
0000
1000
0000
,
0010
1000
0001
0000
1000
0000
0001
0000
0021
0000
0001
0000
0001
0000
0001
0000
,
0001
0001
0001
0031
1200
1000
1000
1000
,
1000
0000
1000
0000
1000
0000
1300
0000
0001
0010
0001
0010
0100
0010
0100
0010
,
0100
1000
0100
1000
0010
0100
0010
0100
0010
0100
0010
0100
0010
0100
0010
0100
,
0010
0100
0010
0100
0010
0100
0010
0000
0200
0000
0000
0000
0010
0000
0000
0000
,
0010
0000
0000
0000
0000
0000
0000
0000
0310
1000
0010
0000
0010
0100
0010
0100
,
0001
0010
0001
0010
0100
1000
0020
0000
0000
0000
0100
0000
0000
0000
0100
0000
,
0000
0000
0130
0001
0100
0000
0100
0010
0100
0010
1000
0100
1000
0100
0010
0001
,
1000
0001
1000
0001
1000
0000
0100
0000
0001
0000
0100
0000
1000
0000
0100
0000
,
0001
0010
1000
0010
0001
0010
1000
0001
,
1000
0000
0001
1000
0001
1000
0010
1000
0010
0100
0010
0100
0010
0001
0010
0001
,
0010
0100
0010
0100
1000
0001
1000
0001
1000
0001
1000
0001
1000
0001
1000
0000
,
1001
0000
0000
0000
;

//---------------dance-single - ----------------
#NOTEDATA:;
#CHARTNAME:;
#STEPSTYPE:dance-single;
#DESCRIPTION:;
#CHARTSTYLE:;
#DIFFICULTY:Medium;
#METER:1;
#RADARVALUES:1.337907,1.510964,0.887894,0.131254,1.563465,1213.000000,1098.000000,115.000000,17.000000,0.000000,0.000000,0.000000,0.000000,0.000000,1.337907,1.510964,0.887894,0.131254,1.563465,1213.000000,1098.000000,115.000000,17.000000,0.000000,0.000000,0.000000,0.000000,0.000000;
#CREDIT:;
#NOTES:
2002
0000
0000
0000
,
0000
0000
0000
0000
0000
0000
0000
3003
,
2010
0000
0000
0010
0000
0000
0010
0000
,
0000
0001
0010
0000
0001
0010
3100
0102
,
0000
0000
0100
0000
0000
0100
0000
0000
,
1000
0100
0000
1000
0100
0013
1010
0010
,
0110
0100
0101
0001
1001
1000
1001
0001
,
1001
0000
1000
0000
1001
0000
0001
0000
0001
0010
0001
0010
0100
1000
0100
1000
,
0100
0000
0000
0010
0000
0000
0100
0000
0000
0010
0000
0000
0001
0000
0010
0000
0001
0000
0010
0000
0001
0000
0010
0000
1000
0000
0000
0100
0000
0000
1000
0000
0000
0100
0000
0000
0010
0000
0000
0001
0000
0000
0010
0000
0000
0001
0000
0000
,
0010
0000
0000
0100
0000
0000
0010
0000
0000
0100
0000
0000
1000
0000
0100
0000
1000
0000
0100
0000
1000
0000
0100
0000
0011
0000
0000
0000
0000
0000
0010
0000
0000
0000
0000
0000
0010
0000
0000
0000
0000
0000
1100
0000
0000
0000
0000
0000
,
0100
0100
0101
0100
0000
1010
0010
0000
,
1100
0010
0000
0011
0100
0000
1010
0100
,
0100
0000
0101
0000
0010
0000
0010
0000
1000
0010
1000
0010
1000
0010
1000
0010
,
1000
0001
1000
0010
1000
0001
1000
0010
1100
0000
0100
0000
0100
0000
0011
0000
,
0010
0010
1010
0010
0000
0101
0100
0000
,
0011
0100
0000
1100
0010
0000
0101
0010
,
0010
0000
1010
0000
0100
0000
0100
0000
0001
0100
0001
0100
0001
0100
0001
0100
,
0001
1000
0001
0100
0001
1000
0001
0100
0020
0000
0100
0000
0000
0000
0000
0000
,
0001
0000
0000
0000
0000
0000
0130
0000
1000
0100
1000
0100
0010
0100
0010
0000
,
0100
0001
0100
0000
0010
0010
0010
0000
0200
0000
0010
0000
0000
0000
0000
0000
,
1000
0000
0000
0000
0000
0000
0310
0000
0001
0010
0001
0010
0100
0010
0100
0000
,
0010
1000
0010
0000
0100
0100
0100
0000
0002
0000
1000
0000
0000
0000
0000
0000
,
0100
0000
0000
0000
0000
0000
1003
0000
0010
1000
0010
1000
0001
1000
0001
0000
,
1000
0100
1000
0000
0001
0001
0001
0000
2000
0000
0001
0000
0000
0000
0000
0000
,
0010
0000
0000
0000
0000
0000
3001
0000
0100
0001
0100
0001
1000
0001
1000
0000
,
0001
0010
0001
0000
1000
1000
1000
0000
0110
0000
0001
0000
0010
0000
0100
0000
,
1000
0100
1000
0100
1000
0000
0010
0000
0101
0000
0010
0000
0001
0000
0100
0000
,
1000
0000
0000
0100
0000
0000
1000
0000
0100
0000
0001
0000
0100
0000
0000
0010
0000
0000
1000
0000
0000
0010
0000
0000
,
1000
0000
0001
0000
0010
0000
0001
0000
1000
0010
1000
0010
0100
0010
0100
0010
,
0001
0010
0100
1000
0100
0100
0010
0010
0110
0000
1000
0000
0100
0000
0010
0000
,
0001
0010
0001
0010
0001
0000
0100
0000
1010
0000
0100
0000
1000
0000
0010
0000
,
0001
0000
0000
0010
0000
0000
0001
0000
0010
0000
1000
0000
0010
0000
0000
0100
0000
0000
0001
0000
0000
0100
0000
0000
,
0001
0000
1000
0000
0100
0000
1000
0000
0001
0100
0001
0100
0010
0100
0010
0100
,
1000
0000
0000
0100
0000
0000
0010
0000
0000
0001
0000
0000
0010
0000
0000
0010
0000
0000
0100
0000
0000
0100
0000
0000
0001
0000
0000
0010
0000
0000
1000
0000
0000
0010
0000
0000
1000
0000
0010
0000
1000
0000
0010
0000
1000
0000
0010
0000
,
0001
0000
0000
0010
0000
0000
0100
0000
0000
1000
0000
0000
0001
0000
0000
0100
0000
0000
0010
0000
0000
0001
0000
0000
1000
0000
0000
0100
0000
0000
0001
0000
0000
0100
0000
0000
0001
0000
0100
0000
0001
0000
0100
0000
0001
0000
0100
0000
,
1000
0000
0000
0100
0000
0000
0010
0000
0000
0001
0000
0000
1000
0000
0000
0010
0000
0000
0100
0000
0000
1000
0000
0000
0100
0000
0000
0001
0000
0000
0010
0000
0000
0001
0000
0000
0010
0000
0001
0000
0010
0000
0001
0000
0010
0000
0001
0000
,
0100
0000
0000
0001
0000
0000
1000
0000
0000
0010
0000
0000
0100
0000
0000
1000
0000
0000
0001
0000
0000
0100
0000
0000
0010
0000
0000
1000
0000
0000
0100
0000
0000
1000
0000
0000
0100
0000
1000
0000
0100
0000
1000
0000
0100
0000
1000
0000
,
0010
0000
0000
1000
0000
0000
0001
0000
0000
0100
0000
0000
0010
0000
0000
0001
0000
0000
1000
0000
0000
0010
0000
0000
0100
0000
0000
0000
0100
0000
0000
0000
0100
0000
0000
0000
0110
0000
0000
0000
0100
0000
0000
0000
0100
0000
0000
0000
,
1010
0000
0000
0000
0100
0000
0000
0000
0011
0000
0000
0000
0100
0000
0000
0000
1010
0000
0000
0000
0100
0000
0000
0000
0001
0000
0000
0010
0000
0000
0001
0000
0000
0000
0000
0000
0100
0000
0000
0010
0000
0000
0100
0000
0000
0000
0000
0000
,
1000
0100
1000
0000
0001
1000
0001
1000
0011
0000
0110
0000
1100
0000
1001
0000
,
0110
1010
0101
0110
1001
1010
1001
0101
,
1001
0001
0110
0000
1000
0100
0010
0001
1000
0010
1000
0010
1000
0000
1000
0000
,
0001
0010
0100
1000
0100
0000
0010
0000
0001
0100
0001
0100
0001
0000
0001
0000
,
1000
0100
0010
0001
0010
0000
0100
0000
1010
0000
0010
0000
0011
0000
0100
0000
,
1010
0100
0101
0010
0101
0100
1100
0010
,
0101
0010
1010
0100
1010
1010
1010
1010
,
0001
0100
0001
0100
0001
0100
0001
0100
0101
0000
0101
0000
0101
0000
0101
0000
,
1000
0010
1000
0010
1000
0010
1000
0010
0101
0000
0001
0000
0001
0000
1010
0000
,
1000
1000
1100
1000
0000
0011
0001
0000
,
1010
0001
0000
0101
1000
0000
0011
1000
,
1000
0000
1100
0000
0001
0000
0001
0000
0010
0001
0010
0001
0010
0001
0010
0001
,
0010
0000
0000
0100
0000
0000
0010
0000
0000
0001
0000
0000
0010
0000
0000
0100
0000
0000
0010
0000
0000
0001
0000
0000
1001
0000
0000
0000
0100
0000
0000
0000
0010
0000
0000
0000
1000
0000
0000
0000
0001
0000
0000
0000
0010
0000
0000
0000
,
1000
0100
0010
1000
0001
0010
0100
0010
0001
0100
1000
0010
,
0001
1000
0100
0010
1000
0100
1001
0010
0100
0001
1000
0100
,
0001
0010
0100
0001
1000
0100
0010
0100
1000
0010
0001
0100
,
1000
0001
0010
0100
0001
0010
0110
1000
0001
0010
0100
0001
,
0010
1000
0001
0010
0100
0001
1000
0001
0100
1000
0010
0001
,
0100
0010
1000
0001
0010
1000
0110
0001
1000
0100
0010
1000
,
0100
0001
1000
0100
0010
1000
0001
1000
0010
0001
0100
1000
,
0010
0100
0001
1000
0100
0001
2002
0000
0000
0000
0000
0000
,
0000
0000
0000
0000
,
0000
0000
0000
3003
0210
0000
0010
0000
,
0010
0000
0000
0000
0010
0000
0010
0000
0301
0010
0001
0000
1000
0100
1000
0000
,
0010
0100
0010
0100
0010
0100
0010
0100
0011
0000
0011
0000
0011
0000
0011
0000
,
1001
0100
0010
0001
0010
0100
0010
0010
1100
0000
1100
0000
1100
0000
1100
0000
,
1001
0000
0000
0010
0000
0000
0100
0000
0000
1000
0000
0000
0100
0000
0000
0010
0000
0000
0100
0000
0000
0100
0000
0000
0010
0000
0000
0000
0100
0000
0000
0000
0010
0000
0000
0000
1000
0000
0000
0000
0001
0000
0000
0000
0100
0000
0000
0000
,
0010
0000
0000
0000
0100
0000
0000
0000
0010
0000
0000
0000
1000
0000
0000
0001
0000
0000
1000
0000
0000
0001
0000
0000
0010
0000
0000
1000
0000
0000
0010
0000
0000
0000
0000
0000
0100
0000
0000
0001
0000
0000
0100
0000
0000
0000
0000
0000
,
0010
0100
0010
0000
0100
1000
0100
0000
0101
0000
0101
0000
0101
0000
0101
0000
,
0110
1000
0001
0100
0001
1000
0001
0001
1010
0000
1010
0000
1010
0000
1010
0000
,
0110
0001
1000
0010
1000
0001
1000
1000
0001
0010
0001
0000
0100
0010
0100
0000
,
1000
0001
1000
0000
0001
0010
0001
0000
1000
0010
1000
0010
1000
0010
1000
0010
,
0100
0000
0000
0001
0000
0000
0100
0000
0000
0001
0000
0000
0100
0000
0000
0001
0000
0000
0100
0000
0000
0001
0000
0000
1100
0000
0000
0000
1000
0000
0000
0000
0100
0000
0000
0000
0010
0000
0000
0000
0001
0000
0000
0000
0010
0000
0000
0000
,
0110
0001
0010
0100
1000
0001
0011
0001
0010
0100
1000
0100
,
0110
0000
0000
0000
1000
0000
0000
0000
0100
0000
0000
0000
0010
0000
0000
0000
0001
0000
0000
0000
1000
0000
0000
0000
1000
0000
0000
0100
0000
0000
1000
0000
0000
0000
0000
0000
0010
0000
0000
0100
0000
0000
0010
0000
0000
0000
0000
0000
,
0001
1000
0001
0000
1000
0100
1000
0000
0010
1000
0010
0000
0001
1000
0001
0000
,
0100
0010
0100
0000
0010
1000
0010
0000
2010
0000
0010
0000
0010
0000
0010
0000
,
0010
0010
0010
3010
0102
0100
0100
0100
,
0100
0000
0100
0000
0100
0000
0103
0000
1010
0000
0010
0000
1000
0000
0010
0001
,
0010
0001
0010
0100
1000
0100
0010
0001
0100
0010
1000
0100
0010
1000
0100
0010
,
0001
0010
0100
1000
0010
0001
0100
0010
1000
0100
1000
0100
0010
0000
0010
0000
,
1100
0100
1000
0100
0001
0000
0010
0000
0001
0010
0001
0010
0100
0000
0100
0000
,
0011
0010
0001
0010
1000
0000
0100
0000
0010
1000
0010
1000
0001
0000
0001
0000
,
1010
1000
0010
1000
0100
0000
0001
0000
0100
0001
0100
0001
1000
0000
1000
0000
,
0101
0001
0100
0001
0010
0000
1000
0000
0001
0010
0001
0010
0100
0000
0100
0000
,
0011
0010
0001
0010
1000
0000
0100
0000
1000
0100
1000
0100
0010
0000
0010
0000
,
1100
0100
1000
0100
0001
0000
0010
0000
0100
0001
0100
0001
1000
0000
1000
0000
,
0101
0001
0100
0001
0010
0000
1000
0000
1000
0100
0001
0100
1000
0100
0001
0100
,
0001
0010
1000
0010
0001
0010
1000
0010
1000
0100
0010
0000
0001
0000
0010
0000
,
0001
0010
0100
0000
0010
0100
0010
0000
0001
0010
0100
0000
1000
0000
0100
0000
,
1000
0100
0010
0000
0100
0010
0100
0000
0010
1000
0001
0000
0100
0000
0001
0000
,
0100
0001
1000
0000
0001
1000
0001
0000
0100
0001
1000
0000
0010
0000
1000
0000
,
0010
1000
0001
0000
1000
0000
0001
0000
0021
0000
0001
0000
0001
0000
0001
0000
,
0001
0001
0001
0031
1200
1000
1000
1000
,
1000
0000
1000
0000
1000
0000
1300
0000
0001
0010
0001
0010
0100
0010
0100
0010
,
0100
1000
0100
1000
0010
0100
0010
0100
0010
0100
0010
0100
0010
0100
0010
0100
,
0010
0000
0000
0100
0000
0000
0010
0000
0000
0100
0000
0000
0010
0000
0100
0000
0010
0000
0100
0000
0010
0000
0001
0000
0200
0000
0000
0000
0000
0000
0000
0000
0000
0000
0000
0000
0010
0000
0000
0000
0000
0000
0000
0000
0000
0000
0000
0000
,
0010
0000
0000
0000
0000
0000
0000
0000
0310
1000
0010
1000
0010
0100
0010
0100
,
0001
0010
0001
0010
0100
1000
0020
0000
0000
0000
0100
0000
0000
0000
0100
0000
,
0000
0000
0130
0001
0100
0001
0100
0010
0100
0010
1000
0100
1000
0100
0010
0001
,
1000
0001
1000
0001
1000
0000
0100
0000
0001
0000
0100
0000
1000
0000
0100
0000
,
0001
0010
1000
0010
0001
0010
1000
0001
,
1000
0000
0001
1000
0001
1000
0010
1000
0010
0100
0010
0100
0010
0001
0010
0001
,
0010
0000
0000
0100
0000
0000
0010
0000
0000
0100
0000
0000
1000
0000
0000
0001
0000
0000
1000
0000
0000
0001
0000
0000
1000
0000
0000
0001
0000
0000
1000
0000
0000
0001
0000
0000
1000
0000
0001
0000
1000
0000
0001
0000
1000
0000
0001
0000
,
1001
0000
0000
0000
;

//---------------dance-single - ----------------
#NOTEDATA:;
#CHARTNAME:;
#STEPSTYPE:dance-single;
#DESCRIPTION:;
#CHARTSTYLE:;
#DIFFICULTY:Hard;
#METER:1;
#RADARVALUES:1.402982,1.510964,0.988264,0.131254,1.675417,1272.000000,1144.000000,128.000000,17.000000,0.000000,0.000000,0.000000,0.000000,0.000000,1.402982,1.510964,0.988264,0.131254,1.675417,1272.000000,1144.000000,128.000000,17.000000,0.000000,0.000000,0.000000,0.000000,0.000000;
#CREDIT:;
#NOTES:
2002
0000
0000
0000
,
0000
0000
0000
0000
0000
0000
0000
3003
,
2010
0000
0000
0010
0000
0000
0010
0000
0000
0000
0000
0000
0010
0000
0000
0000
,
0000
0001
0010
0100
0001
0010
3100
0102
,
0000
0100
0000
0000
0100
0000
0000
0000
0000
0000
0100
0000
0000
0000
0000
0000
,
1000
0000
0100
0000
0010
0000
1000
0000
0100
0000
0013
0000
1010
0001
0010
0000
,
0110
0000
0100
0000
0101
1000
0001
0000
1001
0000
1000
0000
1001
0000
0001
0000
,
1001
0000
1000
0000
1001
0000
0001
0000
0001
0010
0001
0010
0100
1000
0100
1000
,
0100
0000
0000
0010
0000
0000
0100
0000
0000
0010
0000
0000
0001
0000
0010
0000
0001
0000
0010
0000
0001
0000
0010
0000
1000
0000
0000
0100
0000
0000
1000
0000
0000
0100
0000
0000
0010
0000
0000
0001
0000
0000
0010
0000
0000
0001
0000
0000
,
0010
0000
0000
0100
0000
0000
0010
0000
0000
0100
0000
0000
1000
0000
0100
0000
1000
0000
0100
0000
1000
0000
0100
0000
0011
0000
0000
0000
0000
0000
0010
0000
0000
0000
0000
0000
0010
0000
0000
0000
0000
0000
1100
0000
0000
0000
0000
0000
,
0100
0100
0101
0100
0100
1010
0010
0010
,
1100
0010
0010
0011
0100
0100
1010
0100
,
0100
0000
0101
0000
0010
0000
0010
0000
1000
0010
1000
0010
1000
0010
1000
0010
,
1000
0001
1000
0010
1000
0001
1000
0010
1100
0000
0100
0000
0100
0000
0011
0000
,
0010
0010
1010
0010
0010
0101
0100
0100
,
0011
0100
0100
1100
0010
0010
0101
0010
,
0010
0000
1010
0000
0100
0000
0100
0000
0001
0100
0001
0100
0001
0100
0001
0100
,
0001
1000
0001
0100
0001
1000
0001
0100
0020
0000
0100
0000
0000
0001
0000
0000
,
0001
0000
0000
0000
0000
0000
0130
0000
1000
0100
1000
0100
0010
0100
0010
0000
,
0100
0001
0100
0000
0010
0010
0010
0000
0200
0000
0010
0000
0000
0010
0000
0000
,
1000
0000
0000
0000
0000
0000
0310
0000
0001
0010
0001
0010
0100
0010
0100
0000
,
0010
1000
0010
0000
0100
0100
0100
0000
0002
0000
1000
0000
0000
1000
0000
0000
,
0100
0000
0000
0000
0000
0000
1003
0000
0010
1000
0010
1000
0001
1000
0001
0000
,
1000
0100
1000
0000
0001
0001
0001
0000
2000
0000
0001
0000
0000
0001
0000
0000
,
0010
0000
0000
0000
0000
0000
3001
0000
0100
0001
0100
0001
1000
0001
1000
0000
,
0001
0010
0001
0000
1000
1000
1000
0000
0110
0000
0001
0000
0010
0000
0100
0000
,
1000
0100
1000
0100
1000
0000
0010
0000
0101
0000
0010
0000
0001
0000
0100
0000
,
1000
0000
0000
0100
0000
0000
1001
0000
0100
0000
0001
0000
0100
0000
0000
0010
0000
0000
1000
0000
0000
0010
0000
0000
,
1000
0000
0001
0000
0010
0000
0001
0000
1000
0010
1000
0010
0100
0010
0100
0010
,
0001
0010
0100
1000
0100
0100
0010
0010
0110
0000
1000
0000
0100
0000
0010
0000
,
0001
0010
0001
0010
0001
0000
0100
0000
1010
0000
0100
0000
1000
0000
0010
0000
,
0001
0000
0000
0010
0000
0000
1001
0000
0010
0000
1000
0000
0010
0000
0000
0100
0000
0000
0001
0000
0000
0100
0000
0000
,
0001
0000
1000
0000
0100
0000
1000
0000
0001
0100
0001
0100
0010
0100
0010
0100
,
1000
0000
0000
0100
0000
0000
0010
0000
0000
0001
0000
0000
0010
0000
0000
0010
0000
0000
0100
0000
0000
0100
0000
0000
0001
0000
0000
0010
0000
0000
1000
0000
0000
0010
0000
0000
1000
0000
0010
0000
1000
0000
0010
0000
1000
0000
0010
0000
,
0001
0000
0000
0010
0000
0000
0100
0000
0000
1000
0000
0000
0001
0000
0000
0100
0000
0000
0010
0000
0000
0001
0000
0000
1000
0000
0000
0100
0000
0000
0001
0000
0000
0100
0000
0000
0001
0000
0100
0000
0001
0000
0100
0000
0001
0000
0100
0000
,
1000
0000
0000
0100
0000
0000
0010
0000
0000
0001
0000
0000
1000
0000
0000
0010
0000
0000
0100
0000
0000
1000
0000
0000
0100
0000
0000
0001
0000
0000
0010
0000
0000
0001
0000
0000
0010
0000
0001
0000
0010
0000
0001
0000
0010
0000
0001
0000
,
0100
0000
0000
0001
0000
0000
1000
0000
0000
0010
0000
0000
0100
0000
0000
1000
0000
0000
0001
0000
0000
0100
0000
0000
0010
0000
0000
1000
0000
0000
0100
0000
0000
1000
0000
0000
0100
0000
1000
0000
0100
0000
1000
0000
0100
0000
1000
0000
,
0010
0000
0000
1000
0000
0000
0001
0000
0000
0100
0000
0000
0010
0000
0000
0001
0000
0000
1000
0000
0000
0010
0000
0000
0100
0000
0000
0000
0100
0000
0000
0000
0100
0000
0000
0000
0110
0000
0000
0000
0100
0000
0000
0000
0100
0000
0000
0000
,
1010
0000
0000
0000
0100
0000
0000
0000
0011
0000
0000
0000
0100
0000
0000
0000
1010
0000
0000
0000
0100
0000
0000
0000
0001
0000
0000
0010
0000
0000
0001
0000
0000
0000
0000
0000
0100
0000
0000
0010
0000
0000
0100
0000
0000
0000
0000
0000
,
1000
0100
1000
0000
0001
1000
0001
1000
0011
0000
0110
0000
1100
0000
1001
0000
,
0110
1010
0101
0110
1001
1010
1001
0101
,
1001
0001
0110
0000
1000
0100
0010
0001
1000
0010
1000
0010
1000
0010
1000
0000
,
0001
0010
0100
1000
0100
0000
0010
0000
0001
0100
0001
0100
0001
0100
0001
0000
,
1000
0100
0010
0001
0010
0000
0100
0000
1010
0000
0010
0000
0011
0000
0100
0000
,
1010
0100
0101
0010
0101
0100
1100
0010
,
0101
0010
1010
0100
1010
1010
1010
1010
,
0001
0100
0001
0100
0001
0100
0001
0100
0101
0000
0101
0000
0101
0000
0101
0000
,
1000
0010
1000
0010
1000
0010
1000
0010
0101
0000
0001
0000
0001
0000
1010
0000
,
1000
1000
1100
1000
1000
0011
0001
0001
,
1010
0001
0001
0101
1000
1000
0011
1000
,
1000
0000
1100
0000
0001
0000
0001
0000
0010
0001
0010
0001
0010
0001
0010
0001
,
0010
0000
0000
0100
0000
0000
0010
0000
0000
0001
0000
0000
0010
0000
0000
0100
0000
0000
0010
0000
0000
0001
0000
0000
1001
0000
0000
0000
0100
0000
0000
0000
0010
0000
0000
0000
1000
0000
0000
0000
0001
0000
0000
0000
0010
0000
0000
0000
,
1000
0100
0010
1000
0001
0010
0110
0010
0001
0100
1000
0010
,
0001
1000
0100
0010
1000
0100
1001
0010
0100
0001
1000
0100
,
0001
0010
0100
0001
1000
0100
0110
0100
1000
0010
0001
0100
,
1000
0001
0010
0100
0001
0010
0110
1000
0001
0010
0100
0001
,
0010
1000
0001
0010
0100
0001
1001
0001
0100
1000
0010
0001
,
0100
0010
1000
0001
0010
1000
0110
0001
1000
0100
0010
1000
,
0100
0001
1000
0100
0010
1000
1001
1000
0010
0001
0100
1000
,
0010
0100
0001
1000
0100
0001
2002
0000
0000
0000
0000
0000
,
0000
0000
0000
0000
,
0000
0000
0000
3003
0210
0000
0010
0000
,
0010
0000
0010
0000
0010
0000
0010
0000
0301
0010
0001
0000
1000
0100
1000
0000
,
0010
0100
0010
0100
0010
0100
0010
0100
0011
0000
0011
0000
0011
0000
0011
0000
,
1001
0000
0100
0000
0010
0000
0001
0000
0010
0000
0100
0000
0010
0100
0010
0000
1100
0000
0000
0000
1100
0000
0000
0000
1100
0000
0000
0000
1100
0000
0000
0000
,
1001
0000
0000
0000
0000
0000
0000
0000
0000
0000
0000
0000
0010
0000
0000
0000
0000
0000
0000
0000
0000
0000
0000
0000
0100
0000
0000
0000
0000
0000
0000
0000
0000
0000
0000
0000
1000
0000
0000
0000
0000
0000
0000
0000
0000
0000
0000
0000
0100
0000
0000
0000
0000
0000
0000
0000
0000
0000
0000
0000
0010
0000
0000
0000
0000
0000
0000
0000
0000
0000
0000
0000
0100
0000
0000
0000
0000
0000
0010
0000
0000
0000
0000
0000
0100
0000
0000
0000
0000
0000
0000
0000
0000
0000
0000
0000
0010
0000
0000
0000
0000
0000
0000
0000
0000
0000
0000
0000
0000
0000
0000
0000
0100
0000
0000
0000
0000
0000
0000
0000
0000
0000
0000
0000
0000
0000
0000
0000
0010
0000
0000
0000
0000
0000
0000
0000
0000
0000
0000
0000
0000
0000
0000
0000
1000
0000
0000
0000
0000
0000
0000
0000
0000
0000
0000
0000
0000
0000
0000
0000
0001
0000
0000
0000
0000
0000
0000
0000
0000
0000
0000
0000
0000
0000
0000
0000
0100
0000
0000
0000
0000
0000
0000
0000
0000
0000
0000
0000
0000
0000
0000
0000
,
0010
0000
0000
0000
0100
0000
0000
0000
0010
0000
0000
0000
1000
0000
0000
0001
0000
0000
1000
0000
0000
0001
0000
0000
0010
0000
0000
1000
0000
0000
0010
0000
0000
0000
0000
0000
0100
0000
0000
0001
0000
0000
0100
0000
0000
0000
0000
0000
,
0010
0100
0010
0000
0100
1000
0100
0000
0101
0000
0101
0000
0101
0000
0101
0000
,
0110
0000
1000
0000
0001
0000
0100
0000
0001
0000
1000
0000
0001
1000
0001
0000
1010
0000
0000
0000
1010
0000
0000
0000
1010
0000
0000
0000
1010
0000
0000
0000
,
0110
0000
0001
0000
1000
0000
0010
0000
1000
0000
0001
0000
1000
0001
1000
0000
0001
0000
0010
0000
0001
0000
0000
0000
0100
0000
0010
0000
0100
0000
0000
0000
,
1000
0001
1000
0000
0001
0010
0001
0000
1000
0010
1000
0010
1000
0010
1000
0010
,
0100
0000
0000
0001
0000
0000
0100
0000
0000
0001
0000
0000
0100
0000
0000
0001
0000
0000
0100
0000
0000
0001
0000
0000
1100
0000
0000
0000
1000
0000
0000
0000
0100
0000
0000
0000
0010
0000
0000
0000
0001
0000
0000
0000
0010
0000
0000
0000
,
0110
0001
0010
0100
1000
0001
0011
0001
0010
0100
1000
0100
,
0110
0000
0000
0000
1000
0000
0000
0000
0100
0000
0000
0000
0010
0000
0000
0000
0001
0000
0000
0000
1000
0000
0000
0000
1001
0000
0000
0100
0000
0000
1000
0000
0000
0000
0000
0000
0010
0000
0000
0100
0000
0000
0010
0000
0000
0000
0000
0000
,
0001
1000
0001
0000
1000
0100
1000
0000
0110
1000
0010
0000
0001
1000
0001
0000
,
0100
0010
0100
0000
0010
1000
0010
0000
2010
0000
0010
0000
0010
0000
0010
0000
,
0010
0010
0010
3010
0102
0100
0100
0100
,
0100
0000
0100
0000
0100
0000
0103
0000
1010
0000
0110
0000
1000
0000
0010
0001
,
0010
0001
0010
0100
1000
0100
0010
0001
0100
0010
1000
0100
0010
1000
0100
0010
,
0001
0010
0100
1000
0010
0001
0100
0010
1000
0100
1000
0100
0010
0001
0010
0000
,
1100
0100
1000
0100
0001
0000
0010
0000
0001
0010
0001
0010
0100
1000
0100
0000
,
0011
0010
0001
0010
1000
0000
0100
0000
0010
1000
0010
1000
0001
0100
0001
0000
,
1010
1000
0010
1000
0100
0000
0001
0000
0100
0001
0100
0001
1000
0010
1000
0000
,
0101
0001
0100
0001
0010
0000
1000
0000
0001
0010
0001
0010
0100
1000
0100
0000
,
0011
0010
0001
0010
1000
0000
0100
0000
1000
0100
1000
0100
0010
0001
0010
0000
,
1100
0100
1000
0100
0001
0000
0010
0000
0100
0001
0100
0001
1000
0010
1000
0000
,
0101
0001
0100
0001
0010
0000
1000
0000
1001
0100
0001
0100
1000
0100
0001
0100
,
1001
0010
1000
0010
0001
0010
1000
0010
1000
0100
0010
0100
0001
0000
0010
0000
,
0001
0010
0100
0000
0010
0100
0010
0000
0001
0010
0100
0010
1000
0000
0100
0000
,
1000
0100
0010
0000
0100
0010
0100
0000
0010
1000
0001
1000
0100
0000
0001
0000
,
0100
0001
1000
0000
0001
1000
0001
0000
0100
0001
1000
0001
0010
0000
1000
0000
,
0010
1000
0001
0000
1000
0000
0001
0000
0021
0000
0001
0000
0001
0000
0001
0000
,
0001
0001
0001
0031
1200
1000
1000
1000
,
1000
0000
1000
0000
1000
0000
1300
0000
0001
0010
0001
0010
0100
0010
0100
0010
,
0100
1000
0100
1000
0010
0100
0010
0100
0010
0100
0010
0100
0010
0100
0010
0100
,
0010
0100
0010
0100
0010
0100
0010
0100
0010
0100
0010
0001
0200
0000
0000
0010
0000
0000
0010
0000
0000
0000
0000
0000
,
0010
0000
0000
0000
0000
0000
0000
0000
0310
1000
0010
1000
0010
0100
0010
0100
,
0001
0010
0001
0010
0100
1000
0020
0000
0100
0000
0100
0000
0000
0000
0100
0000
,
0000
0000
0130
0001
0100
0001
0100
0010
0100
0010
1000
0100
1000
0100
0010
0001
,
1000
0001
1000
0001
1001
0000
0100
0000
0001
0000
0100
0000
1000
0000
0100
0000
,
1001
0010
1000
0010
0001
0010
1000
0001
,
1000
0000
0001
1000
0001
1000
0010
1000
0010
0100
0010
0100
0010
0001
0010
0001
,
0010
0000
0000
0100
0000
0000
0010
0000
0000
0100
0000
0000
1000
0000
0000
0001
0000
0000
1000
0000
0000
0001
0000
0000
1000
0000
0001
0000
1000
0000
0001
0000
1000
0000
0001
0000
1000
0000
0001
0000
1000
0000
0001
0000
1000
0000
0001
0000
,
1001
0000
0000
0000
;

//---------------dance-single - ----------------
#NOTEDATA:;
#CHARTNAME:;
#STEPSTYPE:dance-single;
#DESCRIPTION:;
#CHARTSTYLE:;
#DIFFICULTY:Challenge;
#METER:1;
#RADARVALUES:1.422836,1.590488,0.995985,0.131254,1.737183,1290.000000,1161.000000,129.000000,17.000000,0.000000,0.000000,0.000000,0.000000,0.000000,1.422836,1.590488,0.995985,0.131254,1.737183,1290.000000,1161.000000,129.000000,17.000000,0.000000,0.000000,0.000000,0.000000,0.000000;
#CREDIT:;
#NOTES:
2002
0000
0000
0000
,
0000
0000
0000
0000
0000
0000
0000
3003
,
2010
0000
0000
0010
0000
0000
0010
0000
0000
0010
0000
0000
0010
0000
0000
0000
,
0000
0001
0010
0100
0001
0010
3100
0102
,
0000
0100
0000
0000
0100
0000
0000
0100
0000
0000
0100
0000
0000
0000
0000
0000
,
1000
0000
0100
0000
0010
0000
1000
0000
0100
0000
0013
0000
1010
0001
0010
0000
,
0110
0000
0100
0000
0101
1000
0001
0000
1001
0000
1000
0000
1001
0000
0001
0000
,
1001
0000
1000
0000
1001
0000
0001
0000
0001
0010
0001
0010
0100
1000
0100
1000
,
0100
0000
0000
0010
0000
0000
0100
0000
0000
0010
0000
0000
0001
0000
0010
0000
0001
0000
0010
0000
0001
0000
0010
0000
1000
0000
0000
0100
0000
0000
1000
0000
0000
0100
0000
0000
0010
0000
0000
0001
0000
0000
0010
0000
0000
0001
0000
0000
,
0010
0000
0000
0100
0000
0000
0010
0000
0000
0100
0000
0000
1000
0000
0100
0000
1000
0000
0100
0000
1000
0000
0100
0000
0011
0000
0000
0000
0000
0000
0010
0000
0000
0000
0000
0000
0010
0000
0000
0000
0000
0000
1100
0000
0000
0000
0000
0000
,
0100
0100
0101
0100
0100
1010
0010
0010
,
1100
0010
0010
0011
0100
0100
1010
0100
,
0100
0000
0101
0000
0010
0000
0010
0000
1000
0010
1000
0010
1000
0010
1000
0010
,
1000
0001
1000
0010
1000
0001
1000
0010
1100
0000
0100
0000
0100
0000
0011
0000
,
0010
0010
1010
0010
0010
0101
0100
0100
,
0011
0100
0100
1100
0010
0010
0101
0010
,
0010
0000
1010
0000
0100
0000
0100
0000
0001
0100
0001
0100
0001
0100
0001
0100
,
0001
1000
0001
0100
0001
1000
0001
0100
0020
0000
0100
0000
0000
0001
0000
0000
,
0001
0000
0000
0000
0000
0000
0130
0000
1000
0100
1000
0100
0010
0100
0010
0000
,
0100
0001
0100
0000
0010
0010
0010
0000
0200
0000
0010
0000
0000
0010
0000
0000
,
1000
0000
0000
0000
0000
0000
0310
0000
0001
0010
0001
0010
0100
0010
0100
0000
,
0010
1000
0010
0000
0100
0100
0100
0000
0002
0000
1000
0000
0000
1000
0000
0000
,
0100
0000
0000
0000
0000
0000
1003
0000
0010
1000
0010
1000
0001
1000
0001
0000
,
1000
0100
1000
0000
0001
0001
0001
0000
2000
0000
0001
0000
0000
0001
0000
0000
,
0010
0000
0000
0000
0000
0000
3001
0000
0100
0001
0100
0001
1000
0001
1000
0000
,
0001
0010
0001
0000
1000
1000
1000
0000
0110
0000
0001
0000
0010
0000
0100
0000
,
1000
0100
1000
0100
1000
0000
0010
0000
0101
0000
0010
0000
0001
0000
0100
0000
,
1000
0000
0000
0100
0000
0000
1001
0000
0100
0000
0001
0000
0100
0000
0000
0010
0000
0000
1000
0000
0000
0010
0000
0000
,
1000
0000
0001
0000
0010
0000
0001
0000
1000
0010
1000
0010
0100
0010
0100
0010
,
0001
0010
0100
1000
0100
0100
0010
0010
0110
0000
1000
0000
0100
0000
0010
0000
,
0001
0010
0001
0010
0001
0000
0100
0000
1010
0000
0100
0000
1000
0000
0010
0000
,
0001
0000
0000
0010
0000
0000
1001
0000
0010
0000
1000
0000
0010
0000
0000
0100
0000
0000
0001
0000
0000
0100
0000
0000
,
0001
0000
1000
0000
0100
0000
1000
0000
0001
0100
0001
0100
0010
0100
0010
0100
,
1000
0000
0000
0100
0000
0000
0010
0000
0000
0001
0000
0000
0010
0000
0000
0010
0000
0000
0100
0000
0000
0100
0000
0000
0001
0000
0000
0010
0000
0000
1000
0000
0000
0010
0000
0000
1000
0000
0010
0000
1000
0000
0010
0000
1000
0000
0010
0000
,
0001
0000
0000
0010
0000
0000
0100
0000
0000
1000
0000
0000
0001
0000
0000
0100
0000
0000
0010
0000
0000
0001
0000
0000
1000
0000
0000
0100
0000
0000
0001
0000
0000
0100
0000
0000
0001
0000
0100
0000
0001
0000
0100
0000
0001
0000
0100
0000
,
1000
0000
0000
0100
0000
0000
0010
0000
0000
0001
0000
0000
1000
0000
0000
0010
0000
0000
0100
0000
0000
1000
0000
0000
0100
0000
0000
0001
0000
0000
0010
0000
0000
0001
0000
0000
0010
0000
0001
0000
0010
0000
0001
0000
0010
0000
0001
0000
,
0100
0000
0000
0001
0000
0000
1000
0000
0000
0010
0000
0000
0100
0000
0000
1000
0000
0000
0001
0000
0000
0100
0000
0000
0010
0000
0000
1000
0000
0000
0100
0000
0000
1000
0000
0000
0100
0000
1000
0000
0100
0000
1000
0000
0100
0000
1000
0000
,
0010
0000
0000
1000
0000
0000
0001
0000
0000
0100
0000
0000
0010
0000
0000
0001
0000
0000
1000
0000
0000
0010
0000
0000
0100
0000
0000
0000
0100
0000
0000
0000
0100
0000
0000
0000
0110
0000
0000
0000
0100
0000
0000
0000
0100
0000
0000
0000
,
1010
0000
0000
0000
0100
0000
0000
0000
0011
0000
0000
0000
0100
0000
0000
0000
1010
0000
0000
0000
0100
0000
0000
0000
0001
0000
0000
0010
0000
0000
0001
0000
0000
0000
0000
0000
0100
0000
0000
0010
0000
0000
0100
0000
0000
0000
0000
0000
,
1000
0100
1000
0000
0001
1000
0001
1000
0011
0000
0110
0000
1100
0000
1001
0000
,
0110
1010
0101
0110
1001
1010
1001
0101
,
1001
0001
0110
0000
1000
0100
0010
0001
1000
0010
1000
0010
1000
0010
1000
0000
,
0001
0010
0100
1000
0100
0000
0010
0000
0001
0100
0001
0100
0001
0100
0001
0000
,
1000
0100
0010
0001
0010
0000
0100
0000
1010
0000
0010
0000
0011
0000
0100
0000
,
1010
0100
0101
0010
0101
0100
1100
0010
,
0101
0010
1010
0100
1010
1010
1010
1010
,
0001
0100
0001
0100
0001
0100
0001
0100
0101
0000
0101
0000
0101
0000
0101
0000
,
1000
0010
1000
0010
1000
0010
1000
0010
0101
0000
0001
0000
0001
0000
1010
0000
,
1000
1000
1100
1000
1000
0011
0001
0001
,
1010
0001
0001
0101
1000
1000
0011
1000
,
1000
0000
1100
0000
0001
0000
0001
0000
0010
0001
0010
0001
0010
0001
0010
0001
,
0010
0000
0000
0100
0000
0000
0010
0000
0000
0001
0000
0000
0010
0000
0000
0100
0000
0000
0010
0000
0000
0001
0000
0000
1001
0000
0000
0000
0100
0000
0000
0000
0010
0000
0000
0000
1000
0000
0000
0000
0001
0000
0000
0000
0010
0000
0000
0000
,
1000
0100
0010
1000
0001
0010
0110
0010
0001
0100
1000
0010
,
0001
1000
0100
0010
1000
0100
1001
0010
0100
0001
1000
0100
,
0001
0010
0100
0001
1000
0100
0110
0100
1000
0010
0001
0100
,
1000
0001
0010
0100
0001
0010
0110
1000
0001
0010
0100
0001
,
0010
1000
0001
0010
0100
0001
1001
0001
0100
1000
0010
0001
,
0100
0010
1000
0001
0010
1000
0110
0001
1000
0100
0010
1000
,
0100
0001
1000
0100
0010
1000
1001
1000
0010
0001
0100
1000
,
0010
0100
0001
1000
0100
0001
2002
0000
0000
0000
0000
0000
,
0000
0000
0000
0000
,
0000
0000
0000
3003
0210
0010
0010
0000
,
0010
0000
0010
0000
0010
0000
0010
0000
0301
0010
0001
0000
1000
0100
1000
0000
,
0010
0000
0000
0100
0000
0000
0010
0000
0000
0100
0000
0000
0010
0000
0100
0000
0010
0000
0100
0000
0010
0000
0100
0000
0011
0000
0000
1000
0000
0000
0011
0000
0000
0000
0000
0000
0011
0000
0000
0000
0000
0000
0011
0000
0000
0000
0000
0000
,
1001
0000
0100
0000
0010
0000
0001
0000
0010
0000
0100
0000
0010
0100
0010
0000
1100
0000
0001
0000
1100
0000
0000
0000
1100
0000
0000
0000
1100
0000
0000
0000
,
1001
0000
0000
0000
0000
0000
0000
0000
0000
0000
0000
0000
0010
0000
0000
0000
0000
0000
0000
0000
0000
0000
0000
0000
0100
0000
0000
0000
0000
0000
0000
0000
0000
0000
0000
0000
1000
0000
0000
0000
0000
0000
0000
0000
0000
0000
0000
0000
0100
0000
0000
0000
0000
0000
0000
0000
0000
0000
0000
0000
0010
0000
0000
0000
0000
0000
0000
0000
0000
0000
0000
0000
0100
0000
0000
0000
0000
0000
0010
0000
0000
0000
0000
0000
0100
0000
0000
0000
0000
0000
0000
0000
0000
0000
0000
0000
0010
0000
0000
0000
0000
0000
0000
0000
0000
0000
0000
0000
0000
0000
0000
0000
0100
0000
0000
0000
0000
0000
0000
0000
0000
0000
0000
0000
0000
0000
0000
0000
0010
0000
0000
0000
0000
0000
0000
0000
0000
0000
0000
0000
0000
0000
0000
0000
1000
0000
0000
0000
0000
0000
0000
0000
0000
0000
0000
0000
0000
0000
0000
0000
0001
0000
0000
0000
0000
0000
0000
0000
0000
0000
0000
0000
0000
0000
0000
0000
0100
0000
0000
0000
0000
0000
0000
0000
0000
0000
0000
0000
0000
0000
0000
0000
,
0010
0000
0000
0000
0100
0000
0000
0000
0010
0000
0000
0000
1000
0000
0000
0001
0000
0000
1000
0000
0000
0001
0000
0000
0010
0000
0000
1000
0000
0000
0010
0000
0000
0000
0000
0000
0100
0000
0000
0001
0000
0000
0100
0000
0000
0000
0000
0000
,
0010
0100
0010
0000
0100
1000
0100
0000
0101
0010
0101
0000
0101
0000
0101
0000
,
0110
0000
1000
0000
0001
0000
0100
0000
0001
0000
1000
0000
0001
1000
0001
0000
1010
0000
0100
0000
1010
0000
0000
0000
1010
0000
0000
0000
1010
0000
0000
0000
,
0110
0000
0001
0000
1000
0000
0010
0000
1000
0000
0001
0000
1000
0001
1000
0000
0001
0000
0010
0000
0001
0000
0000
0000
0100
0000
0010
0000
0100
0000
0000
0000
,
1000
0001
1000
0000
0001
0010
0001
0000
1000
0010
1000
0010
1000
0010
1000
0010
,
0100
0000
0000
0001
0000
0000
0100
0000
0000
0001
0000
0000
0100
0000
0000
0001
0000
0000
0100
0000
0000
0001
0000
0000
1100
0000
0000
0000
1000
0000
0000
0000
0100
0000
0000
0000
0010
0000
0000
0000
0001
0000
0000
0000
0010
0000
0000
0000
,
0110
0001
0010
0100
1000
0001
0011
0001
0010
0100
1000
0100
,
0110
0000
0000
0000
1000
0000
0000
0000
0100
0000
0000
0000
0010
0000
0000
0000
0001
0000
0000
0000
1000
0000
0000
0000
1001
0000
0000
0100
0000
0000
1000
0000
0000
0000
0000
0000
0010
0000
0000
0100
0000
0000
0010
0000
0000
0000
0000
0000
,
0001
1000
0001
0000
1000
0100
1000
0000
0110
1000
0010
0000
0001
1000
0001
0000
,
0100
0010
0100
0000
0010
1000
0010
0000
2010
0001
0010
0000
0010
0000
0010
0000
,
0010
0000
0010
0000
0010
0000
3010
0000
0102
1000
0100
0000
0100
0000
0100
0000
,
0100
0000
0100
0000
0100
0000
0103
0000
1010
0000
0110
0000
1000
0000
0010
0001
,
0010
0001
0010
0100
1000
0100
0010
0001
0100
0010
1000
0100
0010
1000
0100
0010
,
0001
0010
0100
1000
0010
0001
0100
0010
1000
0100
1000
0100
0010
0001
0010
0000
,
1100
0100
1000
0100
0001
0000
0010
0000
0001
0010
0001
0010
0100
1000
0100
0000
,
0011
0010
0001
0010
1000
0000
0100
0000
0010
1000
0010
1000
0001
0100
0001
0000
,
1010
1000
0010
1000
0100
0000
0001
0000
0100
0001
0100
0001
1000
0010
1000
0000
,
0101
0001
0100
0001
0010
0000
1000
0000
0001
0010
0001
0010
0100
1000
0100
0000
,
0011
0010
0001
0010
1000
0000
0100
0000
1000
0100
1000
0100
0010
0001
0010
0000
,
1100
0100
1000
0100
0001
0000
0010
0000
0100
0001
0100
0001
1000
0010
1000
0000
,
0101
0001
0100
0001
0010
0000
1000
0000
1001
0100
0001
0100
1000
0100
0001
0100
,
1001
0010
1000
0010
0001
0010
1000
0010
1000
0100
0010
0100
0001
0000
0010
0000
,
0001
0010
0100
0000
0010
0100
0010
0000
0001
0010
0100
0010
1000
0000
0100
0000
,
1000
0100
0010
0000
0100
0010
0100
0000
0010
1000
0001
1000
0100
0000
0001
0000
,
0100
0001
1000
0000
0001
1000
0001
0000
0100
0001
1000
0001
0010
0000
1000
0000
,
0010
1000
0001
0000
1000
0000
0001
0000
0021
0100
0001
0000
0001
0000
0001
0000
,
0001
0000
0001
0000
0001
0000
0031
0000
1200
0010
1000
0000
1000
0000
1000
0000
,
1000
0000
1000
0000
1000
0000
1300
0000
0001
0010
0001
0010
0100
0010
0100
0010
,
0100
1000
0100
1000
0010
0100
0010
0100
0010
0100
0010
0100
0010
0100
0010
0100
,
0010
0100
0010
0100
0010
0100
0010
0100
0010
0100
0010
0001
0200
0000
0000
0010
0000
0000
0010
0000
0000
0000
0000
0000
,
0010
0000
0000
0000
0000
0000
0000
0000
0000
0000
0000
0000
0000
0000
0000
0000
0000
0000
0000
0000
0000
0000
0000
0000
0310
0000
1000
0000
0010
0000
1000
0000
0010
0000
1000
0000
0010
0000
0000
0100
0000
0000
0010
0000
0000
0100
0000
0000
,
0001
0010
0001
0010
0100
1000
0020
0000
0100
0000
0100
0000
0000
0000
0100
0000
,
0000
0000
0000
0000
0000
0000
0130
0000
0001
0000
0100
0000
0001
0000
0100
0000
0001
0000
0100
0000
0000
0010
0000
0000
0100
0000
0000
0010
0000
0000
1000
0000
0000
0100
0000
0000
1000
0000
0000
0100
0000
0000
0010
0000
0000
0001
0000
0000
,
1000
0001
1000
0001
1001
0000
0100
0000
0001
0000
0100
0000
1000
0000
0100
0000
,
1001
0010
1000
0010
0001
0010
1000
0001
,
1000
0000
1001
1000
0001
1000
0010
1000
0010
0100
0010
0100
0010
0001
0010
0001
,
0010
0000
0000
0100
0000
0000
0010
0000
0000
0100
0000
0000
1000
0000
0000
0001
0000
0000
1000
0000
0000
0001
0000
0000
1000
0000
0001
0000
1000
0000
0001
0000
1000
0000
0001
0000
1000
0000
0001
0000
1000
0000
0001
0000
1000
0000
0001
0000
,
1001
0000
0000
0000
;

//---------------dance-single - Enjoy----------------
#NOTEDATA:;
#CHARTNAME:Enjoy;
#STEPSTYPE:dance-single;
#DESCRIPTION:Enjoy;
#CHARTSTYLE:;
#DIFFICULTY:Edit;
#METER:1;
#RADARVALUES:0.038604,0.119287,0.038604,0.000000,0.000000,35.000000,30.000000,5.000000,0.000000,0.000000,0.000000,0.000000,0.000000,0.000000,0.038604,0.119287,0.038604,0.000000,0.000000,35.000000,30.000000,5.000000,0.000000,0.000000,0.000000,0.000000,0.000000,0.000000;
#CREDIT:;
#NOTES:
1001
0000
0000
0000
,
0000
0000
0000
0000
,
1000
0000
0000
0000
,
0000
0000
0000
0000
0000
0000
0000
0001
,
0000
0000
0000
0000
,
0000
0000
0000
0010
,
0000
0000
0000
0000
,
0000
0000
0000
0000
,
0000
0000
0000
0000
,
0000
0000
1000
0000
,
0000
0000
0000
0000
,
0000
0000
0000
0000
,
0000
0000
0000
0000
,
0000
0000
0001
0000
,
0000
0000
0000
0000
,
0000
0000
0000
0000
,
0000
0000
0000
0000
,
0000
0000
0010
0000
,
0000
0000
0000
0000
,
0000
0000
0000
0000
,
0000
0000
0000
0000
,
0000
0000
0010
0000
,
0000
0000
0000
0000
,
0000
0000
0000
0000
,
0000
0000
0000
0000
,
0000
0000
0100
0000
,
0000
0000
0000
0000
,
0000
0000
0000
0000
,
0000
0000
0000
0000
,
0000
0000
0100
0000
,
0000
0000
0000
0000
,
0000
0000
0000
0000
,
0000
0000
0000
0000
,
0000
0000
1000
0000
,
0000
0000
0000
0000
,
0000
0000
0000
0000
,
0000
0000
0000
0000
,
0000
0000
0100
0000
,
0000
0000
0000
0000
,
0000
0000
0000
0000
,
0000
0000
0000
0000
,
0000
0000
0010
0000
,
0000
0000
0000
0000
,
0000
0000
0000
0000
,
0000
0000
0000
0000
,
0000
0000
0001
0000
,
0000
0000
0000
0000
,
0000
0000
0010
0000
,
0000
0000
0000
0000
,
0000
0000
0000
0000
,
0000
0000
0000
0000
,
0000
0000
0100
0000
,
0000
0000
0000
0000
,
0000
0000
0000
0000
,
0000
0000
0000
0000
,
0000
0000
0010
0000
,
0000
0000
0000
0000
,
0000
0000
0000
0000
,
0000
0000
0000
0000
,
0000
0000
1001
0000
,
0000
0000
0000
0000
,
0000
0000
0000
0000
,
0000
0000
0000
0000
,
0000
0000
1000
0000
,
0000
0000
0000
0000
,
0000
0000
0000
0000
,
0000
0000
0000
0000
,
0000
0000
1000
0000
,
0000
0000
0000
0000
,
0000
0000
0000
0000
,
0000
0000
0000
0000
,
0000
0000
0001
0000
,
0000
0000
0000
0000
,
0000
0000
0000
0000
,
0000
0000
0000
0000
,
0000
0000
1001
0000
,
0000
0000
0000
0000
,
0000
0000
0100
0000
,
0000
0000
0000
0000
,
0000
0000
0010
0000
,
0000
0000
0000
0000
,
0000
0000
0000
0000
,
0000
0000
0000
0000
,
0000
0000
0100
0000
,
0000
0000
0000
0000
,
0000
0000
0000
0000
,
0000
0000
0000
0000
,
0000
0000
1000
0000
,
0000
0000
0000
0000
,
0000
0000
0000
0000
,
0000
0000
0000
0000
,
0000
0000
0001
0000
,
0000
0000
0000
0000
,
0000
0000
0000
0000
,
0000
0000
0000
0000
,
0000
0000
1001
0000
,
0000
0000
0000
0000
,
0000
0000
0000
0000
,
0000
0000
0000
0000
,
0000
0010
0000
0000
,
0000
0000
0000
0000
,
0000
0000
0000
0000
,
0000
0000
0000
0000
,
1001
0000
0000
0000
;

//---------------dance-single - Casual----------------
#NOTEDATA:;
#CHARTNAME:Casual;
#STEPSTYPE:dance-single;
#DESCRIPTION:Casual;
#CHARTSTYLE:;
#DIFFICULTY:Edit;
#METER:1;
#RADARVALUES:1.202241,1.312153,0.733477,0.131254,1.262353,1090.000000,995.000000,95.000000,17.000000,0.000000,0.000000,0.000000,0.000000,0.000000,1.202241,1.312153,0.733477,0.131254,1.262353,1090.000000,995.000000,95.000000,17.000000,0.000000,0.000000,0.000000,0.000000,0.000000;
#CREDIT:;
#NOTES:
2002
0000
0000
0000
,
0000
0000
0000
0000
0000
0000
0000
3003
,
2010
0000
0000
0010
0000
0000
0010
0000
,
0000
0001
0000
0000
0001
0000
3100
0102
,
0000
0000
0100
0000
0000
0100
0000
0000
,
1000
0000
0000
1000
0000
0013
1010
0000
,
0110
0100
0101
0001
1001
1000
1001
0001
,
1001
0000
1000
0000
1001
0000
0001
0000
0001
0010
0001
0000
0100
1000
0100
0000
,
0100
0010
0100
0000
0001
0010
0001
0010
1000
0100
1000
0000
0010
0001
0010
0000
,
0010
0100
0010
0000
1000
0100
1000
0100
0011
0000
0010
0000
0000
0000
1100
0000
,
0100
0000
0101
0100
0000
1010
0010
0000
,
1100
0010
0000
0011
0100
0000
1010
0100
,
0000
0000
0101
0000
0010
0000
0000
0000
1000
0010
1000
0000
1000
0010
1000
0000
,
1000
0001
1000
0010
1000
0001
1000
0000
1100
0000
0100
0000
0000
0000
0011
0000
,
0010
0000
1010
0010
0000
0101
0100
0000
,
0011
0100
0000
1100
0010
0000
0101
0010
,
0000
0000
1010
0000
0100
0000
0000
0000
0001
0100
0001
0000
0001
0100
0001
0000
,
0001
1000
0001
0100
0001
1000
0001
0000
0020
0000
0100
0000
0000
0000
0000
0000
,
0001
0000
0000
0000
0000
0000
0130
0000
1000
0100
1000
0000
0010
0100
0010
0000
,
0100
0001
0100
0000
0010
0100
0010
0000
0200
0000
0010
0000
0000
0000
0000
0000
,
1000
0000
0000
0000
0000
0000
0310
0000
0001
0010
0001
0000
0100
0010
0100
0000
,
0010
1000
0010
0000
0100
0010
0100
0000
0002
0000
1000
0000
0000
0000
0000
0000
,
0100
0000
0000
0000
0000
0000
1003
0000
0010
1000
0010
0000
0001
1000
0001
0000
,
1000
0100
1000
0000
0001
1000
0001
0000
2000
0000
0001
0000
0000
0000
0000
0000
,
0010
0000
0000
0000
0000
0000
3001
0000
0100
0001
0100
0000
1000
0001
1000
0000
,
0001
0010
0001
0000
1000
0001
1000
0000
0110
0000
0000
0000
0010
0000
0100
0000
,
1000
0100
1000
0010
0101
0010
0001
0100
,
1000
0000
0000
0100
0000
0000
1000
0000
0100
0000
0001
0000
0100
0000
0000
0010
0000
0000
1000
0000
0000
0010
0000
0000
,
1000
0000
0001
0000
0010
0000
0001
0000
1000
0010
1000
0000
0100
0010
0100
0010
,
0001
0010
0100
1000
0100
0100
0010
0000
0110
0000
0000
0000
0100
0000
0010
0000
,
0001
0010
0001
0100
1010
0100
1000
0010
,
0001
0000
0000
0010
0000
0000
0001
0000
0010
0000
1000
0000
0010
0000
0000
0100
0000
0000
0001
0000
0000
0100
0000
0000
,
0001
0000
1000
0000
0100
0000
1000
0000
0001
0100
0001
0000
0010
0100
0010
0100
,
1000
0100
0010
0001
0010
0010
0100
0000
0001
0010
1000
0000
1000
0010
1000
0000
,
0001
0010
0100
1000
0001
0100
0010
0001
1000
0100
0001
0000
0001
0100
0001
0000
,
1000
0100
0010
0001
1000
0010
0100
1000
0100
0001
0010
0000
0010
0001
0010
0000
,
0100
0001
1000
0010
0100
1000
0001
0100
0010
1000
0100
0000
0100
1000
0100
0000
,
0010
0000
0000
1000
0000
0000
0001
0000
0000
0100
0000
0000
0010
0000
0000
0001
0000
0000
1000
0000
0000
0010
0000
0000
0100
0000
0000
0000
0100
0000
0000
0000
0010
0000
0000
0000
0100
0000
0000
0000
0100
0000
0000
0000
0100
0000
0000
0000
,
1010
0000
0000
0000
0100
0000
0000
0000
0011
0000
0000
0000
0100
0000
0000
0000
1010
0000
0000
0000
0100
0000
0000
0000
0001
0000
0000
0010
0000
0000
0001
0000
0000
0000
0000
0000
0100
0000
0000
0010
0000
0000
0100
0000
0000
0000
0000
0000
,
1000
0100
1000
0000
0001
1000
0001
1000
0011
0000
0110
0000
1100
0000
1001
0000
,
0110
1010
0101
0110
1001
1010
1001
0101
,
1001
0000
0110
0000
1000
0100
0010
0001
1000
0010
1000
0000
1000
0000
1000
0000
,
0001
0010
0100
1000
0100
0000
0010
0000
0001
0100
0001
0000
0001
0000
0001
0000
,
1000
0100
0010
0001
0010
0000
0100
0000
1010
0000
0010
0000
0011
0000
0100
0000
,
1010
0100
0101
0010
0101
0100
1100
0010
,
0101
0010
1010
0000
1010
1010
1010
1010
,
0001
0100
0001
0100
0001
0100
0001
0000
0101
0000
0101
0000
0101
0000
0101
0000
,
1000
0010
1000
0010
1000
0010
1000
0000
0101
0000
0001
0000
0000
0000
1010
0000
,
1000
0000
1100
1000
0000
0011
0001
0000
,
1010
0001
0000
0101
1000
0000
0011
1000
,
0000
0000
1100
0000
0001
0000
0000
0000
0010
0001
0010
0000
0010
0001
0010
0000
,
0010
0000
0000
0100
0000
0000
0010
0000
0000
0001
0000
0000
0010
0000
0000
0100
0000
0000
0010
0000
0000
0001
0000
0000
1000
0000
0000
0000
0100
0000
0000
0000
0000
0000
0000
0000
1000
0000
0000
0000
0001
0000
0000
0000
0000
0000
0000
0000
,
1000
0100
0010
1000
0001
0010
0100
0010
0001
0100
1000
0010
,
0001
1000
0100
0010
1000
0100
0001
0010
0000
0001
1000
0000
,
0001
0010
0100
0001
1000
0100
0010
0100
1000
0010
0001
0100
,
1000
0001
0010
0100
0001
0010
0100
1000
0000
0010
0100
0000
,
0010
1000
0001
0010
0100
0001
1000
0001
0100
1000
0010
0001
,
0100
0010
1000
0001
0010
1000
0100
0001
0000
0100
0010
0000
,
0100
0001
1000
0100
0010
1000
0001
1000
0010
0001
0100
1000
,
0010
0100
0001
1000
0100
0001
2002
0000
0000
0000
0000
0000
,
0000
0000
0000
0000
,
0000
0000
0000
3003
0210
0000
0010
0000
,
0010
0000
0000
0000
0010
0000
0000
0000
0301
0010
0001
0000
1000
0100
1000
0000
,
0010
0100
0010
0100
0010
0100
0010
0000
0011
0000
0011
0000
0011
0000
0011
0000
,
1000
0100
0010
0001
0010
0100
0010
0010
1100
0000
0100
0000
1100
0000
1100
0000
,
0001
0000
0000
0010
0000
0000
0100
0000
0000
1000
0000
0000
0100
0000
0000
0010
0000
0000
0100
0000
0000
0100
0000
0000
0010
0000
0000
0000
0100
0000
0000
0000
0010
0000
0000
0000
1000
0000
0000
0000
0001
0000
0000
0000
0100
0000
0000
0000
,
0010
0000
0000
0000
0100
0000
0000
0000
0010
0000
0000
0000
1000
0000
0000
0001
0000
0000
1000
0000
0000
0001
0000
0000
0010
0000
0000
1000
0000
0000
0010
0000
0000
0000
0000
0000
0100
0000
0000
0001
0000
0000
0100
0000
0000
0000
0000
0000
,
0010
0100
0010
0000
0100
1000
0100
0000
0101
0000
0100
0000
0101
0000
0101
0000
,
0010
1000
0001
0100
0001
1000
0001
0001
1010
0000
1010
0000
1010
0000
1010
0000
,
0100
0001
1000
0010
1000
0001
1000
1000
0001
0010
0001
0000
0100
0010
0100
0000
,
1000
0001
1000
0000
0001
0010
0001
0000
1000
0010
1000
0010
1000
0010
1000
0000
,
0100
0000
0000
0001
0000
0000
0100
0000
0000
0001
0000
0000
0100
0000
0000
0001
0000
0000
0100
0000
0000
0000
0000
0000
1100
0000
0000
0000
1000
0000
0000
0000
0100
0000
0000
0000
0010
0000
0000
0000
0001
0000
0000
0000
0010
0000
0000
0000
,
0110
0001
0010
0100
1000
0001
0010
0001
0010
0100
1000
0100
,
0110
0000
0000
0000
1000
0000
0000
0000
0100
0000
0000
0000
0010
0000
0000
0000
0001
0000
0000
0000
1000
0000
0000
0000
1000
0000
0000
0100
0000
0000
1000
0000
0000
0000
0000
0000
0010
0000
0000
0100
0000
0000
0010
0000
0000
0000
0000
0000
,
0001
1000
0001
0000
1000
0100
1000
0000
0010
1000
0010
0000
0001
1000
0001
0000
,
0100
0010
0100
0000
0010
1000
0010
0000
2010
0000
0000
0000
0010
0000
0010
0000
,
0010
0010
0010
3010
0102
0000
0100
0100
,
0100
0000
0100
0000
0100
0000
0103
0000
1000
0000
0010
0000
1000
0000
0010
0001
,
0010
0001
0010
0000
1000
0100
0010
0001
0100
0010
1000
0100
0010
1000
0100
0010
,
0001
0010
0100
1000
0010
0001
0100
0010
1000
0100
1000
0100
0010
0000
0010
0000
,
1000
0100
1000
0100
0001
0000
0010
0000
0001
0010
0001
0010
0100
0000
0100
0000
,
0001
0010
0001
0010
1000
0000
0100
0000
0010
1000
0010
1000
0001
0000
0001
0000
,
0010
1000
0010
1000
0100
0000
0001
0000
0100
0001
0100
0001
1000
0000
1000
0000
,
0100
0001
0100
0001
0010
0000
1000
0000
0001
0010
0001
0010
0100
0000
0100
0000
,
0001
0010
0001
0010
1000
0000
0100
0000
1000
0100
1000
0100
0010
0000
0010
0000
,
1000
0100
1000
0100
0001
0000
0010
0000
0100
0001
0100
0001
1000
0000
1000
0000
,
0100
0001
0100
0001
0010
0000
1000
0000
1000
0100
0001
0100
1000
0100
0001
0000
,
0001
0010
1000
0010
0001
0010
1000
0000
1000
0100
0010
0000
0001
0000
0010
0000
,
0001
0010
0100
0000
0010
0000
0100
0000
0001
0010
0100
0000
1000
0000
0100
0000
,
1000
0100
0010
0000
0100
0000
0010
0000
0010
1000
0001
0000
0100
0000
0001
0000
,
0100
0001
1000
0000
0001
0000
1000
0000
0100
0001
1000
0000
0010
0000
1000
0000
,
0010
1000
0001
0000
1000
0000
0001
0000
0021
0000
0000
0000
0001
0000
0001
0000
,
0001
0001
0001
0031
1200
0000
1000
1000
,
1000
0000
1000
0000
1000
0000
1300
0000
0001
0010
0001
0010
0100
0010
0100
0010
,
0100
1000
0100
1000
0010
0100
0010
0100
0010
0100
0010
0100
0010
0100
0010
0100
,
0010
0100
0010
0100
0010
0100
0010
0000
0200
0000
0000
0000
0010
0000
0000
0000
,
0010
0000
0000
0000
0000
0000
0000
0000
0310
1000
0010
0000
0010
0100
0010
0000
,
0001
0010
0001
0010
0100
1000
0020
0000
0000
0000
0100
0000
0000
0000
0100
0000
,
0000
0000
0130
0001
0100
0000
0100
0010
0100
0000
1000
0100
1000
0100
0010
0001
,
1000
0001
1000
0001
1000
0000
0100
0000
0001
0000
0100
0000
1000
0000
0100
0000
,
0001
0010
1000
0010
0001
0010
1000
0001
,
1000
0000
0001
1000
0001
1000
0010
1000
0010
0100
0010
0100
0010
0001
0010
0001
,
0010
0100
0010
0100
1000
0001
1000
0001
1000
0001
1000
0001
1000
0001
1000
0000
,
1001
0000
0000
0000
;

//---------------dance-single - Deluxe----------------
#NOTEDATA:;
#CHARTNAME:Deluxe;
#STEPSTYPE:dance-single;
#DESCRIPTION:Deluxe;
#CHARTSTYLE:;
#DIFFICULTY:Edit;
#METER:1;
#RADARVALUES:1.457028,1.590488,1.104077,0.131254,1.787369,1321.000000,1178.000000,143.000000,17.000000,0.000000,0.000000,0.000000,0.000000,0.000000,1.457028,1.590488,1.104077,0.131254,1.787369,1321.000000,1178.000000,143.000000,17.000000,0.000000,0.000000,0.000000,0.000000,0.000000;
#CREDIT:;
#NOTES:
// measure 0
2002
0000
0000
0000
,  // measure 1
0000
0000
0000
0000
0000
0000
0000
3003
,  // measure 2
2010
0000
0000
0010
0000
0000
0010
0000
0000
0010
0000
0000
0010
0000
0000
0000
,  // measure 3
0000
0001
0010
0100
0001
0010
3100
0102
,  // measure 4
0000
0100
0000
0000
0100
0000
0000
0100
0000
0000
0100
0000
0000
0000
0000
0000
,  // measure 5
1000
0000
0100
0000
0010
0000
1000
0000
0100
0000
0013
0000
1010
0001
0010
0000
,  // measure 6
0110
0000
0100
0000
0101
1000
0001
0000
1001
0000
1000
0000
1001
0000
0001
0000
,  // measure 7
1001
0000
1000
0000
1001
0000
0001
1000
0001
0010
0001
0010
0100
1000
0100
1000
,  // measure 8
0100
0000
0000
0010
0000
0000
0100
0000
0000
0010
0000
0000
0001
0000
0010
0000
0001
0000
0010
0000
0001
0000
0010
0000
1000
0000
0000
0100
0000
0000
1000
0000
0000
0100
0000
0000
0010
0000
0000
0001
0000
0000
0010
0000
0000
0001
0000
0000
,  // measure 9
0010
0000
0000
0100
0000
0000
0010
0000
0000
0100
0000
0000
1000
0000
0100
0000
1000
0000
0100
0000
1000
0000
0100
0000
0011
0000
0000
0000
0000
0000
0010
0000
0000
0000
0000
0000
0010
0000
0000
0000
0000
0000
1100
0000
0000
0000
0000
0000
,  // measure 10
0100
0100
0101
0100
0100
1010
0010
0010
,  // measure 11
1100
0010
0010
0011
0100
0100
1010
0100
,  // measure 12
0100
0000
0101
0000
0010
0000
0010
0000
1000
0010
1000
0010
1000
0010
1000
0010
,  // measure 13
1000
0001
1000
0010
1000
0001
1000
0010
1100
0000
0100
0000
0100
0000
0011
0000
,  // measure 14
0010
0010
1010
0010
0010
0101
0100
0100
,  // measure 15
0011
0100
0100
1100
0010
0010
0101
0010
,  // measure 16
0010
0000
1010
0000
0100
0000
0100
0000
0001
0100
0001
0100
0001
0100
0001
0100
,  // measure 17
0001
1000
0001
0100
0001
1000
0001
0100
0020
0000
0100
0000
0000
0001
0000
0000
,  // measure 18
0001
0000
0000
0000
0001
0000
0130
0000
1000
0100
1000
0100
0010
0100
0010
0000
,  // measure 19
0100
0001
0100
0000
0010
0010
0010
0000
0200
0000
0010
0000
0000
0010
0000
0000
,  // measure 20
1000
0000
0000
0000
1000
0000
0310
0000
0001
0010
0001
0010
0100
0010
0100
0000
,  // measure 21
0010
1000
0010
0000
0100
0100
0100
0000
0002
0000
1000
0000
0000
1000
0000
0000
,  // measure 22
0100
0000
0000
0000
0100
0000
1003
0000
0010
1000
0010
1000
0001
1000
0001
0000
,  // measure 23
1000
0100
1000
0000
0001
0001
0001
0000
2000
0000
0001
0000
0000
0001
0000
0000
,  // measure 24
0010
0000
0000
0000
0010
0000
3001
0000
0100
0001
0100
0001
1000
0001
1000
0000
,  // measure 25
0001
0010
0001
0000
1000
1000
1000
0000
0110
0000
0001
0000
0010
0000
0100
0000
,  // measure 26
1000
0100
1000
0100
1000
0000
0010
0000
0101
0000
0010
0000
0001
0000
0100
0000
,  // measure 27
1000
0000
0000
0100
0000
0000
1001
0000
0100
0000
0001
0000
0100
0000
0000
0010
0000
0000
1000
0000
0000
0010
0000
0000
,  // measure 28
1000
0000
0001
0000
0010
0000
0001
0000
1000
0010
1000
0010
0100
0010
0100
0010
,  // measure 29
0001
0000
0010
0000
0100
0000
1000
0000
0100
0000
0100
0000
0010
0100
0010
0000
0110
0000
0000
0000
1000
0000
0000
0000
0100
0000
0000
0000
0010
0000
0000
0000
,  // measure 30
0001
0010
0001
0010
0001
0000
0100
0000
1010
0000
0100
0000
1000
0000
0010
0000
,  // measure 31
0001
0000
0000
0010
0000
0000
1001
0000
0010
0000
1000
0000
0010
0000
0000
0100
0000
0000
0001
0000
0000
0100
0000
0000
,  // measure 32
0001
0000
1000
0000
0100
0000
1000
0000
0001
0100
0001
0100
0010
0100
0010
0100
,  // measure 33
1000
0000
0000
0000
0000
0000
0000
0000
0000
0000
0000
0000
0100
0000
0000
0000
0000
0000
0000
0000
0000
0000
0000
0000
0010
0000
0000
0000
0000
0000
0000
0000
0000
0000
0000
0000
0001
0000
0000
0000
0000
0000
0000
0000
0000
0000
0000
0000
0010
0000
0000
0000
0000
0000
0000
0000
0000
0000
0000
0000
0010
0000
0000
0000
0000
0000
0000
0000
0000
0000
0000
0000
0100
0000
0000
0000
0000
0000
0010
0000
0000
0000
0000
0000
0100
0000
0000
0000
0000
0000
0000
0000
0000
0000
0000
0000
0001
0000
0000
0000
0000
0000
0000
0000
0000
0000
0000
0000
0010
0000
0000
0000
0000
0000
0000
0000
0000
0000
0000
0000
1000
0000
0000
0000
0000
0000
0000
0000
0000
0000
0000
0000
0010
0000
0000
0000
0000
0000
0000
0000
0000
0000
0000
0000
1000
0000
0000
0000
0000
0000
0000
0000
0010
0000
0000
0000
0000
0000
0000
0000
1000
0000
0000
0000
0000
0000
0000
0000
0010
0000
0000
0000
0000
0000
0000
0000
1000
0000
0000
0000
0000
0000
0000
0000
0010
0000
0000
0000
0000
0000
0000
0000
,  // measure 34
0001
0000
0000
0010
0000
0000
0100
0000
0000
1000
0000
0000
0001
0000
0000
0100
0000
0000
0010
0000
0000
0001
0000
0000
1000
0000
0000
0100
0000
0000
0001
0000
0000
0100
0000
0000
0001
0000
0100
0000
0001
0000
0100
0000
0001
0000
0100
0000
,  // measure 35
1000
0000
0000
0100
0000
0000
0010
0000
0000
0001
0000
0000
1000
0000
0000
0010
0000
0000
0100
0000
0000
1000
0000
0000
0100
0000
0000
0001
0000
0000
0010
0000
0000
0001
0000
0000
0010
0000
0001
0000
0010
0000
0001
0000
0010
0000
0001
0000
,  // measure 36
0100
0000
0000
0001
0000
0000
1000
0000
0000
0010
0000
0000
0100
0000
0000
1000
0000
0000
0001
0000
0000
0100
0000
0000
0010
0000
0000
1000
0000
0000
0100
0000
0000
1000
0000
0000
0100
0000
1000
0000
0100
0000
1000
0000
0100
0000
1000
0000
,  // measure 37
0010
0000
0000
1000
0000
0000
0001
0000
0000
0100
0000
0000
0010
0000
0000
0001
0000
0000
1000
0000
0000
0010
0000
0000
0100
0000
0000
0000
0100
0000
0000
0000
0100
0000
0000
0000
0110
0000
0000
0000
0100
0000
0000
0000
0100
0000
0000
0000
,  // measure 38
1010
0000
0000
0000
0100
0000
0000
0000
0011
0000
0000
0000
0100
0000
0000
0000
1010
0000
0000
0000
0100
0000
0000
0000
0001
0000
0000
0010
0000
0000
0001
0000
0000
0000
0000
0000
0100
0000
0000
0010
0000
0000
0100
0000
0000
0000
0000
0000
,  // measure 39
1000
0100
1000
0000
0001
1000
0001
1000
0011
0000
0110
0000
1100
0000
1001
0000
,  // measure 40
0110
1010
0101
0110
1001
1010
1001
0101
,  // measure 41
1001
0001
0110
0000
1000
0100
0010
0001
1000
0010
1000
0010
1000
0010
1000
0010
,  // measure 42
0001
0010
0100
1000
0100
0000
0010
0000
0001
0100
0001
0100
0001
0100
0001
0100
,  // measure 43
1000
0100
0010
0001
0010
0000
0100
0000
1010
0000
0010
0000
0011
0000
0100
0000
,  // measure 44
1010
0100
0101
0010
0101
0100
1100
0010
,  // measure 45
0101
0010
1010
0100
1010
1010
1010
1010
,  // measure 46
0001
0100
0001
0100
0001
0100
0001
0100
0101
0000
0101
0000
0101
0000
0101
0000
,  // measure 47
1000
0010
1000
0010
1000
0010
1000
0010
0101
0000
0001
0000
0001
0000
1010
0000
,  // measure 48
1000
1000
1100
1000
1000
0011
0001
0001
,  // measure 49
1010
0001
0001
0101
1000
1000
0011
1000
,  // measure 50
1000
0000
1100
0000
0001
0000
0001
0000
0010
0001
0010
0001
0010
0001
0010
0001
,  // measure 51
0010
0000
0000
0100
0000
0000
0010
0000
0000
0001
0000
0000
0010
0000
0000
0100
0000
0000
0010
0000
0000
0001
0000
0000
1001
0000
0000
0000
0100
0000
0000
0000
0010
0000
0000
0000
1000
0000
0000
0000
0001
0000
0000
0000
0010
0000
0000
0000
,  // measure 52
1000
0100
0010
1000
0001
0010
0110
0010
0001
0100
1000
0010
,  // measure 53
1001
1000
0100
0010
1000
0100
1001
0010
0100
0001
1000
0100
,  // measure 54
0001
0010
0100
0001
1000
0100
0110
0100
1000
0010
0001
0100
,  // measure 55
1001
0001
0010
0100
0001
0010
0110
1000
0001
0010
0100
0001
,  // measure 56
0010
1000
0001
0010
0100
0001
1001
0001
0100
1000
0010
0001
,  // measure 57
0110
0010
1000
0001
0010
1000
0110
0001
1000
0100
0010
1000
,  // measure 58
0100
0001
1000
0100
0010
1000
1001
1000
0010
0001
0100
1000
,  // measure 59
0110
0100
0001
1000
0100
0001
2002
0000
0000
0000
0000
0000
,  // measure 60
0000
0000
0000
0000
,  // measure 61
0000
0000
0000
3003
0210
0010
0010
0000
,  // measure 62
0010
0000
0010
0000
0010
0000
0010
0000
0301
0010
0001
0010
1000
0100
1000
0100
,  // measure 63
0010
0000
0000
0100
0000
0000
0010
0000
0000
0100
0000
0000
0010
0000
0100
0000
0010
0000
0100
0000
0010
0000
0100
0000
0011
0000
0000
1000
0000
0000
0011
0000
0000
0000
0000
0000
0011
0000
0000
0000
0000
0000
0011
0000
0000
0000
0000
0000
,  // measure 64
1001
0000
0100
0000
0010
0000
0001
0000
0010
0000
0100
0000
0010
0100
0010
0000
1100
0000
0001
0000
1100
0000
0000
0000
1100
0000
0000
0000
1100
0000
0000
0000
,  // measure 65
1001
0000
0000
0000
0000
0000
0000
0000
0000
0000
0000
0000
0010
0000
0000
0000
0000
0000
0000
0000
0000
0000
0000
0000
0100
0000
0000
0000
0000
0000
0000
0000
0000
0000
0000
0000
1000
0000
0000
0000
0000
0000
0000
0000
0000
0000
0000
0000
0100
0000
0000
0000
0000
0000
0000
0000
0000
0000
0000
0000
0010
0000
0000
0000
0000
0000
0000
0000
0000
0000
0000
0000
0100
0000
0000
0000
0000
0000
0010
0000
0000
0000
0000
0000
0100
0000
0000
0000
0000
0000
0000
0000
0000
0000
0000
0000
1010
0000
0000
0000
0000
0000
0000
0000
0000
0000
0000
0000
0000
0000
0000
0000
0100
0000
0000
0000
0000
0000
0000
0000
0000
0000
0000
0000
0000
0000
0000
0000
0010
0000
0000
0000
0000
0000
0000
0000
0000
0000
0000
0000
0000
0000
0000
0000
0110
0000
0000
0000
0000
0000
0000
0000
0000
0000
0000
0000
0000
0000
0000
0000
0001
0000
0000
0000
0000
0000
0000
0000
0000
0000
0000
0000
0000
0000
0000
0000
0100
0000
0000
0000
0000
0000
0000
0000
0000
0000
0000
0000
0000
0000
0000
0000
,  // measure 66
0011
0000
0000
0000
0100
0000
0000
0000
0010
0000
0000
0000
1000
0000
0000
0001
0000
0000
1000
0000
0000
0001
0000
0000
0010
0000
0000
1000
0000
0000
0010
0000
0000
0000
0000
0000
0100
0000
0000
0001
0000
0000
0100
0000
0000
0000
0000
0000
,  // measure 67
0010
0100
0010
0000
0100
1000
0100
0000
0101
0010
0101
0000
0101
0000
0101
0000
,  // measure 68
0110
0000
1000
0000
0001
0000
0100
0000
0001
0000
1000
0000
0001
1000
0001
0000
1010
0000
0100
0000
1010
0000
0000
0000
1010
0000
0000
0000
1010
0000
0000
0000
,  // measure 69
0110
0000
0001
0000
1000
0000
0010
0000
1000
0000
0001
0000
1000
0001
1000
0000
0001
0000
0010
0000
0001
0000
0000
0000
0100
0000
0010
0000
0100
0000
0000
0000
,  // measure 70
1000
0001
1000
0000
0001
0010
0001
0000
1000
0010
1000
0010
1000
0010
1000
0010
,  // measure 71
0100
0000
0000
0001
0000
0000
0100
0000
0000
0001
0000
0000
0100
0000
0000
0001
0000
0000
0100
0000
0000
0001
0000
0000
1100
0000
0000
0000
1000
0000
0000
0000
0100
0000
0000
0000
0010
0000
0000
0000
0001
0000
0000
0000
0010
0000
0000
0000
,  // measure 72
0110
0001
0010
0100
1000
0001
0011
0001
0010
0100
1000
0100
,  // measure 73
0110
0000
0000
0000
1000
0000
0000
0000
0100
0000
0000
0000
0010
0000
0000
0000
0001
0000
0000
0000
1000
0000
0000
0000
1001
0000
0000
0100
0000
0000
1000
0000
0000
0000
0000
0000
0010
0000
0000
0100
0000
0000
0010
0000
0000
0000
0000
0000
,  // measure 74
0001
1000
0001
0000
1000
0100
1000
0000
0110
1000
0010
0000
0001
1000
0001
0000
,  // measure 75
0100
0010
0100
0000
0010
1000
0010
0000
2010
0001
0010
0000
0010
0000
0010
0000
,  // measure 76
0010
0000
0010
0000
0010
0000
3010
0000
0102
1000
0100
0000
0100
0000
0100
0000
,  // measure 77
0100
0000
0100
0000
0100
0000
0103
0000
1010
0000
0110
0000
1000
0000
0010
0001
,  // measure 78
0010
0001
0010
0100
1000
0100
0010
0001
0100
0010
1000
0100
0010
1000
0100
0010
,  // measure 79
0001
0010
0100
1000
0010
0001
0100
0010
1100
0100
1000
0100
0010
0001
0010
0000
,  // measure 80
1100
0100
1000
0100
0001
0000
0010
0000
0011
0010
0001
0010
0100
1000
0100
0000
,  // measure 81
0011
0010
0001
0010
1000
0000
0100
0000
1010
1000
0010
1000
0001
0100
0001
0000
,  // measure 82
1010
1000
0010
1000
0100
0000
0001
0000
0101
0001
0100
0001
1000
0010
1000
0000
,  // measure 83
0101
0001
0100
0001
0010
0000
1000
0000
0011
0010
0001
0010
0100
1000
0100
0000
,  // measure 84
0011
0010
0001
0010
1000
0000
0100
0000
1100
0100
1000
0100
0010
0001
0010
0000
,  // measure 85
1100
0100
1000
0100
0001
0000
0010
0000
0101
0001
0100
0001
1000
0010
1000
0000
,  // measure 86
0101
0001
0100
0001
0010
0000
1000
0000
1001
0100
0001
0100
1000
0100
0001
0100
,  // measure 87
1001
0010
1000
0010
0001
0010
1000
0010
1000
0100
0010
0100
0001
0010
0001
0000
,  // measure 88
0001
0010
0100
0000
0010
0100
0010
0000
0001
0010
0100
0010
1000
0100
1000
0000
,  // measure 89
1000
0100
0010
0000
0100
0010
0100
0000
0010
1000
0001
1000
0100
0001
0100
0000
,  // measure 90
0100
0001
1000
0000
0001
1000
0001
0000
0100
0001
1000
0001
0010
1000
0010
0000
,  // measure 91
0010
1000
0001
0000
1000
0000
0001
0000
0021
0100
0001
0000
0001
0000
0001
0000
,  // measure 92
0001
0000
0001
0000
0001
0000
0031
0000
1200
0010
1000
0000
1000
0000
1000
0000
,  // measure 93
1000
0000
1000
0000
1000
0000
1300
0000
0001
0010
0001
0010
0100
0010
0100
0010
,  // measure 94
0100
1000
0100
1000
0010
0100
0010
0100
0010
0100
0010
0100
0010
0100
0010
0100
,  // measure 95
0010
0100
0010
0100
0010
0100
0010
0100
0010
0100
0010
0001
0200
0000
0000
0010
0000
0000
0010
0000
0000
0000
0000
0000
,  // measure 96
0010
0000
0000
0000
0000
0000
0000
0000
0000
0000
0000
0000
0000
0000
0000
0000
0000
0000
0000
0000
0000
0000
0000
0000
0310
0000
1000
0000
0010
0000
1000
0000
0010
0000
1000
0000
0010
0000
0000
0100
0000
0000
0010
0000
0000
0100
0000
0000
,  // measure 97
0001
0010
0001
0010
0100
1000
0020
0000
0100
0000
0100
0000
0000
0000
0100
0000
,  // measure 98
0000
0000
0000
0000
0000
0000
0130
0000
0001
0000
0100
0000
0001
0000
0100
0000
0001
0000
0100
0000
0000
0010
0000
0000
0100
0000
0000
0010
0000
0000
1000
0000
0000
0100
0000
0000
1000
0000
0000
0100
0000
0000
0010
0000
0000
0001
0000
0000
,  // measure 99
1000
0001
1000
0001
1001
0000
0100
0000
0001
0000
0100
0000
1000
0000
0100
0000
,  // measure 100
1001
0010
1000
0010
0001
0010
1000
0001
,  // measure 101
1000
0000
1001
1000
0001
1000
0010
1000
0010
0100
0010
0100
0010
0001
0010
0001
,  // measure 102
0010
0000
0000
0100
0000
0000
0010
0000
0000
0100
0000
0000
1000
0000
0001
0000
1000
0000
0001
0000
1000
0000
0001
0000
1000
0000
0001
0000
1000
0000
0001
0000
1000
0000
0001
0000
1000
0000
0001
0000
1000
0000
0001
0000
1000
0000
0001
0000
,  // measure 103
1001
0000
0000
0000
;
