#VERSION:0.83;
#TITLE:Express Emotion;
#SUBTITLE:;
#ARTIST:REDALiCE feat.Shihori;
#TITLETRANSLIT:;
#SUBTITLETRANSLIT:;
#ARTISTTRANSLIT:;
#GENRE:J-CORE;
#ORIGIN:;
#CREDIT:;
#BANNER:;
#BACKGROUND:;
#PREVIEWVID:;
#JACKET:;
#CDIMAGE:;
#DISCIMAGE:;
#LYRICSPATH:;
#CDTITLE:;
#MUSIC:Express Emotion.ogg;
#OFFSET:-0.917000;
#SAMPLESTART:42.455463;
#SAMPLELENGTH:15.000000;
#SELECTABLE:YES;
#BPMS:0.000=182.000;
#STOPS:;
#DELAYS:;
#WARPS:;
#TIMESIGNATURES:0.000=4=4;
#TICKCOUNTS:0.000=4;
#COMBOS:0.000=1;
#SPEEDS:0.000=1.000=0.000=0;
#SCROLLS:0.000=1.000;
#FAKES:;
#LABELS:0.000=Song Start;
#BGCHANGES:;
#KEYSOUNDS:;
#ATTACKS:
;

//---------------dance-single - ----------------
#NOTEDATA:;
#CHARTNAME:;
#STEPSTYPE:dance-single;
#DESCRIPTION:;
#CHARTSTYLE:;
#DIFFICULTY:Easy;
#METER:5;
#RADARVALUES:0.205612,0.284659,0.087956,0.079960,0.000000,180.000000,169.000000,11.000000,10.000000,0.000000,0.000000,0.000000,0.000000,0.000000,0.205612,0.284659,0.087956,0.079960,0.000000,180.000000,169.000000,11.000000,10.000000,0.000000,0.000000,0.000000,0.000000,0.000000;
#CREDIT:;
#NOTES:
// measure 0
0000
0000
0000
0000
,  // measure 1
0000
0000
0000
0000
,  // measure 2
0000
0000
0000
0000
,  // measure 3
0000
0000
0000
0000
,  // measure 4
0000
0000
0000
0000
,  // measure 5
0000
0000
0000
0000
,  // measure 6
0000
0000
0000
0000
,  // measure 7
0000
0000
0000
0000
,  // measure 8
1000
0000
1000
1000
,  // measure 9
0001
0000
0001
0000
,  // measure 10
0001
0000
0001
0001
,  // measure 11
1000
0000
1000
0000
,  // measure 12
0010
0000
0010
0010
,  // measure 13
0100
0000
0100
0000
,  // measure 14
0100
0000
0100
0100
,  // measure 15
0010
0000
0010
0000
,  // measure 16
1001
0000
0000
0000
,  // measure 17
1000
0000
0001
0000
,  // measure 18
1001
0000
0000
0000
,  // measure 19
0001
0000
1000
0000
,  // measure 20
0110
0000
0000
0000
,  // measure 21
0010
0000
0100
0000
,  // measure 22
0110
0000
0000
0000
,  // measure 23
0100
0000
0010
0000
,  // measure 24
2002
0000
0000
0000
,  // measure 25
0000
0000
0000
3003
,  // measure 26
1000
0000
0100
0000
,  // measure 27
0001
0000
0100
0000
,  // measure 28
0220
0000
0000
0000
,  // measure 29
0000
0000
0000
0330
,  // measure 30
1001
0000
1001
0000
,  // measure 31
1001
0000
0000
0000
,  // measure 32
1000
0000
1000
0000
,  // measure 33
0010
0010
0010
0000
,  // measure 34
0001
0000
0001
0000
,  // measure 35
0100
0100
0100
0000
,  // measure 36
0010
0000
0010
0000
,  // measure 37
0001
0001
0001
0000
,  // measure 38
0100
0000
0100
0000
,  // measure 39
1000
1000
1000
0000
,  // measure 40
1000
0000
1000
0000
,  // measure 41
0010
0010
0010
0000
,  // measure 42
0001
0000
0001
0000
,  // measure 43
0100
0100
0100
0000
,  // measure 44
0010
0000
0010
0000
,  // measure 45
0001
0001
0001
0000
,  // measure 46
0100
0000
0010
0000
,  // measure 47
1000
0001
1000
0001
,  // measure 48
0020
0000
0000
0000
,  // measure 49
0000
0000
0000
0030
,  // measure 50
0200
0000
0000
0000
,  // measure 51
0000
0000
0000
0300
,  // measure 52
0002
0000
0000
0000
,  // measure 53
0000
0000
0000
0003
,  // measure 54
2000
0000
0000
0000
,  // measure 55
0000
0000
0000
3000
,  // measure 56
1000
0000
1000
1000
,  // measure 57
0001
0000
0001
0000
,  // measure 58
0001
0000
0001
0001
,  // measure 59
1000
0000
1000
0000
,  // measure 60
0010
0000
0010
0010
,  // measure 61
0100
0000
0100
0000
,  // measure 62
0100
0000
0100
0100
,  // measure 63
0010
0000
0010
0000
,  // measure 64
2002
0000
0000
3003
,  // measure 65
1000
0000
1000
0000
,  // measure 66
0010
0010
0010
0000
,  // measure 67
0001
0000
0001
0000
,  // measure 68
0100
0100
0100
0000
,  // measure 69
0010
0000
0010
0000
,  // measure 70
0001
0001
0001
0000
,  // measure 71
0100
0000
0100
0000
,  // measure 72
1000
1000
1000
0000
,  // measure 73
1000
0000
1000
0000
,  // measure 74
0010
0010
0010
0000
,  // measure 75
0001
0000
0001
0000
,  // measure 76
0100
0100
0100
0000
,  // measure 77
0010
0000
0010
0000
,  // measure 78
0001
0001
0001
0000
,  // measure 79
0100
0000
0010
0000
,  // measure 80
1000
0001
1000
0001
,  // measure 81
1000
0000
1000
1000
,  // measure 82
0001
0000
0001
0000
,  // measure 83
0001
0000
0001
0001
,  // measure 84
1000
0000
1000
0000
,  // measure 85
0010
0000
0010
0010
,  // measure 86
0100
0000
0100
0000
,  // measure 87
0100
0000
0100
0100
,  // measure 88
0010
0000
0010
0000
,  // measure 89
1001
0000
0000
0000
;

//---------------dance-single - ----------------
#NOTEDATA:;
#CHARTNAME:;
#STEPSTYPE:dance-single;
#DESCRIPTION:;
#CHARTSTYLE:;
#DIFFICULTY:Beginner;
#METER:5;
#RADARVALUES:0.175913,0.249076,0.087956,0.079960,0.000000,154.000000,143.000000,11.000000,10.000000,0.000000,0.000000,0.000000,0.000000,0.000000,0.175913,0.249076,0.087956,0.079960,0.000000,154.000000,143.000000,11.000000,10.000000,0.000000,0.000000,0.000000,0.000000,0.000000;
#CREDIT:;
#NOTES:
// measure 0
0000
0000
0000
0000
,  // measure 1
0000
0000
0000
0000
,  // measure 2
0000
0000
0000
0000
,  // measure 3
0000
0000
0000
0000
,  // measure 4
0000
0000
0000
0000
,  // measure 5
0000
0000
0000
0000
,  // measure 6
0000
0000
0000
0000
,  // measure 7
0000
0000
0000
0000
,  // measure 8
1000
0000
1000
0000
,  // measure 9
0001
0000
0001
0000
,  // measure 10
0001
0000
0001
0000
,  // measure 11
1000
0000
1000
0000
,  // measure 12
0010
0000
0010
0000
,  // measure 13
0100
0000
0100
0000
,  // measure 14
0100
0000
0100
0000
,  // measure 15
0010
0000
0010
0000
,  // measure 16
1001
0000
0000
0000
,  // measure 17
1000
0000
0001
0000
,  // measure 18
1001
0000
0000
0000
,  // measure 19
0001
0000
1000
0000
,  // measure 20
0110
0000
0000
0000
,  // measure 21
0010
0000
0100
0000
,  // measure 22
0110
0000
0000
0000
,  // measure 23
0100
0000
0010
0000
,  // measure 24
2002
0000
0000
0000
,  // measure 25
0000
0000
0000
3003
,  // measure 26
1000
0000
0100
0000
,  // measure 27
0001
0000
0100
0000
,  // measure 28
0220
0000
0000
0000
,  // measure 29
0000
0000
0000
0330
,  // measure 30
1001
0000
1001
0000
,  // measure 31
1001
0000
0000
0000
,  // measure 32
1000
0000
1000
0000
,  // measure 33
0010
0000
0010
0000
,  // measure 34
0001
0000
0001
0000
,  // measure 35
0100
0000
0100
0000
,  // measure 36
0010
0000
0010
0000
,  // measure 37
0001
0000
0001
0000
,  // measure 38
0100
0000
0100
0000
,  // measure 39
1000
0000
1000
0000
,  // measure 40
1000
0000
1000
0000
,  // measure 41
0010
0000
0010
0000
,  // measure 42
0001
0000
0001
0000
,  // measure 43
0100
0000
0100
0000
,  // measure 44
0010
0000
0010
0000
,  // measure 45
0001
0000
0001
0000
,  // measure 46
0100
0000
0010
0000
,  // measure 47
1000
0001
1000
0001
,  // measure 48
0020
0000
0000
0000
,  // measure 49
0000
0000
0000
0030
,  // measure 50
0200
0000
0000
0000
,  // measure 51
0000
0000
0000
0300
,  // measure 52
0002
0000
0000
0000
,  // measure 53
0000
0000
0000
0003
,  // measure 54
2000
0000
0000
0000
,  // measure 55
0000
0000
0000
3000
,  // measure 56
1000
0000
1000
0000
,  // measure 57
0001
0000
0001
0000
,  // measure 58
0001
0000
0001
0000
,  // measure 59
1000
0000
1000
0000
,  // measure 60
0010
0000
0010
0000
,  // measure 61
0100
0000
0100
0000
,  // measure 62
0100
0000
0100
0000
,  // measure 63
0010
0000
0010
0000
,  // measure 64
2002
0000
0000
3003
,  // measure 65
1000
0000
1000
0000
,  // measure 66
0010
0000
0010
0000
,  // measure 67
0001
0000
0001
0000
,  // measure 68
0100
0000
0100
0000
,  // measure 69
0010
0000
0010
0000
,  // measure 70
0001
0000
0001
0000
,  // measure 71
0100
0000
0100
0000
,  // measure 72
1000
0000
1000
0000
,  // measure 73
1000
0000
1000
0000
,  // measure 74
0010
0000
0010
0000
,  // measure 75
0001
0000
0001
0000
,  // measure 76
0100
0000
0100
0000
,  // measure 77
0010
0000
0010
0000
,  // measure 78
0001
0000
0001
0000
,  // measure 79
0100
0000
0010
0000
,  // measure 80
1000
0001
1000
0001
,  // measure 81
1000
0000
1000
0000
,  // measure 82
0001
0000
0001
0000
,  // measure 83
0001
0000
0001
0000
,  // measure 84
1000
0000
1000
0000
,  // measure 85
0010
0000
0010
0000
,  // measure 86
0100
0000
0100
0000
,  // measure 87
0100
0000
0100
0000
,  // measure 88
0010
0000
0010
0000
,  // measure 89
0110
0000
0000
0000
;

//---------------dance-single - ----------------
#NOTEDATA:;
#CHARTNAME:;
#STEPSTYPE:dance-single;
#DESCRIPTION:;
#CHARTSTYLE:;
#DIFFICULTY:Medium;
#METER:6;
#RADARVALUES:0.242166,0.284659,0.087956,0.079960,0.000000,212.000000,201.000000,11.000000,10.000000,0.000000,0.000000,0.000000,0.000000,0.000000,0.242166,0.284659,0.087956,0.079960,0.000000,212.000000,201.000000,11.000000,10.000000,0.000000,0.000000,0.000000,0.000000,0.000000;
#CREDIT:;
#NOTES:
// measure 0
0000
0000
0000
0000
,  // measure 1
0000
0000
0000
0000
,  // measure 2
0000
0000
0000
0000
,  // measure 3
0000
0000
0000
0000
,  // measure 4
0000
0000
0000
0000
,  // measure 5
0000
0000
0000
0000
,  // measure 6
0000
0000
0000
0000
,  // measure 7
0000
0000
0000
0000
,  // measure 8
1000
0000
1000
1000
,  // measure 9
0001
0000
0001
1000
,  // measure 10
0001
0000
0001
0001
,  // measure 11
1000
0000
1000
0001
,  // measure 12
0010
0000
0010
0010
,  // measure 13
0100
0000
0100
0010
,  // measure 14
0100
0000
0100
0100
,  // measure 15
0010
0000
0010
0100
,  // measure 16
1001
0000
0001
0000
,  // measure 17
1000
0000
0001
0000
,  // measure 18
1001
0000
1000
0000
,  // measure 19
0001
0000
1000
0000
,  // measure 20
0110
0000
0100
0000
,  // measure 21
0010
0000
0100
0000
,  // measure 22
0110
0000
0010
0000
,  // measure 23
0100
0000
0010
0000
,  // measure 24
2002
0000
0000
0000
,  // measure 25
0000
0000
0000
3003
,  // measure 26
1000
0000
0100
0000
,  // measure 27
0001
0000
0100
0000
,  // measure 28
0220
0000
0000
0000
,  // measure 29
0000
0000
0000
0330
,  // measure 30
1001
0000
1001
0000
,  // measure 31
1001
0000
0000
0000
,  // measure 32
1000
0001
1000
0000
,  // measure 33
0010
0010
0010
0000
,  // measure 34
0001
1000
0001
0000
,  // measure 35
0100
0100
0100
0000
,  // measure 36
0010
0100
0010
0000
,  // measure 37
0001
0001
0001
0000
,  // measure 38
0100
0010
0100
0000
,  // measure 39
1000
1000
1000
0000
,  // measure 40
1000
0001
1000
0000
,  // measure 41
0010
0010
0010
0000
,  // measure 42
0001
1000
0001
0000
,  // measure 43
0100
0100
0100
0000
,  // measure 44
0010
0100
0010
0000
,  // measure 45
0001
0001
0001
0000
,  // measure 46
0100
0000
0100
0010
,  // measure 47
1000
0001
1000
0001
,  // measure 48
0020
0000
0000
0000
,  // measure 49
0000
0000
0000
0030
,  // measure 50
0200
0000
0000
0000
,  // measure 51
0000
0000
0000
0300
,  // measure 52
0002
0000
0000
0000
,  // measure 53
0000
0000
0000
0003
,  // measure 54
2000
0000
0000
0000
,  // measure 55
0000
0000
0000
3000
,  // measure 56
1000
0000
1000
1000
,  // measure 57
0001
0000
0001
1000
,  // measure 58
0001
0000
0001
0001
,  // measure 59
1000
0000
1000
0001
,  // measure 60
0010
0000
0010
0010
,  // measure 61
0100
0000
0100
0010
,  // measure 62
0100
0000
0100
0100
,  // measure 63
0010
0000
0010
0100
,  // measure 64
2002
0000
0000
3003
,  // measure 65
1000
0001
1000
0000
,  // measure 66
0010
0010
0010
0000
,  // measure 67
0001
1000
0001
0000
,  // measure 68
0100
0100
0100
0000
,  // measure 69
0010
0100
0010
0000
,  // measure 70
0001
0001
0001
0000
,  // measure 71
0100
0010
0100
0000
,  // measure 72
1000
1000
1000
0000
,  // measure 73
1000
0001
1000
0000
,  // measure 74
0010
0010
0010
0000
,  // measure 75
0001
1000
0001
0000
,  // measure 76
0100
0100
0100
0000
,  // measure 77
0010
0100
0010
0000
,  // measure 78
0001
0001
0001
0000
,  // measure 79
0100
0000
0100
0010
,  // measure 80
1000
0001
1000
0001
,  // measure 81
1000
0000
1000
1000
,  // measure 82
0001
0000
0001
1000
,  // measure 83
0001
0000
0001
0001
,  // measure 84
1000
0000
1000
0001
,  // measure 85
0010
0000
0010
0010
,  // measure 86
0100
0000
0100
0010
,  // measure 87
0100
0000
0100
0100
,  // measure 88
0010
0000
0010
0100
,  // measure 89
1001
0000
0000
0000
;

//---------------dance-single - ----------------
#NOTEDATA:;
#CHARTNAME:;
#STEPSTYPE:dance-single;
#DESCRIPTION:;
#CHARTSTYLE:;
#DIFFICULTY:Hard;
#METER:7;
#RADARVALUES:0.277577,0.355824,0.143929,0.095952,0.000000,243.000000,225.000000,18.000000,12.000000,0.000000,0.000000,0.000000,0.000000,0.000000,0.277577,0.355824,0.143929,0.095952,0.000000,243.000000,225.000000,18.000000,12.000000,0.000000,0.000000,0.000000,0.000000,0.000000;
#CREDIT:;
#NOTES:
// measure 0
0000
0000
0000
0000
,  // measure 1
0000
0000
0000
0000
,  // measure 2
0000
0000
0000
0000
,  // measure 3
0000
0000
0000
0000
,  // measure 4
0000
0000
0000
0000
,  // measure 5
0000
0000
0000
0000
,  // measure 6
0000
0000
0000
0000
,  // measure 7
0000
0000
0000
0000
,  // measure 8
1001
0000
1000
1000
,  // measure 9
0001
0000
0001
1000
,  // measure 10
0001
0000
0001
0001
,  // measure 11
1000
0000
1000
0001
,  // measure 12
0110
0000
0010
0010
,  // measure 13
0100
0000
0100
0010
,  // measure 14
0100
0000
0100
0100
,  // measure 15
0010
0000
0010
0100
,  // measure 16
1001
0000
0001
0010
,  // measure 17
1000
0000
0001
0000
,  // measure 18
1001
0000
1000
0100
,  // measure 19
0001
0000
1000
0000
,  // measure 20
0110
0000
0100
0001
,  // measure 21
0010
0000
0100
0000
,  // measure 22
0110
0000
0010
1000
,  // measure 23
0100
0000
0010
0000
,  // measure 24
2002
0000
0000
0000
,  // measure 25
0000
0000
0000
3003
,  // measure 26
1000
0000
0100
0000
,  // measure 27
0001
0000
0100
0010
,  // measure 28
0220
0000
0000
0000
,  // measure 29
0000
0000
0000
0330
,  // measure 30
1001
0000
1001
0000
,  // measure 31
1001
0000
1001
0000
,  // measure 32
1000
0001
1000
0001
,  // measure 33
0010
0010
0010
0000
,  // measure 34
0001
1000
0001
1000
,  // measure 35
0100
0100
0100
0000
,  // measure 36
0010
0100
0010
0100
,  // measure 37
0001
0001
0001
0000
,  // measure 38
0100
0010
0100
0010
,  // measure 39
1000
1000
1000
0000
,  // measure 40
1000
0001
1000
0001
,  // measure 41
0010
0010
0010
0000
,  // measure 42
0001
1000
0001
1000
,  // measure 43
0100
0100
0100
0000
,  // measure 44
0010
0100
0010
0100
,  // measure 45
0001
0001
0001
0000
,  // measure 46
0100
0010
0100
0010
,  // measure 47
1000
0001
1000
0001
,  // measure 48
0020
0000
0000
0000
,  // measure 49
0000
0000
0000
0030
,  // measure 50
0200
0000
0000
0000
,  // measure 51
0020
0000
0000
0330
,  // measure 52
0002
0000
0000
0000
,  // measure 53
0000
0000
0000
0003
,  // measure 54
2000
0000
0000
0000
,  // measure 55
0002
0000
0000
3003
,  // measure 56
1001
0000
1000
1000
,  // measure 57
0001
0000
0001
1000
,  // measure 58
0001
0000
0001
0001
,  // measure 59
1000
0000
1000
0001
,  // measure 60
0110
0000
0010
0010
,  // measure 61
0100
0000
0100
0010
,  // measure 62
0100
0000
0100
0100
,  // measure 63
0010
0000
0010
0100
,  // measure 64
2002
0000
0000
3003
,  // measure 65
1000
0001
1000
0001
,  // measure 66
0010
0010
0010
0000
,  // measure 67
0001
1000
0001
1000
,  // measure 68
0100
0100
0100
0000
,  // measure 69
0010
0100
0010
0100
,  // measure 70
0001
0001
0001
0000
,  // measure 71
0100
0010
0100
0010
,  // measure 72
1000
1000
1000
0000
,  // measure 73
1000
0001
1000
0001
,  // measure 74
0010
0010
0010
0000
,  // measure 75
0001
1000
0001
1000
,  // measure 76
0100
0100
0100
0000
,  // measure 77
0010
0100
0010
0100
,  // measure 78
0001
0001
0001
0000
,  // measure 79
0100
0010
0100
0010
,  // measure 80
1000
0001
1000
0001
,  // measure 81
1001
0000
1000
1000
,  // measure 82
0001
0000
0001
1000
,  // measure 83
0001
0000
0001
0001
,  // measure 84
1000
0000
1000
0001
,  // measure 85
0110
0000
0010
0010
,  // measure 86
0100
0000
0100
0010
,  // measure 87
0100
0000
0100
0100
,  // measure 88
0010
0000
0010
0100
,  // measure 89
1001
0000
0000
0000
;

//---------------dance-single - ----------------
#NOTEDATA:;
#CHARTNAME:;
#STEPSTYPE:dance-single;
#DESCRIPTION:;
#CHARTSTYLE:;
#DIFFICULTY:Challenge;
#METER:8;
#RADARVALUES:0.322126,0.355824,0.191905,0.111944,0.000000,282.000000,258.000000,24.000000,14.000000,0.000000,0.000000,0.000000,0.000000,0.000000,0.322126,0.355824,0.191905,0.111944,0.000000,282.000000,258.000000,24.000000,14.000000,0.000000,0.000000,0.000000,0.000000,0.000000;
#CREDIT:;
#NOTES:
// measure 0
0000
0000
0000
0000
,  // measure 1
0000
0000
0000
0000
,  // measure 2
0000
0000
0000
0000
,  // measure 3
0000
0000
0000
0000
,  // measure 4
0000
0000
0000
0000
,  // measure 5
0000
0000
0000
0000
,  // measure 6
0000
0000
0000
0000
,  // measure 7
0000
0000
0000
0000
,  // measure 8
1001
0000
1000
1000
,  // measure 9
0001
1000
0001
1000
,  // measure 10
1001
0000
0001
0001
,  // measure 11
1000
0001
1000
0001
,  // measure 12
0110
0000
0010
0010
,  // measure 13
0100
0010
0100
0010
,  // measure 14
0110
0000
0100
0100
,  // measure 15
0010
0100
0010
0100
,  // measure 16
1001
0000
0001
0010
,  // measure 17
1000
0010
0001
0000
,  // measure 18
1001
0000
1000
0100
,  // measure 19
0001
0100
1000
0000
,  // measure 20
0110
0000
0100
0001
,  // measure 21
0010
0001
0100
0000
,  // measure 22
0110
0000
0010
1000
,  // measure 23
0100
1000
0010
0000
,  // measure 24
2002
0000
0000
0000
,  // measure 25
0000
0000
0000
3003
,  // measure 26
1000
0000
0100
0000
,  // measure 27
0001
1000
0100
0010
,  // measure 28
0220
0000
0000
0000
,  // measure 29
0000
0000
0000
0330
,  // measure 30
1001
0000
1001
0000
,  // measure 31
1001
0000
1001
0000
,  // measure 32
1000
0001
1000
0001
,  // measure 33
0010
0010
0010
0100
,  // measure 34
0001
1000
0001
1000
,  // measure 35
0100
0100
0100
0010
,  // measure 36
0010
0100
0010
0100
,  // measure 37
0001
0001
0001
1000
,  // measure 38
0100
0010
0100
0010
,  // measure 39
1000
1000
1000
0001
,  // measure 40
1000
0001
1000
0001
,  // measure 41
0010
0010
0010
0100
,  // measure 42
0001
1000
0001
1000
,  // measure 43
0100
0100
0100
0010
,  // measure 44
0010
0100
0010
0100
,  // measure 45
0001
0001
0001
1000
,  // measure 46
0100
0010
0100
0010
,  // measure 47
1000
0001
1000
0001
,  // measure 48
0020
0000
0000
0000
,  // measure 49
0200
0000
0000
0330
,  // measure 50
0200
0000
0000
0000
,  // measure 51
0020
0000
0000
0330
,  // measure 52
0002
0000
0000
0000
,  // measure 53
2000
0000
0000
3003
,  // measure 54
2000
0000
0000
0000
,  // measure 55
0002
0000
0000
3003
,  // measure 56
1001
0000
1000
1000
,  // measure 57
0001
1000
0001
1000
,  // measure 58
1001
0000
0001
0001
,  // measure 59
1000
0001
1000
0001
,  // measure 60
0110
0000
0010
0010
,  // measure 61
0100
0010
0100
0010
,  // measure 62
0110
0000
0100
0100
,  // measure 63
0010
0100
0010
0100
,  // measure 64
2002
0000
0000
3003
,  // measure 65
1000
0001
1000
0001
,  // measure 66
0010
0010
0010
0100
,  // measure 67
0001
1000
0001
1000
,  // measure 68
0100
0100
0100
0010
,  // measure 69
0010
0100
0010
0100
,  // measure 70
0001
0001
0001
1000
,  // measure 71
0100
0010
0100
0010
,  // measure 72
1000
1000
1000
0001
,  // measure 73
1000
0001
1000
0001
,  // measure 74
0010
0010
0010
0100
,  // measure 75
0001
1000
0001
1000
,  // measure 76
0100
0100
0100
0010
,  // measure 77
0010
0100
0010
0100
,  // measure 78
0001
0001
0001
1000
,  // measure 79
0100
0010
0100
0010
,  // measure 80
1000
0001
1000
0001
,  // measure 81
1001
0000
1000
1000
,  // measure 82
0001
1000
0001
1000
,  // measure 83
1001
0000
0001
0001
,  // measure 84
1000
0001
1000
0001
,  // measure 85
0110
0000
0010
0010
,  // measure 86
0100
0010
0100
0010
,  // measure 87
0110
0000
0100
0100
,  // measure 88
0010
0100
0010
0100
,  // measure 89
1001
0000
0000
0000
;

//---------------dance-single - Deluxe----------------
#NOTEDATA:;
#CHARTNAME:;
#STEPSTYPE:dance-single;
#DESCRIPTION:Deluxe;
#CHARTSTYLE:;
#DIFFICULTY:Edit;
#METER:9;
#RADARVALUES:0.342687,0.391406,0.191905,0.111944,0.000000,300.000000,276.000000,24.000000,14.000000,0.000000,0.000000,0.000000,0.000000,0.000000,0.342687,0.391406,0.191905,0.111944,0.000000,300.000000,276.000000,24.000000,14.000000,0.000000,0.000000,0.000000,0.000000,0.000000;
#CREDIT:;
#NOTES:
// measure 0
0000
0000
0000
0000
,  // measure 1
0000
0000
0000
0000
,  // measure 2
0000
0000
0000
0000
,  // measure 3
0000
0000
0000
0000
,  // measure 4
0000
0000
0000
0000
,  // measure 5
0000
0000
0000
0000
,  // measure 6
0000
0000
0000
0000
,  // measure 7
0000
0000
0000
0000
,  // measure 8
1001
0001
1000
1000
,  // measure 9
0001
1000
0001
1000
,  // measure 10
1001
1000
0001
0001
,  // measure 11
1000
0001
1000
0001
,  // measure 12
0110
0100
0010
0010
,  // measure 13
0100
0010
0100
0010
,  // measure 14
0110
0010
0100
0100
,  // measure 15
0010
0100
0010
0100
,  // measure 16
1001
0000
0001
0010
,  // measure 17
1000
0010
0001
0000
,  // measure 18
1001
0000
1000
0100
,  // measure 19
0001
0100
1000
0000
,  // measure 20
0110
0000
0100
0001
,  // measure 21
0010
0001
0100
0000
,  // measure 22
0110
0000
0010
1000
,  // measure 23
0100
1000
0010
0000
,  // measure 24
2002
0000
0000
0000
,  // measure 25
0000
0000
0000
3003
,  // measure 26
1000
0000
0100
0000
,  // measure 27
0001
1000
0100
0010
,  // measure 28
0220
0000
0000
0000
,  // measure 29
0000
0000
0000
0330
,  // measure 30
1001
0000
1001
0000
,  // measure 31
1001
0000
1001
0000
,  // measure 32
1000
0001
1000
0001
,  // measure 33
0010
0010
0010
0100
,  // measure 34
0001
1000
0001
1000
,  // measure 35
0100
0100
0100
0010
,  // measure 36
0010
0100
0010
0100
,  // measure 37
0001
0001
0001
1000
,  // measure 38
0100
0010
0100
0010
,  // measure 39
1000
1000
1000
0001
,  // measure 40
1000
0001
1000
0001
,  // measure 41
0010
0010
0010
0100
,  // measure 42
0001
1000
0001
1000
,  // measure 43
0100
0100
0100
0010
,  // measure 44
0010
0100
0010
0100
,  // measure 45
0001
0001
0001
1000
,  // measure 46
0100
0010
0100
0010
,  // measure 47
1000
0000
0001
0000
1000
0001
1000
0000
,  // measure 48
0020
0000
0100
0000
,  // measure 49
0200
0000
0000
0330
,  // measure 50
0200
0000
0010
0000
,  // measure 51
0020
0000
0000
0330
,  // measure 52
0002
0000
1000
0000
,  // measure 53
2000
0000
0000
3003
,  // measure 54
2000
0000
0001
0000
,  // measure 55
0002
0000
0000
3003
,  // measure 56
1001
0001
1000
1000
,  // measure 57
0001
1000
0001
1000
,  // measure 58
1001
1000
0001
0001
,  // measure 59
1000
0001
1000
0001
,  // measure 60
0110
0100
0010
0010
,  // measure 61
0100
0010
0100
0010
,  // measure 62
0110
0010
0100
0100
,  // measure 63
0010
0100
0010
0100
,  // measure 64
2002
0000
0000
3003
,  // measure 65
1000
0001
1000
0001
,  // measure 66
0010
0010
0010
0100
,  // measure 67
0001
1000
0001
1000
,  // measure 68
0100
0100
0100
0010
,  // measure 69
0010
0100
0010
0100
,  // measure 70
0001
0001
0001
1000
,  // measure 71
0100
0010
0100
0010
,  // measure 72
1000
1000
1000
0001
,  // measure 73
1000
0001
1000
0001
,  // measure 74
0010
0010
0010
0100
,  // measure 75
0001
1000
0001
1000
,  // measure 76
0100
0100
0100
0010
,  // measure 77
0010
0100
0010
0100
,  // measure 78
0001
0001
0001
1000
,  // measure 79
0100
0010
0100
0010
,  // measure 80
1000
0000
0001
0000
1000
0001
1000
0000
,  // measure 81
1001
0001
1000
1000
,  // measure 82
0001
1000
0001
1000
,  // measure 83
1001
1000
0001
0001
,  // measure 84
1000
0001
1000
0001
,  // measure 85
0110
0100
0010
0010
,  // measure 86
0100
0010
0100
0010
,  // measure 87
0110
0010
0100
0100
,  // measure 88
0010
0100
0010
0100
,  // measure 89
1001
0000
0000
0000
;

//---------------dance-single - Enjoy----------------
#NOTEDATA:;
#CHARTNAME:;
#STEPSTYPE:dance-single;
#DESCRIPTION:Enjoy;
#CHARTSTYLE:;
#DIFFICULTY:Edit;
#METER:1;
#RADARVALUES:0.044549,0.106747,0.015992,0.015992,0.000000,39.000000,37.000000,2.000000,2.000000,0.000000,0.000000,0.000000,0.000000,0.000000,0.044549,0.106747,0.015992,0.015992,0.000000,39.000000,37.000000,2.000000,2.000000,0.000000,0.000000,0.000000,0.000000,0.000000;
#CREDIT:;
#NOTES:
// measure 0
0000
0000
0000
0000
,  // measure 1
0000
0000
0000
0000
,  // measure 2
0000
0000
0000
0000
,  // measure 3
0000
0000
0000
0000
,  // measure 4
0000
0000
0000
0000
,  // measure 5
0000
0000
0000
0000
,  // measure 6
0000
0000
0000
0000
,  // measure 7
0000
0000
0000
0000
,  // measure 8
0010
0000
0000
0000
,  // measure 9
0000
0000
0000
0000
,  // measure 10
0010
0000
0000
0000
,  // measure 11
0000
0000
0000
0000
,  // measure 12
0100
0000
0000
0000
,  // measure 13
0000
0000
0000
0000
,  // measure 14
0100
0000
0000
0000
,  // measure 15
0000
0000
0000
0000
,  // measure 16
1000
0000
0000
0000
,  // measure 17
0000
0000
0000
0000
,  // measure 18
1000
0000
0000
0000
,  // measure 19
0000
0000
0000
0000
,  // measure 20
0001
0000
0000
0000
,  // measure 21
0000
0000
0000
0000
,  // measure 22
0001
0000
0000
0000
,  // measure 23
0000
0000
0000
0000
,  // measure 24
1000
0000
0000
0000
,  // measure 25
0000
0000
0000
0000
,  // measure 26
1000
0000
0000
0000
,  // measure 27
0000
0000
0000
0000
,  // measure 28
0001
0000
0000
0000
,  // measure 29
0000
0000
0000
0000
,  // measure 30
0001
0000
0000
0000
,  // measure 31
0000
0000
0000
0000
,  // measure 32
1000
0000
0000
0000
,  // measure 33
0000
0000
0000
0000
,  // measure 34
1000
0000
0000
0000
,  // measure 35
0000
0000
0000
0000
,  // measure 36
1000
0000
0000
0000
,  // measure 37
0000
0000
0000
0000
,  // measure 38
1000
0000
0000
0000
,  // measure 39
0000
0000
0000
0000
,  // measure 40
0001
0000
0000
0000
,  // measure 41
0000
0000
0000
0000
,  // measure 42
0001
0000
0000
0000
,  // measure 43
0000
0000
0000
0000
,  // measure 44
0001
0000
0000
0000
,  // measure 45
0000
0000
0000
0000
,  // measure 46
0001
0000
0000
0000
,  // measure 47
0000
0000
0000
0000
,  // measure 48
2002
0000
0000
0000
,  // measure 49
0000
0000
0000
0000
,  // measure 50
0000
0000
0000
0000
,  // measure 51
0000
0000
0000
0000
,  // measure 52
0000
0000
0000
0000
,  // measure 53
0000
0000
0000
0000
,  // measure 54
0000
0000
0000
0000
,  // measure 55
0000
0000
0000
3003
,  // measure 56
0010
0000
0000
0000
,  // measure 57
0000
0000
0000
0000
,  // measure 58
0010
0000
0000
0000
,  // measure 59
0000
0000
0000
0000
,  // measure 60
0010
0000
0000
0000
,  // measure 61
0000
0000
0000
0000
,  // measure 62
0000
0000
0000
0000
,  // measure 63
0000
0000
0000
0000
,  // measure 64
0000
0000
0000
0000
,  // measure 65
1000
0000
0000
0000
,  // measure 66
0000
0000
0000
0000
,  // measure 67
1000
0000
0000
0000
,  // measure 68
0000
0000
0000
0000
,  // measure 69
1000
0000
0000
0000
,  // measure 70
0000
0000
0000
0000
,  // measure 71
1000
0000
0000
0000
,  // measure 72
0000
0000
0000
0000
,  // measure 73
0001
0000
0000
0000
,  // measure 74
0000
0000
0000
0000
,  // measure 75
0001
0000
0000
0000
,  // measure 76
0000
0000
0000
0000
,  // measure 77
0001
0000
0000
0000
,  // measure 78
0000
0000
0000
0000
,  // measure 79
0001
0000
0000
0000
,  // measure 80
0000
0000
0000
0000
,  // measure 81
0010
0000
0000
0000
,  // measure 82
0000
0000
0000
0000
,  // measure 83
0010
0000
0000
0000
,  // measure 84
0000
0000
0000
0000
,  // measure 85
0100
0000
0000
0000
,  // measure 86
0000
0000
0000
0000
,  // measure 87
0100
0000
0000
0000
,  // measure 88
0000
0000
0000
0000
,  // measure 89
1001
0000
0000
0000
;

//---------------dance-single - Casual----------------
#NOTEDATA:;
#CHARTNAME:;
#STEPSTYPE:dance-single;
#DESCRIPTION:Casual;
#CHARTSTYLE:;
#DIFFICULTY:Edit;
#METER:4;
#RADARVALUES:0.137075,0.213494,0.079960,0.079960,0.000000,120.000000,110.000000,10.000000,10.000000,0.000000,0.000000,0.000000,0.000000,0.000000,0.137075,0.213494,0.079960,0.079960,0.000000,120.000000,110.000000,10.000000,10.000000,0.000000,0.000000,0.000000,0.000000,0.000000;
#CREDIT:;
#NOTES:
// measure 0
0000
0000
0000
0000
,  // measure 1
0000
0000
0000
0000
,  // measure 2
0000
0000
0000
0000
,  // measure 3
0000
0000
0000
0000
,  // measure 4
0000
0000
0000
0000
,  // measure 5
0000
0000
0000
0000
,  // measure 6
0000
0000
0000
0000
,  // measure 7
0000
0000
0000
0000
,  // measure 8
1000
0000
0000
0000
,  // measure 9
0001
0000
0001
0000
,  // measure 10
0001
0000
0000
0000
,  // measure 11
1000
0000
1000
0000
,  // measure 12
0010
0000
0000
0000
,  // measure 13
0100
0000
0100
0000
,  // measure 14
0100
0000
0000
0000
,  // measure 15
0010
0000
0010
0000
,  // measure 16
1001
0000
0000
0000
,  // measure 17
1000
0000
0000
0000
,  // measure 18
1001
0000
0000
0000
,  // measure 19
0001
0000
0000
0000
,  // measure 20
0110
0000
0000
0000
,  // measure 21
0010
0000
0000
0000
,  // measure 22
0110
0000
0000
0000
,  // measure 23
0100
0000
0000
0000
,  // measure 24
2002
0000
0000
0000
,  // measure 25
0000
0000
0000
3003
,  // measure 26
1000
0000
0000
0000
,  // measure 27
0100
0000
0001
0000
,  // measure 28
0220
0000
0000
0000
,  // measure 29
0000
0000
0000
0330
,  // measure 30
1001
0000
0010
0000
,  // measure 31
1001
0000
0000
0000
,  // measure 32
1000
0000
0000
0000
,  // measure 33
0010
0000
0010
0000
,  // measure 34
0001
0000
0000
0000
,  // measure 35
0100
0000
0100
0000
,  // measure 36
0010
0000
0000
0000
,  // measure 37
0001
0000
0001
0000
,  // measure 38
0100
0000
0000
0000
,  // measure 39
1000
0000
1000
0000
,  // measure 40
1000
0000
0000
0000
,  // measure 41
0010
0000
0010
0000
,  // measure 42
0001
0000
0000
0000
,  // measure 43
0100
0000
0100
0000
,  // measure 44
0010
0000
0000
0000
,  // measure 45
0001
0000
0001
0000
,  // measure 46
0100
0000
0010
0000
,  // measure 47
1000
0001
1000
0000
,  // measure 48
0020
0000
0000
0000
,  // measure 49
0000
0000
0000
0030
,  // measure 50
0200
0000
0000
0000
,  // measure 51
0000
0000
0000
0300
,  // measure 52
0002
0000
0000
0000
,  // measure 53
0000
0000
0000
0003
,  // measure 54
2000
0000
0000
0000
,  // measure 55
0000
0000
0000
3000
,  // measure 56
1000
0000
0000
0000
,  // measure 57
0001
0000
0001
0000
,  // measure 58
0001
0000
0000
0000
,  // measure 59
1000
0000
1000
0000
,  // measure 60
0010
0000
0000
0000
,  // measure 61
0100
0000
0100
0000
,  // measure 62
0100
0000
0000
0000
,  // measure 63
0010
0000
0010
0000
,  // measure 64
2002
0000
0000
3003
,  // measure 65
1000
0000
0000
0000
,  // measure 66
0010
0000
0010
0000
,  // measure 67
0001
0000
0000
0000
,  // measure 68
0100
0000
0100
0000
,  // measure 69
0010
0000
0000
0000
,  // measure 70
0001
0000
0001
0000
,  // measure 71
0100
0000
0000
0000
,  // measure 72
1000
0000
1000
0000
,  // measure 73
1000
0000
0000
0000
,  // measure 74
0010
0000
0010
0000
,  // measure 75
0001
0000
0000
0000
,  // measure 76
0100
0000
0100
0000
,  // measure 77
0010
0000
0000
0000
,  // measure 78
0001
0000
0001
0000
,  // measure 79
0100
0000
0010
0000
,  // measure 80
1000
0001
1000
0000
,  // measure 81
1000
0000
0000
0000
,  // measure 82
0001
0000
0001
0000
,  // measure 83
0001
0000
0000
0000
,  // measure 84
1000
0000
1000
0000
,  // measure 85
0010
0000
0000
0000
,  // measure 86
0100
0000
0100
0000
,  // measure 87
0100
0000
0000
0000
,  // measure 88
0010
0000
0010
0000
,  // measure 89
0110
0000
0000
0000
;
