#VERSION:0.83;
#TITLE:エナジーストリーム;
#SUBTITLE:;
#ARTIST:キュアプラネット;
#TITLETRANSLIT:Energy Stream;
#SUBTITLETRANSLIT:;
#ARTISTTRANSLIT:Cure Planet;
#GENRE:AMBIENT;
#ORIGIN:;
#CREDIT:;
#BANNER:;
#BACKGROUND:;
#PREVIEWVID:;
#JACKET:;
#CDIMAGE:;
#DISCIMAGE:;
#LYRICSPATH:;
#CDTITLE:;
#MUSIC:Energy Stream.ogg;
#OFFSET:-1.500000;
#SAMPLESTART:17.500000;
#SAMPLELENGTH:15.000000;
#SELECTABLE:YES;
#BPMS:0.000=120.000;
#STOPS:;
#DELAYS:;
#WARPS:;
#TIMESIGNATURES:0.000=4=4;
#TICKCOUNTS:0.000=4;
#COMBOS:0.000=1;
#SPEEDS:0.000=1.000=0.000=0;
#SCROLLS:0.000=1.000;
#FAKES:;
#LABELS:0.000=Song Start;
#BGCHANGES:;
#KEYSOUNDS:;
#ATTACKS:
;

//---------------dance-single - ----------------
#NOTEDATA:;
#CHARTNAME:;
#STEPSTYPE:dance-single;
#DESCRIPTION:;
#CHARTSTYLE:;
#DIFFICULTY:Easy;
#METER:3;
#RADARVALUES:0.107778,0.120552,0.000000,0.014235,0.000000,106.000000,106.000000,0.000000,2.000000,0.000000,0.000000,0.000000,0.000000,0.000000,0.107778,0.120552,0.000000,0.014235,0.000000,106.000000,106.000000,0.000000,2.000000,0.000000,0.000000,0.000000,0.000000,0.000000;
#CREDIT:;
#NOTES:
// measure 0
0000
0000
0000
0000
,  // measure 1
0000
0000
0000
0000
,  // measure 2
0000
0000
0000
0000
,  // measure 3
0000
0000
0000
0000
,  // measure 4
0010
0000
0000
0000
,  // measure 5
0100
0000
0000
0000
,  // measure 6
1000
0000
0000
0000
,  // measure 7
0001
0000
0000
0000
,  // measure 8
0010
0000
0010
0000
,  // measure 9
1000
0000
1000
0000
,  // measure 10
0001
0000
0100
0000
,  // measure 11
1000
0000
0010
0000
,  // measure 12
0100
0000
0100
0000
,  // measure 13
0001
0000
0001
0000
,  // measure 14
1000
0000
0010
0000
,  // measure 15
0001
0000
0100
0000
,  // measure 16
0001
0000
0001
0000
,  // measure 17
0010
0000
0010
0000
,  // measure 18
0100
0000
1000
0000
,  // measure 19
0010
0000
0001
0000
,  // measure 20
1000
0000
1000
0000
,  // measure 21
0100
0000
0100
0000
,  // measure 22
0010
0000
0001
0000
,  // measure 23
0100
0000
1000
0000
,  // measure 24
0020
0000
0000
0000
,  // measure 25
0000
0000
0000
0000
,  // measure 26
0000
0000
0000
0000
,  // measure 27
0000
0000
0000
0030
,  // measure 28
0010
0000
0000
0000
,  // measure 29
0100
0000
0000
0000
,  // measure 30
1000
0000
0000
0000
,  // measure 31
0001
0000
0000
0000
,  // measure 32
0010
0000
0010
0000
,  // measure 33
1000
0000
1000
0000
,  // measure 34
0001
0000
0100
0000
,  // measure 35
1000
0000
0010
0000
,  // measure 36
0100
0000
0100
0000
,  // measure 37
0001
0000
0001
0000
,  // measure 38
1000
0000
0010
0000
,  // measure 39
0001
0000
0100
0000
,  // measure 40
0001
0000
0001
0000
,  // measure 41
0010
0000
0010
0000
,  // measure 42
0100
0000
1000
0000
,  // measure 43
0010
0000
0001
0000
,  // measure 44
1000
0000
1000
0000
,  // measure 45
0100
0000
0100
0000
,  // measure 46
0010
0000
0001
0000
,  // measure 47
0100
0000
1000
0000
,  // measure 48
0010
0000
0010
0000
,  // measure 49
1000
0000
1000
0000
,  // measure 50
0001
0000
0100
0000
,  // measure 51
1000
0000
0010
0000
,  // measure 52
0100
0000
0100
0000
,  // measure 53
0001
0000
0001
0000
,  // measure 54
1000
0000
0010
0000
,  // measure 55
0001
0000
0100
0000
,  // measure 56
0001
0000
0001
0000
,  // measure 57
0010
0000
0010
0000
,  // measure 58
0100
0000
1000
0000
,  // measure 59
0010
0000
0001
0000
,  // measure 60
1000
0000
1000
0000
,  // measure 61
0100
0000
0100
0000
,  // measure 62
0010
0000
0001
0000
,  // measure 63
0100
0000
1000
0000
,  // measure 64
0020
0000
0000
0000
,  // measure 65
0000
0000
0000
0000
,  // measure 66
0000
0000
0000
0000
,  // measure 67
0000
0000
0000
0030
;

//---------------dance-single - ----------------
#NOTEDATA:;
#CHARTNAME:;
#STEPSTYPE:dance-single;
#DESCRIPTION:;
#CHARTSTYLE:;
#DIFFICULTY:Beginner;
#METER:3;
#RADARVALUES:0.095577,0.120552,0.000000,0.014235,0.000000,94.000000,94.000000,0.000000,2.000000,0.000000,0.000000,0.000000,0.000000,0.000000,0.095577,0.120552,0.000000,0.014235,0.000000,94.000000,94.000000,0.000000,2.000000,0.000000,0.000000,0.000000,0.000000,0.000000;
#CREDIT:;
#NOTES:
// measure 0
0000
0000
0000
0000
,  // measure 1
0000
0000
0000
0000
,  // measure 2
0000
0000
0000
0000
,  // measure 3
0000
0000
0000
0000
,  // measure 4
0010
0000
0000
0000
,  // measure 5
0100
0000
0000
0000
,  // measure 6
1000
0000
0000
0000
,  // measure 7
0001
0000
0000
0000
,  // measure 8
0010
0000
0000
0000
,  // measure 9
1000
0000
1000
0000
,  // measure 10
0001
0000
0100
0000
,  // measure 11
1000
0000
0010
0000
,  // measure 12
0100
0000
0000
0000
,  // measure 13
0001
0000
0001
0000
,  // measure 14
1000
0000
0010
0000
,  // measure 15
0001
0000
0100
0000
,  // measure 16
0001
0000
0000
0000
,  // measure 17
0010
0000
0010
0000
,  // measure 18
0100
0000
1000
0000
,  // measure 19
0010
0000
0001
0000
,  // measure 20
1000
0000
0000
0000
,  // measure 21
0100
0000
0100
0000
,  // measure 22
0010
0000
0001
0000
,  // measure 23
0100
0000
1000
0000
,  // measure 24
0020
0000
0000
0000
,  // measure 25
0000
0000
0000
0000
,  // measure 26
0000
0000
0000
0000
,  // measure 27
0000
0000
0000
0030
,  // measure 28
0010
0000
0000
0000
,  // measure 29
0100
0000
0000
0000
,  // measure 30
1000
0000
0000
0000
,  // measure 31
0001
0000
0000
0000
,  // measure 32
0010
0000
0000
0000
,  // measure 33
1000
0000
1000
0000
,  // measure 34
0001
0000
0100
0000
,  // measure 35
1000
0000
0010
0000
,  // measure 36
0100
0000
0000
0000
,  // measure 37
0001
0000
0001
0000
,  // measure 38
1000
0000
0010
0000
,  // measure 39
0001
0000
0100
0000
,  // measure 40
0001
0000
0000
0000
,  // measure 41
0010
0000
0010
0000
,  // measure 42
0100
0000
1000
0000
,  // measure 43
0010
0000
0001
0000
,  // measure 44
1000
0000
0000
0000
,  // measure 45
0100
0000
0100
0000
,  // measure 46
0010
0000
0001
0000
,  // measure 47
0100
0000
1000
0000
,  // measure 48
0010
0000
0000
0000
,  // measure 49
1000
0000
1000
0000
,  // measure 50
0001
0000
0100
0000
,  // measure 51
1000
0000
0010
0000
,  // measure 52
0100
0000
0000
0000
,  // measure 53
0001
0000
0001
0000
,  // measure 54
1000
0000
0010
0000
,  // measure 55
0001
0000
0100
0000
,  // measure 56
0001
0000
0000
0000
,  // measure 57
0010
0000
0010
0000
,  // measure 58
0100
0000
1000
0000
,  // measure 59
0010
0000
0001
0000
,  // measure 60
1000
0000
0000
0000
,  // measure 61
0100
0000
0100
0000
,  // measure 62
0010
0000
0001
0000
,  // measure 63
0100
0000
1000
0000
,  // measure 64
0020
0000
0000
0000
,  // measure 65
0000
0000
0000
0000
,  // measure 66
0000
0000
0000
0000
,  // measure 67
0000
0000
0000
0030
;

//---------------dance-single - ----------------
#NOTEDATA:;
#CHARTNAME:;
#STEPSTYPE:dance-single;
#DESCRIPTION:;
#CHARTSTYLE:;
#DIFFICULTY:Medium;
#METER:3;
#RADARVALUES:0.124047,0.144662,0.000000,0.014235,0.000000,122.000000,122.000000,0.000000,2.000000,0.000000,0.000000,0.000000,0.000000,0.000000,0.124047,0.144662,0.000000,0.014235,0.000000,122.000000,122.000000,0.000000,2.000000,0.000000,0.000000,0.000000,0.000000,0.000000;
#CREDIT:;
#NOTES:
// measure 0
0000
0000
0000
0000
,  // measure 1
0000
0000
0000
0000
,  // measure 2
0000
0000
0000
0000
,  // measure 3
0000
0000
0000
0000
,  // measure 4
0010
0000
0000
0000
,  // measure 5
0100
0000
0100
0000
,  // measure 6
1000
0000
0000
0000
,  // measure 7
0001
0000
0001
0000
,  // measure 8
0010
0000
0010
0000
,  // measure 9
1000
0000
1000
0000
,  // measure 10
0001
0000
0100
0000
,  // measure 11
1000
0000
0010
0010
,  // measure 12
0100
0000
0100
0000
,  // measure 13
0001
0000
0001
0000
,  // measure 14
1000
0000
0010
0000
,  // measure 15
0001
0000
0100
0100
,  // measure 16
0001
0000
0001
0000
,  // measure 17
0010
0000
0010
0000
,  // measure 18
0100
0000
1000
0000
,  // measure 19
0010
0000
0001
0001
,  // measure 20
1000
0000
1000
0000
,  // measure 21
0100
0000
0100
0000
,  // measure 22
0010
0000
0001
0000
,  // measure 23
0100
0000
1000
1000
,  // measure 24
0020
0000
0000
0000
,  // measure 25
0000
0000
0000
0000
,  // measure 26
0000
0000
0000
0000
,  // measure 27
0000
0000
0000
0030
,  // measure 28
0010
0000
0000
0000
,  // measure 29
0100
0000
0100
0000
,  // measure 30
1000
0000
0000
0000
,  // measure 31
0001
0000
0001
0000
,  // measure 32
0010
0000
0010
0000
,  // measure 33
1000
0000
1000
0000
,  // measure 34
0001
0000
0100
0000
,  // measure 35
1000
0000
0010
0010
,  // measure 36
0100
0000
0100
0000
,  // measure 37
0001
0000
0001
0000
,  // measure 38
1000
0000
0010
0000
,  // measure 39
0001
0000
0100
0100
,  // measure 40
0001
0000
0001
0000
,  // measure 41
0010
0000
0010
0000
,  // measure 42
0100
0000
1000
0000
,  // measure 43
0010
0000
0001
0001
,  // measure 44
1000
0000
1000
0000
,  // measure 45
0100
0000
0100
0000
,  // measure 46
0010
0000
0001
0000
,  // measure 47
0100
0000
1000
1000
,  // measure 48
0010
0000
0010
0000
,  // measure 49
1000
0000
1000
0000
,  // measure 50
0001
0000
0100
0000
,  // measure 51
1000
0000
0010
0010
,  // measure 52
0100
0000
0100
0000
,  // measure 53
0001
0000
0001
0000
,  // measure 54
1000
0000
0010
0000
,  // measure 55
0001
0000
0100
0100
,  // measure 56
0001
0000
0001
0000
,  // measure 57
0010
0000
0010
0000
,  // measure 58
0100
0000
1000
0000
,  // measure 59
0010
0000
0001
0001
,  // measure 60
1000
0000
1000
0000
,  // measure 61
0100
0000
0100
0000
,  // measure 62
0010
0000
0001
0000
,  // measure 63
0100
0000
1000
1000
,  // measure 64
0020
0000
0000
0000
,  // measure 65
0000
0000
0000
0000
,  // measure 66
0000
0000
0000
0000
,  // measure 67
0000
0000
0000
0030
;

//---------------dance-single - ----------------
#NOTEDATA:;
#CHARTNAME:;
#STEPSTYPE:dance-single;
#DESCRIPTION:;
#CHARTSTYLE:;
#DIFFICULTY:Hard;
#METER:4;
#RADARVALUES:0.140315,0.168772,0.000000,0.014235,0.000000,138.000000,138.000000,0.000000,2.000000,0.000000,0.000000,0.000000,0.000000,0.000000,0.140315,0.168772,0.000000,0.014235,0.000000,138.000000,138.000000,0.000000,2.000000,0.000000,0.000000,0.000000,0.000000,0.000000;
#CREDIT:;
#NOTES:
// measure 0
0000
0000
0000
0000
,  // measure 1
0000
0000
0000
0000
,  // measure 2
0000
0000
0000
0000
,  // measure 3
0000
0000
0000
0000
,  // measure 4
0010
0000
0010
0000
,  // measure 5
0100
0000
0100
0000
,  // measure 6
1000
0000
1000
0000
,  // measure 7
0001
0000
0001
0000
,  // measure 8
0010
0000
0010
0000
,  // measure 9
1000
0001
1000
0000
,  // measure 10
0001
0000
0100
0000
,  // measure 11
1000
0000
0010
0010
,  // measure 12
0100
0000
0100
0000
,  // measure 13
0001
1000
0001
0000
,  // measure 14
1000
0000
0010
0000
,  // measure 15
0001
0000
0100
0100
,  // measure 16
0001
0000
0001
0000
,  // measure 17
0010
0100
0010
0000
,  // measure 18
0100
0000
1000
0000
,  // measure 19
0010
0000
0001
0001
,  // measure 20
1000
0000
1000
0000
,  // measure 21
0100
0010
0100
0000
,  // measure 22
0010
0000
0001
0000
,  // measure 23
0100
0000
1000
1000
,  // measure 24
0020
0000
0000
0000
,  // measure 25
0000
0000
0000
0000
,  // measure 26
0000
0000
0000
0000
,  // measure 27
0000
0000
0000
0030
,  // measure 28
0010
0000
0010
0000
,  // measure 29
0100
0000
0100
0000
,  // measure 30
1000
0000
1000
0000
,  // measure 31
0001
0000
0001
0000
,  // measure 32
0010
0000
0010
0000
,  // measure 33
1000
0001
1000
0000
,  // measure 34
0001
0000
0100
0000
,  // measure 35
1000
0000
0010
0010
,  // measure 36
0100
0000
0100
0000
,  // measure 37
0001
1000
0001
0000
,  // measure 38
1000
0000
0010
0000
,  // measure 39
0001
0000
0100
0100
,  // measure 40
0001
0000
0001
0000
,  // measure 41
0010
0100
0010
0000
,  // measure 42
0100
0000
1000
0000
,  // measure 43
0010
0000
0001
0001
,  // measure 44
1000
0000
1000
0000
,  // measure 45
0100
0010
0100
0000
,  // measure 46
0010
0000
0001
0000
,  // measure 47
0100
0000
1000
1000
,  // measure 48
0010
0000
0010
0000
,  // measure 49
1000
0001
1000
0000
,  // measure 50
0001
0000
0100
0000
,  // measure 51
1000
0000
0010
0010
,  // measure 52
0100
0000
0100
0000
,  // measure 53
0001
1000
0001
0000
,  // measure 54
1000
0000
0010
0000
,  // measure 55
0001
0000
0100
0100
,  // measure 56
0001
0000
0001
0000
,  // measure 57
0010
0100
0010
0000
,  // measure 58
0100
0000
1000
0000
,  // measure 59
0010
0000
0001
0001
,  // measure 60
1000
0000
1000
0000
,  // measure 61
0100
0010
0100
0000
,  // measure 62
0010
0000
0001
0000
,  // measure 63
0100
0000
1000
1000
,  // measure 64
0020
0000
0000
0000
,  // measure 65
0000
0000
0000
0000
,  // measure 66
0000
0000
0000
0000
,  // measure 67
0000
0000
0000
0030
;

//---------------dance-single - ----------------
#NOTEDATA:;
#CHARTNAME:;
#STEPSTYPE:dance-single;
#DESCRIPTION:;
#CHARTSTYLE:;
#DIFFICULTY:Challenge;
#METER:4;
#RADARVALUES:0.152517,0.168772,0.000000,0.014235,0.000000,150.000000,150.000000,0.000000,2.000000,0.000000,0.000000,0.000000,0.000000,0.000000,0.152517,0.168772,0.000000,0.014235,0.000000,150.000000,150.000000,0.000000,2.000000,0.000000,0.000000,0.000000,0.000000,0.000000;
#CREDIT:;
#NOTES:
// measure 0
0000
0000
0000
0000
,  // measure 1
0000
0000
0000
0000
,  // measure 2
0000
0000
0000
0000
,  // measure 3
0000
0000
0000
0000
,  // measure 4
0010
0000
0010
0000
,  // measure 5
0100
0000
0100
0000
,  // measure 6
1000
0000
1000
0000
,  // measure 7
0001
0000
0001
0000
,  // measure 8
0010
0000
0010
0000
,  // measure 9
1000
0001
1000
0000
,  // measure 10
0001
0010
0100
0000
,  // measure 11
1000
0000
0010
0010
,  // measure 12
0100
0000
0100
0000
,  // measure 13
0001
1000
0001
0000
,  // measure 14
1000
0100
0010
0000
,  // measure 15
0001
0000
0100
0100
,  // measure 16
0001
0000
0001
0000
,  // measure 17
0010
0100
0010
0000
,  // measure 18
0100
0001
1000
0000
,  // measure 19
0010
0000
0001
0001
,  // measure 20
1000
0000
1000
0000
,  // measure 21
0100
0010
0100
0000
,  // measure 22
0010
1000
0001
0000
,  // measure 23
0100
0000
1000
1000
,  // measure 24
0020
0000
0000
0000
,  // measure 25
0000
0000
0000
0000
,  // measure 26
0000
0000
0000
0000
,  // measure 27
0000
0000
0000
0030
,  // measure 28
0010
0000
0010
0000
,  // measure 29
0100
0000
0100
0000
,  // measure 30
1000
0000
1000
0000
,  // measure 31
0001
0000
0001
0000
,  // measure 32
0010
0000
0010
0000
,  // measure 33
1000
0001
1000
0000
,  // measure 34
0001
0010
0100
0000
,  // measure 35
1000
0000
0010
0010
,  // measure 36
0100
0000
0100
0000
,  // measure 37
0001
1000
0001
0000
,  // measure 38
1000
0100
0010
0000
,  // measure 39
0001
0000
0100
0100
,  // measure 40
0001
0000
0001
0000
,  // measure 41
0010
0100
0010
0000
,  // measure 42
0100
0001
1000
0000
,  // measure 43
0010
0000
0001
0001
,  // measure 44
1000
0000
1000
0000
,  // measure 45
0100
0010
0100
0000
,  // measure 46
0010
1000
0001
0000
,  // measure 47
0100
0000
1000
1000
,  // measure 48
0010
0000
0010
0000
,  // measure 49
1000
0001
1000
0000
,  // measure 50
0001
0010
0100
0000
,  // measure 51
1000
0000
0010
0010
,  // measure 52
0100
0000
0100
0000
,  // measure 53
0001
1000
0001
0000
,  // measure 54
1000
0100
0010
0000
,  // measure 55
0001
0000
0100
0100
,  // measure 56
0001
0000
0001
0000
,  // measure 57
0010
0100
0010
0000
,  // measure 58
0100
0001
1000
0000
,  // measure 59
0010
0000
0001
0001
,  // measure 60
1000
0000
1000
0000
,  // measure 61
0100
0010
0100
0000
,  // measure 62
0010
1000
0001
0000
,  // measure 63
0100
0000
1000
1000
,  // measure 64
0020
0000
0000
0000
,  // measure 65
0000
0000
0000
0000
,  // measure 66
0000
0000
0000
0000
,  // measure 67
0000
0000
0000
0030
;

//---------------dance-single - Deluxe----------------
#NOTEDATA:;
#CHARTNAME:;
#STEPSTYPE:dance-single;
#DESCRIPTION:Deluxe;
#CHARTSTYLE:;
#DIFFICULTY:Edit;
#METER:4;
#RADARVALUES:0.164718,0.192883,0.000000,0.014235,0.000000,162.000000,162.000000,0.000000,2.000000,0.000000,0.000000,0.000000,0.000000,0.000000,0.164718,0.192883,0.000000,0.014235,0.000000,162.000000,162.000000,0.000000,2.000000,0.000000,0.000000,0.000000,0.000000,0.000000;
#CREDIT:;
#NOTES:
// measure 0
0000
0000
0000
0000
,  // measure 1
0000
0000
0000
0000
,  // measure 2
0000
0000
0000
0000
,  // measure 3
0000
0000
0000
0000
,  // measure 4
0010
0000
0010
0000
,  // measure 5
0100
0000
0100
0000
,  // measure 6
1000
0000
1000
0000
,  // measure 7
0001
0000
0001
0000
,  // measure 8
0010
0000
0010
0000
,  // measure 9
1000
0001
1000
0001
,  // measure 10
0001
0010
0100
0000
,  // measure 11
1000
0000
0010
0010
,  // measure 12
0100
0000
0100
0000
,  // measure 13
0001
1000
0001
1000
,  // measure 14
1000
0100
0010
0000
,  // measure 15
0001
0000
0100
0100
,  // measure 16
0001
0000
0001
0000
,  // measure 17
0010
0100
0010
0100
,  // measure 18
0100
0001
1000
0000
,  // measure 19
0010
0000
0001
0001
,  // measure 20
1000
0000
1000
0000
,  // measure 21
0100
0010
0100
0010
,  // measure 22
0010
1000
0001
0000
,  // measure 23
0100
0000
1000
1000
,  // measure 24
0020
0000
0000
0000
,  // measure 25
0000
0000
0000
0000
,  // measure 26
0000
0000
0000
0000
,  // measure 27
0000
0000
0000
0030
,  // measure 28
0010
0000
0010
0000
,  // measure 29
0100
0000
0100
0000
,  // measure 30
1000
0000
1000
0000
,  // measure 31
0001
0000
0001
0000
,  // measure 32
0010
0000
0010
0000
,  // measure 33
1000
0001
1000
0001
,  // measure 34
0001
0010
0100
0000
,  // measure 35
1000
0000
0010
0010
,  // measure 36
0100
0000
0100
0000
,  // measure 37
0001
1000
0001
1000
,  // measure 38
1000
0100
0010
0000
,  // measure 39
0001
0000
0100
0100
,  // measure 40
0001
0000
0001
0000
,  // measure 41
0010
0100
0010
0100
,  // measure 42
0100
0001
1000
0000
,  // measure 43
0010
0000
0001
0001
,  // measure 44
1000
0000
1000
0000
,  // measure 45
0100
0010
0100
0010
,  // measure 46
0010
1000
0001
0000
,  // measure 47
0100
0000
1000
1000
,  // measure 48
0010
0000
0010
0000
,  // measure 49
1000
0001
1000
0001
,  // measure 50
0001
0010
0100
0000
,  // measure 51
1000
0000
0010
0010
,  // measure 52
0100
0000
0100
0000
,  // measure 53
0001
1000
0001
1000
,  // measure 54
1000
0100
0010
0000
,  // measure 55
0001
0000
0100
0100
,  // measure 56
0001
0000
0001
0000
,  // measure 57
0010
0100
0010
0100
,  // measure 58
0100
0001
1000
0000
,  // measure 59
0010
0000
0001
0001
,  // measure 60
1000
0000
1000
0000
,  // measure 61
0100
0010
0100
0010
,  // measure 62
0010
1000
0001
0000
,  // measure 63
0100
0000
1000
1000
,  // measure 64
0020
0000
0000
0000
,  // measure 65
0000
0000
0000
0000
,  // measure 66
0000
0000
0000
0000
,  // measure 67
0000
0000
0000
0030
;
