#VERSION:0.83;
#TITLE:Do Back Burn;
#SUBTITLE:;
#ARTIST:PRASTIK DANCEFLOOR;
#TITLETRANSLIT:;
#SUBTITLETRANSLIT:;
#ARTISTTRANSLIT:;
#GENRE:ELECTRO;
#ORIGIN:;
#CREDIT:;
#BANNER:;
#BACKGROUND:;
#PREVIEWVID:;
#JACKET:;
#CDIMAGE:;
#DISCIMAGE:;
#LYRICSPATH:;
#CDTITLE:;
#MUSIC:Do Back Burn.ogg;
#OFFSET:-0.348000;
#SAMPLESTART:14.465647;
#SAMPLELENGTH:15.000000;
#SELECTABLE:YES;
#BPMS:0.000=136.000;
#STOPS:;
#DELAYS:;
#WARPS:;
#TIMESIGNATURES:0.000=4=4;
#TICKCOUNTS:0.000=4;
#COMBOS:0.000=1;
#SPEEDS:0.000=1.000=0.000=0;
#SCROLLS:0.000=1.000;
#FAKES:;
#LABELS:0.000=Song Start;
#BGCHANGES:;
#KEYSOUNDS:;
#ATTACKS:
;

//---------------dance-single - ----------------
#NOTEDATA:;
#CHARTNAME:;
#STEPSTYPE:dance-single;
#DESCRIPTION:;
#CHARTSTYLE:;
#DIFFICULTY:Easy;
#METER:8;
#RADARVALUES:0.340283,0.356807,0.088221,0.058814,0.098024,243.000000,234.000000,9.000000,6.000000,0.000000,0.000000,0.000000,0.000000,0.000000,0.340283,0.356807,0.088221,0.058814,0.098024,243.000000,234.000000,9.000000,6.000000,0.000000,0.000000,0.000000,0.000000,0.000000;
#CREDIT:;
#NOTES:
0000
0000
0000
0000
,
0000
0000
0000
0000
,
0000
0000
0000
0000
,
0000
0000
0000
0000
,
0010
0000
0010
0000
0000
0100
0000
0000
0010
0000
1000
0000
0000
0001
0000
0000
,
0010
0000
0010
0000
0010
0000
0010
0010
,
0100
0000
0100
0000
0000
0010
0000
0000
0100
0000
0001
0000
0000
1000
0000
0000
,
0200
0000
0000
0300
0020
0000
0000
0030
,
1000
0100
0010
0001
,
1000
0000
0100
0000
0010
0000
0001
1000
,
0001
0010
0100
1000
,
0001
0000
0010
0000
0100
0000
1000
0001
,
0010
1000
0001
0100
,
0010
0000
1000
0000
0001
0000
0100
0010
,
0100
0001
1000
0010
,
0100
0000
0010
0100
0010
0000
0010
0100
,
1000
0100
0010
0001
,
1000
0000
0100
0000
0010
0000
0001
1000
,
0001
0010
0100
1000
,
0001
0000
0010
0000
0100
0000
1000
0001
,
0010
1000
0001
0100
,
0010
0000
1000
0000
0001
0000
0100
0010
,
0100
0001
1000
0010
,
0100
0000
0010
0100
0010
0000
0010
0100
,
1000
0000
0000
1000
0000
0000
0101
0000
,
0010
0000
0000
0010
0000
0000
1100
0000
,
0001
0000
0000
0001
0000
0000
1010
0000
,
0100
0000
0000
0100
0000
0000
0011
0000
,
1000
0000
0000
1000
0000
0000
0101
0000
,
0010
0000
0000
0010
0000
0000
1100
0000
,
0001
0000
0000
0001
0000
0000
1010
0000
,
0100
0000
0000
0100
0000
0000
0011
0000
,
0010
0100
1000
0000
0010
0100
0001
0000
,
0020
0000
0000
0030
,
0100
0010
0001
0000
0100
0010
1000
0000
,
0200
0000
0000
0300
,
0001
1000
0010
0000
0001
1000
0100
0000
,
0002
0000
0000
0003
,
1000
0001
0100
0000
1000
0001
0010
0000
,
2000
0000
0000
3000
,
0010
0000
0010
0000
0000
0100
0000
0000
0010
0000
1000
0000
0000
0001
0000
0000
,
0010
0000
0010
0000
0010
0000
0010
0010
,
0100
0000
0100
0000
0000
0010
0000
0000
0100
0000
0001
0000
0000
1000
0000
0000
,
0100
0000
0100
0000
0100
0000
0100
0100
,
0001
0000
0001
0000
0000
1000
0000
0000
0001
0000
0010
0000
0000
0100
0000
0000
,
0001
0000
0001
0000
0001
0000
0001
0001
,
1000
0000
1000
0000
0000
0001
0000
0000
1000
0000
0100
0000
0000
0010
0000
0000
,
1000
0000
1000
0000
1000
0000
1000
1000
,
0010
0000
0010
0000
0000
0100
0000
0000
0010
0000
1000
0000
0000
0001
0000
0000
,
0010
0000
0010
0000
0010
0000
0010
0010
,
0100
0000
0100
0000
0000
0010
0000
0000
0100
0000
0001
0000
0000
1000
0000
0000
,
0100
0000
0100
0000
0100
0000
0100
0100
,
0001
0000
0001
0000
0000
1000
0000
0000
0001
0000
0010
0000
0000
0100
0000
0000
,
0001
0000
0001
0000
0001
0000
0001
0001
,
1000
0000
1000
0000
0000
0001
0000
0000
1000
0000
0100
0000
0000
0010
0000
0000
,
1000
0000
1000
0000
1000
0000
1000
1000
,
1001
0000
0000
0000
;

//---------------dance-single - ----------------
#NOTEDATA:;
#CHARTNAME:;
#STEPSTYPE:dance-single;
#DESCRIPTION:;
#CHARTSTYLE:;
#DIFFICULTY:Beginner;
#METER:7;
#RADARVALUES:0.284269,0.301913,0.009802,0.049012,0.098024,203.000000,202.000000,1.000000,5.000000,0.000000,0.000000,0.000000,0.000000,0.000000,0.284269,0.301913,0.009802,0.049012,0.098024,203.000000,202.000000,1.000000,5.000000,0.000000,0.000000,0.000000,0.000000,0.000000;
#CREDIT:;
#NOTES:
0000
0000
0000
0000
,
0000
0000
0000
0000
,
0000
0000
0000
0000
,
0000
0000
0000
0000
,
0010
0000
0000
0000
0000
0100
0000
0000
0010
0000
1000
0000
0000
0001
0000
0000
,
0010
0010
0010
0010
,
0100
0000
0000
0000
0000
0010
0000
0000
0100
0000
0001
0000
0000
1000
0000
0000
,
0020
0000
0000
0000
0000
0000
0000
0030
,
1000
0100
0010
0001
,
1000
0100
0010
0001
,
0001
0010
0100
1000
,
0001
0010
0100
1000
,
0010
1000
0001
0100
,
0010
1000
0001
0100
,
0100
0001
1000
0010
,
0100
0000
0010
0000
0100
0000
0010
0100
,
1000
0100
0010
0001
,
1000
0100
0010
0001
,
0001
0010
0100
1000
,
0001
0010
0100
1000
,
0010
1000
0001
0100
,
0010
1000
0001
0100
,
0100
0001
1000
0010
,
0100
0000
0010
0000
0100
0000
0010
0100
,
1000
0000
0000
1000
0000
0000
0001
0000
,
0010
0000
0000
0010
0000
0000
1000
0000
,
0001
0000
0000
0001
0000
0000
1000
0000
,
0100
0000
0000
0100
0000
0000
0001
0000
,
1000
0000
0000
1000
0000
0000
0001
0000
,
0010
0000
0000
0010
0000
0000
1000
0000
,
0001
0000
0000
0001
0000
0000
1000
0000
,
0100
0000
0000
0100
0000
0000
0001
0000
,
0010
0000
1000
0000
0010
0100
0001
0000
,
0020
0000
0000
0030
,
0100
0000
0001
0000
0100
0010
1000
0000
,
0200
0000
0000
0300
,
0001
0000
0010
0000
0001
1000
0100
0000
,
0002
0000
0000
0003
,
1000
0000
0100
0000
1000
0001
0010
0000
,
2000
0000
0000
3000
,
0010
0000
0000
0000
0000
0100
0000
0000
0010
0000
1000
0000
0000
0001
0000
0000
,
0010
0010
0010
0010
,
0100
0000
0000
0000
0000
0010
0000
0000
0100
0000
0001
0000
0000
1000
0000
0000
,
0100
0100
0100
0100
,
0001
0000
0000
0000
0000
1000
0000
0000
0001
0000
0010
0000
0000
0100
0000
0000
,
0001
0001
0001
0001
,
1000
0000
0000
0000
0000
0001
0000
0000
1000
0000
0100
0000
0000
0010
0000
0000
,
1000
1000
1000
1000
,
0010
0000
0000
0000
0000
0100
0000
0000
0010
0000
1000
0000
0000
0001
0000
0000
,
0010
0010
0010
0010
,
0100
0000
0000
0000
0000
0010
0000
0000
0100
0000
0001
0000
0000
1000
0000
0000
,
0100
0100
0100
0100
,
0001
0000
0000
0000
0000
1000
0000
0000
0001
0000
0010
0000
0000
0100
0000
0000
,
0001
0001
0001
0001
,
1000
0000
0000
0000
0000
0001
0000
0000
1000
0000
0100
0000
0000
0010
0000
0000
,
1000
1000
1000
1000
,
1001
0000
0000
0000
;

//---------------dance-single - ----------------
#NOTEDATA:;
#CHARTNAME:;
#STEPSTYPE:dance-single;
#DESCRIPTION:;
#CHARTSTYLE:;
#DIFFICULTY:Medium;
#METER:9;
#RADARVALUES:0.390695,0.384253,0.166641,0.098024,0.098024,279.000000,262.000000,17.000000,10.000000,0.000000,0.000000,0.000000,0.000000,0.000000,0.390695,0.384253,0.166641,0.098024,0.098024,279.000000,262.000000,17.000000,10.000000,0.000000,0.000000,0.000000,0.000000,0.000000;
#CREDIT:;
#NOTES:
0000
0000
0000
0000
,
0000
0000
0000
0000
,
0000
0000
0000
0000
,
0000
0000
0000
0000
,
0010
0000
0010
0000
0000
0100
0000
0000
0010
0000
1000
0000
0000
0001
0000
0000
,
0010
0000
0010
0000
0010
0010
0010
0010
,
0100
0000
0100
0000
0000
0010
0000
0000
0100
0000
0001
0000
0000
1000
0000
0000
,
0200
0000
0010
0300
0020
0000
0100
0030
,
1000
0000
0100
0000
0010
1000
0001
0000
,
1000
0000
0100
0000
0010
0000
0001
1000
,
0001
0000
0010
0000
0100
0001
1000
0000
,
0001
0000
0010
0000
0100
0000
1000
0001
,
0010
0000
1000
0000
0001
0010
0100
0000
,
0010
0000
1000
0000
0001
0000
0100
0010
,
0100
0000
0001
0000
1000
0100
0010
0000
,
0100
0000
0010
0100
0010
0000
0010
0100
,
1000
0000
0100
0000
0010
1000
0001
0000
,
1000
0000
0100
0000
0010
0000
0001
1000
,
0001
0000
0010
0000
0100
0001
1000
0000
,
0001
0000
0010
0000
0100
0000
1000
0001
,
0010
0000
1000
0000
0001
0010
0100
0000
,
0010
0000
1000
0000
0001
0000
0100
0010
,
0100
0000
0001
0000
1000
0100
0010
0000
,
0010
0100
0010
0100
0010
0000
0010
0100
,
1010
0000
0000
1000
0000
0000
0101
0000
,
0011
0000
0000
0010
0000
0000
1100
0000
,
0101
0000
0000
0001
0000
0000
1010
0000
,
1100
0000
0000
0100
0000
0000
0011
0000
,
1010
0000
0000
1000
0000
0000
0101
0000
,
0011
0000
0000
0010
0000
0000
1100
0000
,
0101
0000
0000
0001
0000
0000
1010
0000
,
1100
0000
0000
0100
0000
0000
0011
0000
,
0010
0100
1000
0000
0010
0100
0001
0100
,
0020
0000
0200
0330
,
0100
0010
0001
0000
0100
0010
1000
0010
,
0200
0000
0020
0330
,
0001
1000
0010
0000
0001
1000
0100
1000
,
0002
0000
2000
3003
,
1000
0001
0100
0000
1000
0001
0010
0001
,
2000
0000
0002
3003
,
0010
0000
0010
0000
0000
0100
0000
0000
0010
0000
1000
0000
0000
0001
0000
0000
,
0010
0000
0010
0000
0010
0010
0010
0010
,
0100
0000
0100
0000
0000
0010
0000
0000
0100
0000
0001
0000
0000
1000
0000
0000
,
0100
0000
0100
0000
0100
0100
0100
0100
,
0001
0000
0001
0000
0000
1000
0000
0000
0001
0000
0010
0000
0000
0100
0000
0000
,
0001
0000
0001
0000
0001
0001
0001
0001
,
1000
0000
1000
0000
0000
0001
0000
0000
1000
0000
0100
0000
0000
0010
0000
0000
,
1000
0000
1000
0000
1000
1000
1000
1000
,
0010
0000
0010
0000
0000
0100
0000
0000
0010
0000
1000
0000
0000
0001
0000
0000
,
0010
0000
0010
0000
0010
0010
0010
0010
,
0100
0000
0100
0000
0000
0010
0000
0000
0100
0000
0001
0000
0000
1000
0000
0000
,
0100
0000
0100
0000
0100
0100
0100
0100
,
0001
0000
0001
0000
0000
1000
0000
0000
0001
0000
0010
0000
0000
0100
0000
0000
,
0001
0000
0001
0000
0001
0001
0001
0001
,
1000
0000
1000
0000
0000
0001
0000
0000
1000
0000
0100
0000
0000
0010
0000
0000
,
1000
0000
1000
0000
1000
1000
1000
1000
,
1001
0000
0000
0000
;

//---------------dance-single - ----------------
#NOTEDATA:;
#CHARTNAME:;
#STEPSTYPE:dance-single;
#DESCRIPTION:;
#CHARTSTYLE:;
#DIFFICULTY:Hard;
#METER:10;
#RADARVALUES:0.441107,0.439147,0.264664,0.058814,0.098024,315.000000,288.000000,27.000000,6.000000,0.000000,0.000000,0.000000,0.000000,0.000000,0.441107,0.439147,0.264664,0.058814,0.098024,315.000000,288.000000,27.000000,6.000000,0.000000,0.000000,0.000000,0.000000,0.000000;
#CREDIT:;
#NOTES:
0000
0000
0000
0000
,
0000
0000
0000
0000
,
0000
0000
0000
0000
,
0000
0000
0000
0000
,
0010
0000
0010
0000
0000
0110
0000
0000
0010
0000
1000
0000
0000
0001
0000
0000
,
0010
0100
0010
0000
0010
0010
0010
0010
,
0100
0000
0100
0000
0000
0110
0000
0000
0100
0000
0001
0000
0000
1000
0000
0000
,
0200
0000
0010
0300
0020
0000
0100
0130
,
1000
0000
0100
0000
0010
1000
0001
0000
,
1000
0000
0100
0000
0010
1000
0001
1000
,
0001
0000
0010
0000
0100
0001
1000
0000
,
0001
0000
0010
0000
0100
0001
1000
0001
,
0010
0000
1000
0000
0001
0010
0100
0000
,
0010
0000
1000
0000
0001
0010
0100
0010
,
0100
0000
0001
0000
1000
0100
0010
0000
,
0100
0000
0010
0100
0010
0100
0010
0100
,
1000
0000
0100
0000
0010
1000
0001
0000
,
1000
0000
0100
0000
0010
1000
0001
1000
,
0001
0000
0010
0000
0100
0001
1000
0000
,
0001
0000
0010
0000
0100
0001
1000
0001
,
0010
0000
1000
0000
0001
0010
0100
0000
,
0010
0000
1000
0000
0001
0010
0100
0010
,
0100
0000
0001
0000
1000
0100
0010
0000
,
0010
0100
0010
0100
0010
0100
0010
0100
,
1010
0000
0000
1000
0000
0000
0101
0000
,
0011
0000
0001
0010
0000
0000
1100
0000
,
0101
0000
0000
0001
0000
0000
1010
0000
,
1100
0000
1000
0100
0000
0000
0011
0000
,
1010
0000
0000
1000
0000
0000
0101
0000
,
0011
0000
0001
0010
0000
0000
1100
0000
,
0101
0000
0000
0001
0000
0000
1010
0000
,
1100
0000
1000
0100
0000
0000
0011
0000
,
0010
0100
1000
0000
0010
0100
0001
0100
,
0020
0000
0100
0130
,
0100
0010
0001
0000
0100
0010
1000
0010
,
0200
0000
0010
0310
,
0001
1000
0010
0000
0001
1000
0100
1000
,
0002
0000
1000
1003
,
1000
0001
0100
0000
1000
0001
0010
0001
,
2000
0000
0001
3001
,
0010
0000
0010
0000
0000
0110
0000
0000
0010
0000
1000
0000
0000
0001
0000
0000
,
0010
0100
0010
0000
0010
0010
0010
0010
,
0100
0000
0100
0000
0000
0110
0000
0000
0100
0000
0001
0000
0000
1000
0000
0000
,
0100
0010
0100
0000
0100
0100
0100
0100
,
0001
0000
0001
0000
0000
1001
0000
0000
0001
0000
0010
0000
0000
0100
0000
0000
,
0001
1000
0001
0000
0001
0001
0001
0001
,
1000
0000
1000
0000
0000
1001
0000
0000
1000
0000
0100
0000
0000
0010
0000
0000
,
1000
0001
1000
0000
1000
1000
1000
1000
,
0010
0000
0010
0000
0000
0110
0000
0000
0010
0000
1000
0000
0000
0001
0000
0000
,
0010
0100
0010
0000
0010
0010
0010
0010
,
0100
0000
0100
0000
0000
0110
0000
0000
0100
0000
0001
0000
0000
1000
0000
0000
,
0100
0010
0100
0000
0100
0100
0100
0100
,
0001
0000
0001
0000
0000
1001
0000
0000
0001
0000
0010
0000
0000
0100
0000
0000
,
0001
1000
0001
0000
0001
0001
0001
0001
,
1000
0000
1000
0000
0000
1001
0000
0000
1000
0000
0100
0000
0000
0010
0000
0000
,
1000
0001
1000
0000
1000
1000
1000
1000
,
1001
0000
0000
0000
;

//---------------dance-single - ----------------
#NOTEDATA:;
#CHARTNAME:;
#STEPSTYPE:dance-single;
#DESCRIPTION:;
#CHARTSTYLE:;
#DIFFICULTY:Challenge;
#METER:11;
#RADARVALUES:0.494320,0.494040,0.362688,0.058814,0.098024,353.000000,316.000000,37.000000,6.000000,0.000000,0.000000,0.000000,0.000000,0.000000,0.494320,0.494040,0.362688,0.058814,0.098024,353.000000,316.000000,37.000000,6.000000,0.000000,0.000000,0.000000,0.000000,0.000000;
#CREDIT:;
#NOTES:
// measure 0
0000
0000
0000
0000
,  // measure 1
0000
0000
0000
0000
,  // measure 2
0000
0000
0000
0000
,  // measure 3
0000
0000
0000
0000
,  // measure 4
0010
0000
0010
0000
0000
0110
0000
0000
0010
0000
1000
0000
0000
0011
0000
0000
,  // measure 5
0010
0100
0010
0000
0010
0010
0010
0010
,  // measure 6
0100
0000
0100
0000
0000
0110
0000
0000
0100
0000
0001
0000
0000
1100
0000
0000
,  // measure 7
0200
0000
0010
0300
0020
0000
0100
0130
,  // measure 8
1000
0000
0100
0001
0010
1000
0001
0000
,  // measure 9
1000
0000
0100
0000
0010
1000
0001
1000
,  // measure 10
0001
0000
0010
1000
0100
0001
1000
0000
,  // measure 11
0001
0000
0010
0000
0100
0001
1000
0001
,  // measure 12
0010
0000
1000
0100
0001
0010
0100
0000
,  // measure 13
0010
0000
1000
0000
0001
0010
0100
0010
,  // measure 14
0100
0000
0001
0010
1000
0100
0010
0000
,  // measure 15
0100
0000
0010
0100
0010
0100
0010
0100
,  // measure 16
1000
0000
0100
0001
0010
1000
0001
0000
,  // measure 17
1000
0000
0100
0000
0010
1000
0001
1000
,  // measure 18
0001
0000
0010
1000
0100
0001
1000
0000
,  // measure 19
0001
0000
0010
0000
0100
0001
1000
0001
,  // measure 20
0010
0000
1000
0100
0001
0010
0100
0000
,  // measure 21
0010
0000
1000
0000
0001
0010
0100
0010
,  // measure 22
0100
0000
0001
0010
1000
0100
0010
0000
,  // measure 23
0010
0100
0010
0100
0010
0100
0010
0100
,  // measure 24
1010
0000
0010
1000
0000
0000
0101
0000
,  // measure 25
0011
0000
0001
0010
0000
0000
1100
0000
,  // measure 26
0101
0000
0100
0001
0000
0000
1010
0000
,  // measure 27
1100
0000
1000
0100
0000
0000
0011
0000
,  // measure 28
1010
0000
0010
1000
0000
0000
0101
0000
,  // measure 29
0011
0000
0001
0010
0000
0000
1100
0000
,  // measure 30
0101
0000
0100
0001
0000
0000
1010
0000
,  // measure 31
1100
0000
1000
0100
0000
0000
0011
0000
,  // measure 32
0010
0100
1000
0100
0010
0100
0001
0100
,  // measure 33
0020
0100
0100
0130
,  // measure 34
0100
0010
0001
0010
0100
0010
1000
0010
,  // measure 35
0200
0010
0010
0310
,  // measure 36
0001
1000
0010
1000
0001
1000
0100
1000
,  // measure 37
0002
1000
1000
1003
,  // measure 38
1000
0001
0100
0001
1000
0001
0010
0001
,  // measure 39
2000
0001
0001
3001
,  // measure 40
0010
0000
0010
0000
0000
0110
0000
0000
0010
0000
1000
0000
0000
0011
0000
0000
,  // measure 41
0010
0100
0010
0100
0010
0010
0010
0010
,  // measure 42
0100
0000
0100
0000
0000
0110
0000
0000
0100
0000
0001
0000
0000
1100
0000
0000
,  // measure 43
0100
0010
0100
0010
0100
0100
0100
0100
,  // measure 44
0001
0000
0001
0000
0000
1001
0000
0000
0001
0000
0010
0000
0000
0101
0000
0000
,  // measure 45
0001
1000
0001
1000
0001
0001
0001
0001
,  // measure 46
1000
0000
1000
0000
0000
1001
0000
0000
1000
0000
0100
0000
0000
1010
0000
0000
,  // measure 47
1000
0001
1000
0001
1000
1000
1000
1000
,  // measure 48
0010
0000
0010
0000
0000
0110
0000
0000
0010
0000
1000
0000
0000
0011
0000
0000
,  // measure 49
0010
0100
0010
0100
0010
0010
0010
0010
,  // measure 50
0100
0000
0100
0000
0000
0110
0000
0000
0100
0000
0001
0000
0000
1100
0000
0000
,  // measure 51
0100
0010
0100
0010
0100
0100
0100
0100
,  // measure 52
0001
0000
0001
0000
0000
1001
0000
0000
0001
0000
0010
0000
0000
0101
0000
0000
,  // measure 53
0001
1000
0001
1000
0001
0001
0001
0001
,  // measure 54
1000
0000
1000
0000
0000
1001
0000
0000
1000
0000
0100
0000
0000
1010
0000
0000
,  // measure 55
1000
0001
1000
0001
1000
1000
1000
1000
,  // measure 56
1001
0000
0000
0000
;

//---------------dance-single - Enjoy----------------
#NOTEDATA:;
#CHARTNAME:;
#STEPSTYPE:dance-single;
#DESCRIPTION:Enjoy;
#CHARTSTYLE:;
#DIFFICULTY:Edit;
#METER:1;
#RADARVALUES:0.042010,0.082340,0.029407,0.000000,0.000000,30.000000,27.000000,3.000000,0.000000,0.000000,0.000000,0.000000,0.000000,0.000000,0.042010,0.082340,0.029407,0.000000,0.000000,30.000000,27.000000,3.000000,0.000000,0.000000,0.000000,0.000000,0.000000,0.000000;
#CREDIT:;
#NOTES:
// measure 0
0000
0000
0000
0000
,  // measure 1
0000
0000
0000
0000
,  // measure 2
0000
0000
0000
0000
,  // measure 3
0000
0000
0000
0000
,  // measure 4
0001
0000
0000
0000
,  // measure 5
0000
0000
0000
0000
,  // measure 6
1000
0000
0000
0000
,  // measure 7
0000
0000
0000
0000
,  // measure 8
0010
0000
0000
0000
,  // measure 9
0000
0000
0000
0000
,  // measure 10
0100
0000
0000
0000
,  // measure 11
0000
0000
0000
0000
,  // measure 12
0010
0000
0000
0000
,  // measure 13
0000
0000
0000
0000
,  // measure 14
0100
0000
0000
0000
,  // measure 15
0000
0000
0000
0000
,  // measure 16
0010
0000
0000
0000
,  // measure 17
0000
0000
0000
0000
,  // measure 18
0100
0000
0000
0000
,  // measure 19
0000
0000
0000
0000
,  // measure 20
0010
0000
0000
0000
,  // measure 21
0000
0000
0000
0000
,  // measure 22
0100
0000
0000
0000
,  // measure 23
0000
0000
0000
0000
,  // measure 24
1001
0000
0000
0000
,  // measure 25
0000
0000
0000
0000
,  // measure 26
1000
0000
0000
0000
,  // measure 27
0000
0000
0000
0000
,  // measure 28
1001
0000
0000
0000
,  // measure 29
0000
0000
0000
0000
,  // measure 30
0001
0000
0000
0000
,  // measure 31
0000
0000
0000
0000
,  // measure 32
1000
0000
0000
0000
,  // measure 33
0000
0000
0000
0000
,  // measure 34
0001
0000
0000
0000
,  // measure 35
0000
0000
0000
0000
,  // measure 36
1000
0000
0000
0000
,  // measure 37
0000
0000
0000
0000
,  // measure 38
0001
0000
0000
0000
,  // measure 39
0000
0000
0000
0000
,  // measure 40
0010
0000
0000
0000
,  // measure 41
0000
0000
0000
0000
,  // measure 42
0100
0000
0000
0000
,  // measure 43
0000
0000
0000
0000
,  // measure 44
0010
0000
0000
0000
,  // measure 45
0000
0000
0000
0000
,  // measure 46
0100
0000
0000
0000
,  // measure 47
0000
0000
0000
0000
,  // measure 48
0010
0000
0000
0000
,  // measure 49
0000
0000
0000
0000
,  // measure 50
0100
0000
0000
0000
,  // measure 51
0000
0000
0000
0000
,  // measure 52
0010
0000
0000
0000
,  // measure 53
0000
0000
0000
0000
,  // measure 54
0100
0000
0000
0000
,  // measure 55
0000
0000
0000
0000
,  // measure 56
1001
0000
0000
0000
;
