#VERSION:0.83;
#TITLE:Devastating Blaster;
#SUBTITLE:;
#ARTIST:INNOCENT NOIZE;
#TITLETRANSLIT:;
#SUBTITLETRANSLIT:;
#ARTISTTRANSLIT:siromaru;
#GENRE:;
#ORIGIN:;
#CREDIT:;
#BANNER:;
#BACKGROUND:;
#PREVIEWVID:;
#JACKET:;
#CDIMAGE:;
#DISCIMAGE:;
#LYRICSPATH:;
#CDTITLE:;
#MUSIC:Devastating Blaster.ogg;
#OFFSET:-0.841000;
#SAMPLESTART:99.841003;
#SAMPLELENGTH:15.000000;
#SELECTABLE:YES;
#BPMS:0.000=160.000;
#STOPS:;
#DELAYS:;
#WARPS:;
#TIMESIGNATURES:0.000=4=4;
#TICKCOUNTS:0.000=4;
#COMBOS:0.000=1;
#SPEEDS:0.000=1.000=0.000=0;
#SCROLLS:0.000=1.000;
#FAKES:;
#LABELS:0.000=Song Start;
#BGCHANGES:;
#KEYSOUNDS:;
#ATTACKS:
;

//---------------dance-single - ----------------
#NOTEDATA:;
#CHARTNAME:;
#STEPSTYPE:dance-single;
#DESCRIPTION:;
#CHARTSTYLE:;
#DIFFICULTY:Easy;
#METER:17;
#RADARVALUES:0.789713,0.995039,0.193480,0.829199,1.008859,800.000000,772.000000,28.000000,120.000000,0.000000,0.000000,0.000000,0.000000,0.000000,0.789713,0.995039,0.193480,0.829199,1.008859,800.000000,772.000000,28.000000,120.000000,0.000000,0.000000,0.000000,0.000000,0.000000;
#CREDIT:;
#NOTES:
// measure 0
0000
0000
0000
0000
,  // measure 1
0000
0000
0000
0000
,  // measure 2
0000
0000
0000
0000
,  // measure 3
0000
0000
0000
0000
,  // measure 4
0000
0000
0000
0000
,  // measure 5
0000
0000
0000
0000
,  // measure 6
0001
0010
0000
0000
0010
0100
0000
0000
1000
0001
0000
0000
1000
0001
1000
0010
,  // measure 7
1000
0100
0000
0000
0100
0010
0000
0000
0001
1000
0000
0000
0001
1000
0001
0100
,  // measure 8
0010
1000
0000
0000
1000
0001
0000
0000
0100
0010
0000
0000
0100
0010
0100
1000
,  // measure 9
0020
0230
2300
3200
0320
0032
0023
0230
,  // measure 10
0310
0000
0010
0000
0020
0000
0000
0030
,  // measure 11
0001
0010
0000
0000
0010
0100
0000
0000
1000
0001
0000
0000
1000
0001
1000
0010
,  // measure 12
0100
0000
0100
0000
0200
0000
0000
0300
,  // measure 13
1000
0100
0000
0000
0100
0010
0000
0000
0001
1000
0000
0000
0001
1000
0001
0100
,  // measure 14
0001
0000
0001
0000
0002
0000
0000
0003
,  // measure 15
0100
0001
0000
0000
0001
1000
0000
0000
0010
0100
0000
0000
0010
0100
0010
0001
,  // measure 16
1000
0000
1000
0000
2000
0000
0000
3000
,  // measure 17
0010
1000
0000
0000
1000
0001
0000
0000
0100
0010
0000
0000
0100
0010
0100
1000
,  // measure 18
0020
0000
0200
0030
,  // measure 19
0002
0000
0300
0000
0020
0000
0000
0033
,  // measure 20
1000
0000
1000
0000
0001
1000
0001
1000
0100
0010
0001
0010
0200
0000
0000
0000
,  // measure 21
0310
0000
0010
0000
0100
0000
0100
0000
0010
1000
0010
0001
0010
1000
0010
0001
,  // measure 22
0200
0000
0020
0300
,  // measure 23
2000
0000
0030
0000
0200
0000
0000
3300
,  // measure 24
0001
0000
0001
0000
1000
0001
1000
0001
0010
0100
1000
0100
0020
0000
0000
0000
,  // measure 25
0130
0000
0100
0000
0010
0000
0010
0000
0100
0001
0100
1000
0100
0001
0100
1000
,  // measure 26
0002
0000
2000
0003
,  // measure 27
0200
0000
3000
0000
0002
0000
0000
0303
,  // measure 28
0010
0000
0010
0000
0100
0010
0100
0010
1000
0001
0100
0001
2000
0000
0000
0000
,  // measure 29
3001
0000
0001
0000
1000
0000
1000
0000
0001
0010
0001
0100
0001
0010
0001
0100
,  // measure 30
2002
0000
0000
0000
,  // measure 31
0000
0000
0000
3003
,  // measure 32
1000
0001
2000
0002
0000
0000
3003
0000
0100
0010
0200
0020
0000
0000
0330
0000
,  // measure 33
1000
0100
0010
0001
1000
0100
0010
0001
0200
0000
0000
0000
0000
0000
0300
0000
,  // measure 34
2000
3002
0023
0032
,  // measure 35
0103
0010
0000
0000
1000
0010
0000
0000
0001
0100
0000
0000
0001
0100
0001
1000
,  // measure 36
0002
2003
3200
2300
,  // measure 37
3010
0100
0000
0000
0001
0100
0000
0000
1000
0010
0000
0000
1000
0010
1000
0001
,  // measure 38
2000
3002
0023
0032
,  // measure 39
0103
0010
0000
0000
1000
0010
0000
0000
0001
0100
0000
0000
0001
0100
0001
1000
,  // measure 40
0002
2003
3200
2300
,  // measure 41
3010
0000
0010
0000
0010
0000
0010
0000
0100
0001
0100
0000
0010
1000
0010
1000
,  // measure 42
0200
0000
0320
0000
2030
0000
3002
0000
0103
0010
0100
0001
0100
0010
0100
1000
,  // measure 43
0002
0000
0023
0000
0230
0000
0302
0000
1003
0100
0010
0000
0001
0010
0100
0000
,  // measure 44
0020
0000
0230
0000
0302
0000
2003
0000
3010
0100
0010
1000
0010
0100
0010
0001
,  // measure 45
2000
0000
3200
0000
0320
0000
2030
0000
3001
0010
0100
0000
1000
0100
0010
0000
,  // measure 46
2000
0000
3002
0000
0023
0000
0230
0000
1300
0001
1000
0100
1000
0001
1000
0010
,  // measure 47
0200
0000
0302
0000
2003
0000
3200
0000
0310
1000
0001
0000
0100
0001
1000
0000
,  // measure 48
0002
0000
2003
0000
3200
0000
0320
0000
0031
1000
0001
0010
0001
1000
0001
0100
,  // measure 49
0020
0000
2030
0000
3002
0000
0023
0000
0130
0001
1000
0000
0010
1000
0001
0000
,  // measure 50
0020
0100
0000
0100
0000
0000
0100
0000
2030
0000
0000
0000
3001
0010
0100
1000
,  // measure 51
0002
0010
0000
0100
0000
0000
1000
0000
0203
0000
0000
0000
0310
0100
0010
0001
,  // measure 52
0200
0010
0000
0010
0000
0000
0010
0000
0302
0000
0000
0000
1003
0100
0010
0001
,  // measure 53
2000
0100
0000
0010
0000
0000
0001
0000
3020
0000
0000
0000
0130
0010
0100
1000
,  // measure 54
0002
1000
0000
1000
0000
0000
1000
0000
0023
0000
0000
0000
0130
0001
1000
0010
,  // measure 55
0200
0001
0000
1000
0000
0000
0010
0000
2300
0000
0000
0000
3001
1000
0001
0100
,  // measure 56
2000
0001
0000
0001
0000
0000
0001
0000
3200
0000
0000
0000
0310
1000
0001
0100
,  // measure 57
0020
1000
0000
0001
0000
0000
0100
0000
0032
0000
0000
0000
1003
0001
1000
0010
,  // measure 58
0020
0100
0000
0100
0000
0000
0100
0000
2030
0000
0000
0000
3001
0010
0100
1000
,  // measure 59
0002
0010
0000
0100
0000
0000
1000
0000
0203
0000
0000
0000
0310
0100
0010
0001
,  // measure 60
0200
0010
0000
0010
0000
0000
0010
0000
0302
0000
0000
0000
1003
0100
0010
0001
,  // measure 61
2000
0100
0000
0010
0000
0000
0001
0000
3020
0000
0000
0000
0130
0010
0100
1000
,  // measure 62
0002
1000
0000
1000
0000
0000
1000
0000
0023
0000
0000
0000
0130
0001
1000
0010
,  // measure 63
0200
0001
0000
1000
0000
0000
0010
0000
2300
0000
0000
0000
3001
1000
0001
0100
,  // measure 64
2000
0001
0000
0001
0000
0000
0001
0000
3200
0000
0000
0000
0310
1000
0001
0100
,  // measure 65
0020
1000
0000
0001
0000
0000
0100
0000
0031
0100
0010
0001
1000
0001
1000
0010
,  // measure 66
0100
0010
1000
0010
0100
0010
0001
0000
0010
0100
0010
1000
0100
0010
0001
0100
,  // measure 67
0001
0010
1000
0010
0100
0010
1000
0000
0010
0100
0010
1000
0100
0010
0010
0100
,  // measure 68
0010
0100
0001
0100
0010
0100
1000
0000
0100
0010
0100
0001
0010
0100
1000
0010
,  // measure 69
1000
0100
0001
0100
0010
0100
0001
0000
0100
0010
0100
0001
0010
0100
0100
0010
,  // measure 70
1000
0001
0010
0001
1000
0001
0100
0000
0001
1000
0001
0010
1000
0001
0100
1000
,  // measure 71
0100
0001
0010
0001
1000
0001
0010
0000
0001
1000
0001
0010
1000
0001
0001
1000
,  // measure 72
0001
1000
0100
1000
0001
1000
0010
0000
1000
0001
1000
0100
0001
1000
0010
0001
,  // measure 73
0010
1000
0100
1000
0001
1000
0100
0000
1000
0001
1000
0100
0001
1000
1000
0001
,  // measure 74
0110
0000
0010
0000
0011
0000
0001
0000
1001
0100
0010
1000
0100
0010
0001
0100
,  // measure 75
1010
0000
0010
0000
0110
0000
0100
0000
0101
0010
1000
0100
1000
0001
0100
0001
,  // measure 76
0110
0000
0100
0000
1100
0000
1000
0000
1001
0010
0100
0001
0010
0100
1000
0010
,  // measure 77
0101
0000
0100
0000
0110
0000
0010
0000
1010
0100
0001
0010
0001
1000
0010
1000
,  // measure 78
1001
0000
0001
0000
0101
0000
0100
0000
0110
1000
0001
0010
1000
0001
0100
1000
,  // measure 79
0011
0000
0001
0000
1001
0000
1000
0000
1100
0001
0010
1000
0010
0100
1000
0100
,  // measure 80
1001
0000
1000
0000
1010
0000
0010
0000
0110
0001
1000
0100
0001
1000
0010
0001
,  // measure 81
1100
0000
1000
0000
1001
0000
0001
0000
0011
1000
0100
0001
0100
0010
0001
0020
,  // measure 82
0000
0000
0000
0030
1000
0100
0010
0001
1000
0100
0010
0001
1000
0100
0010
0001
,  // measure 83
1000
0100
0010
0001
1000
0100
0010
0001
1000
0100
0010
0001
1000
0100
0010
0001
,  // measure 84
0100
0100
0100
0100
0100
0100
0100
0100
,  // measure 85
0100
0100
0100
0100
0200
0000
0000
0300
,  // measure 86
2020
0000
0000
0000
0000
0000
3030
0000
0010
0001
0010
0001
0010
0001
0010
0001
,  // measure 87
0202
0000
0000
0000
0000
0000
0303
0000
0100
1000
0100
1000
0100
1000
0100
1000
,  // measure 88
0100
0100
0000
0000
0010
0010
0000
0000
1000
1000
0000
0000
0001
0001
0000
0000
,  // measure 89
0020
0000
0000
0030
0100
0100
0000
0000
0001
0001
0000
0000
1000
1000
0000
0000
,  // measure 90
1001
0000
0000
0000
;

//---------------dance-single - ----------------
#NOTEDATA:;
#CHARTNAME:;
#STEPSTYPE:dance-single;
#DESCRIPTION:;
#CHARTSTYLE:;
#DIFFICULTY:Beginner;
#METER:17;
#RADARVALUES:0.738382,0.963944,0.193480,0.829199,0.908664,748.000000,720.000000,28.000000,120.000000,0.000000,0.000000,0.000000,0.000000,0.000000,0.738382,0.963944,0.193480,0.829199,0.908664,748.000000,720.000000,28.000000,120.000000,0.000000,0.000000,0.000000,0.000000,0.000000;
#CREDIT:;
#NOTES:
// measure 0
0000
0000
0000
0000
,  // measure 1
0000
0000
0000
0000
,  // measure 2
0000
0000
0000
0000
,  // measure 3
0000
0000
0000
0000
,  // measure 4
0000
0000
0000
0000
,  // measure 5
0000
0000
0000
0000
,  // measure 6
0001
0010
0000
0000
0010
0100
0000
0000
1000
0001
0000
0000
1000
0001
1000
0010
,  // measure 7
1000
0100
0000
0000
0100
0010
0000
0000
0001
1000
0000
0000
0001
1000
0001
0100
,  // measure 8
0010
1000
0000
0000
1000
0001
0000
0000
0100
0010
0000
0000
0100
0010
0100
1000
,  // measure 9
0020
0230
2300
3200
0320
0032
0023
0230
,  // measure 10
0310
0000
0010
0000
0020
0000
0000
0030
,  // measure 11
0001
0010
0000
0000
0010
0100
0000
0000
1000
0001
0000
0000
1000
0001
1000
0000
,  // measure 12
0100
0000
0100
0000
0200
0000
0000
0300
,  // measure 13
1000
0100
0000
0000
0100
0010
0000
0000
0001
1000
0000
0000
0001
1000
0001
0000
,  // measure 14
0001
0000
0001
0000
0002
0000
0000
0003
,  // measure 15
0100
0001
0000
0000
0001
1000
0000
0000
0010
0100
0000
0000
0010
0100
0010
0000
,  // measure 16
1000
0000
1000
0000
2000
0000
0000
3000
,  // measure 17
0010
1000
0000
0000
1000
0001
0000
0000
0100
0010
0000
0000
0100
0010
0100
0000
,  // measure 18
0020
0000
0200
0030
,  // measure 19
0002
0000
0300
0000
0020
0000
0000
0033
,  // measure 20
1000
0000
1000
0000
0001
1000
0001
1000
0100
0010
0001
0000
0200
0000
0000
0000
,  // measure 21
0310
0000
0010
0000
0100
0000
0100
0000
0010
1000
0010
0001
0010
1000
0010
0000
,  // measure 22
0200
0000
0020
0300
,  // measure 23
2000
0000
0030
0000
0200
0000
0000
3300
,  // measure 24
0001
0000
0001
0000
1000
0001
1000
0001
0010
0100
1000
0000
0020
0000
0000
0000
,  // measure 25
0130
0000
0100
0000
0010
0000
0010
0000
0100
0001
0100
1000
0100
0001
0100
0000
,  // measure 26
0002
0000
2000
0003
,  // measure 27
0200
0000
3000
0000
0002
0000
0000
0303
,  // measure 28
0010
0000
0010
0000
0100
0010
0100
0010
1000
0001
0100
0000
2000
0000
0000
0000
,  // measure 29
3001
0000
0001
0000
1000
0000
1000
0000
0001
0010
0001
0100
0001
0010
0001
0000
,  // measure 30
2002
0000
0000
0000
,  // measure 31
0000
0000
0000
3003
,  // measure 32
1000
0001
2000
0002
0000
0000
3003
0000
0100
0010
0200
0020
0000
0000
0330
0000
,  // measure 33
1000
0100
0010
0001
1000
0100
0010
0001
0200
0000
0000
0000
0000
0000
0300
0000
,  // measure 34
2000
3002
0023
0032
,  // measure 35
0103
0010
0000
0000
1000
0010
0000
0000
0001
0100
0000
0000
0001
0100
0001
0000
,  // measure 36
0002
2003
3200
2300
,  // measure 37
3010
0100
0000
0000
0001
0100
0000
0000
1000
0010
0000
0000
1000
0010
1000
0000
,  // measure 38
2000
3002
0023
0032
,  // measure 39
0103
0010
0000
0000
1000
0010
0000
0000
0001
0100
0000
0000
0001
0100
0001
0000
,  // measure 40
0002
2003
3200
2300
,  // measure 41
3010
0000
0010
0000
0010
0000
0010
0000
0100
0001
0100
0000
0010
1000
0010
0000
,  // measure 42
0200
0000
0320
0000
2030
0000
3002
0000
0103
0010
0100
0001
0100
0010
0100
0000
,  // measure 43
0002
0000
0023
0000
0230
0000
0302
0000
1003
0100
0010
0000
0001
0010
0100
0000
,  // measure 44
0020
0000
0230
0000
0302
0000
2003
0000
3010
0100
0010
1000
0010
0100
0010
0000
,  // measure 45
2000
0000
3200
0000
0320
0000
2030
0000
3001
0010
0100
0000
1000
0100
0010
0000
,  // measure 46
2000
0000
3002
0000
0023
0000
0230
0000
1300
0001
1000
0100
1000
0001
1000
0000
,  // measure 47
0200
0000
0302
0000
2003
0000
3200
0000
0310
1000
0001
0000
0100
0001
1000
0000
,  // measure 48
0002
0000
2003
0000
3200
0000
0320
0000
0031
1000
0001
0010
0001
1000
0001
0000
,  // measure 49
0020
0000
2030
0000
3002
0000
0023
0000
0130
0001
1000
0000
0010
1000
0001
0000
,  // measure 50
0020
0100
0000
0100
0000
0000
0100
0000
2030
0000
0000
0000
3000
0010
0100
1000
,  // measure 51
0002
0010
0000
0100
0000
0000
1000
0000
0203
0000
0000
0000
0300
0100
0010
0001
,  // measure 52
0200
0010
0000
0010
0000
0000
0010
0000
0302
0000
0000
0000
0003
0100
0010
0001
,  // measure 53
2000
0100
0000
0010
0000
0000
0001
0000
3020
0000
0000
0000
0030
0010
0100
1000
,  // measure 54
0002
1000
0000
1000
0000
0000
1000
0000
0023
0000
0000
0000
0030
0001
1000
0010
,  // measure 55
0200
0001
0000
1000
0000
0000
0010
0000
2300
0000
0000
0000
3000
1000
0001
0100
,  // measure 56
2000
0001
0000
0001
0000
0000
0001
0000
3200
0000
0000
0000
0300
1000
0001
0100
,  // measure 57
0020
1000
0000
0001
0000
0000
0100
0000
0032
0000
0000
0000
0003
0001
1000
0010
,  // measure 58
0020
0100
0000
0100
0000
0000
0100
0000
2030
0000
0000
0000
3000
0010
0100
1000
,  // measure 59
0002
0010
0000
0100
0000
0000
1000
0000
0203
0000
0000
0000
0300
0100
0010
0001
,  // measure 60
0200
0010
0000
0010
0000
0000
0010
0000
0302
0000
0000
0000
0003
0100
0010
0001
,  // measure 61
2000
0100
0000
0010
0000
0000
0001
0000
3020
0000
0000
0000
0030
0010
0100
1000
,  // measure 62
0002
1000
0000
1000
0000
0000
1000
0000
0023
0000
0000
0000
0030
0001
1000
0010
,  // measure 63
0200
0001
0000
1000
0000
0000
0010
0000
2300
0000
0000
0000
3000
1000
0001
0100
,  // measure 64
2000
0001
0000
0001
0000
0000
0001
0000
3200
0000
0000
0000
0300
1000
0001
0100
,  // measure 65
0020
1000
0000
0001
0000
0000
0100
0000
0030
0100
0010
0001
1000
0100
0010
0000
,  // measure 66
0100
0010
1000
0000
0100
0010
0001
0000
0010
0100
0010
1000
0100
0010
0001
0100
,  // measure 67
0001
0010
1000
0000
0100
0010
1000
0000
0010
0100
0010
1000
0100
0010
0010
0100
,  // measure 68
0010
0100
0001
0000
0010
0100
1000
0000
0100
0010
0100
0001
0010
0100
1000
0010
,  // measure 69
1000
0100
0001
0000
0010
0100
0001
0000
0100
0010
0100
0001
0010
0100
0100
0010
,  // measure 70
1000
0001
0010
0000
1000
0001
0100
0000
0001
1000
0001
0010
1000
0001
0100
1000
,  // measure 71
0100
0001
0010
0000
1000
0001
0010
0000
0001
1000
0001
0010
1000
0001
0001
1000
,  // measure 72
0001
1000
0100
0000
0001
1000
0010
0000
1000
0001
1000
0100
0001
1000
0010
0001
,  // measure 73
0010
1000
0100
0000
0001
1000
0100
0000
1000
0001
1000
0100
0001
1000
1000
0001
,  // measure 74
0110
0000
0000
0000
0011
0000
0001
0000
1001
0100
0010
1000
0100
0010
0001
0100
,  // measure 75
1010
0000
0000
0000
0110
0000
0100
0000
0101
0010
1000
0100
1000
0001
0100
0001
,  // measure 76
0110
0000
0000
0000
1100
0000
1000
0000
1001
0010
0100
0001
0010
0100
1000
0010
,  // measure 77
0101
0000
0000
0000
0110
0000
0010
0000
1010
0100
0001
0010
0001
1000
0010
1000
,  // measure 78
1001
0000
0000
0000
0101
0000
0100
0000
0110
1000
0001
0010
1000
0001
0100
1000
,  // measure 79
0011
0000
0000
0000
1001
0000
1000
0000
1100
0001
0010
1000
0010
0100
1000
0100
,  // measure 80
1001
0000
0000
0000
1010
0000
0010
0000
0110
0001
1000
0100
0001
1000
0010
0001
,  // measure 81
1100
0000
1000
0000
1001
0000
0001
0000
0011
1000
0100
0001
0100
0010
0001
0020
,  // measure 82
0000
0000
0000
0030
1000
0001
1000
0001
1000
0001
1000
0001
1000
0001
1000
0001
,  // measure 83
1000
0001
1000
0001
1000
0001
1000
0001
1000
0001
1000
0001
1000
0001
1000
0001
,  // measure 84
0100
0100
0100
0100
0100
0100
0100
0100
,  // measure 85
0100
0100
0100
0100
0200
0000
0000
0300
,  // measure 86
2020
0000
0000
0000
0000
0000
3030
0000
0010
0001
0010
0001
0010
0001
0010
0000
,  // measure 87
0202
0000
0000
0000
0000
0000
0303
0000
0100
1000
0100
1000
0100
1000
0100
0000
,  // measure 88
0100
0010
0000
0000
0010
0100
0000
0000
1000
0001
0000
0000
0001
1000
0000
0000
,  // measure 89
0020
0000
0000
0030
0100
0010
0000
0000
0001
1000
0000
0000
1000
0001
0000
0000
,  // measure 90
1001
0000
0000
0000
;

//---------------dance-single - ----------------
#NOTEDATA:;
#CHARTNAME:;
#STEPSTYPE:dance-single;
#DESCRIPTION:;
#CHARTSTYLE:;
#DIFFICULTY:Medium;
#METER:18;
#RADARVALUES:0.878556,1.057228,0.269490,0.856839,1.160878,890.000000,851.000000,39.000000,124.000000,0.000000,0.000000,0.000000,0.000000,0.000000,0.878556,1.057228,0.269490,0.856839,1.160878,890.000000,851.000000,39.000000,124.000000,0.000000,0.000000,0.000000,0.000000,0.000000;
#CREDIT:;
#NOTES:
// measure 0
0000
0000
0000
0000
,  // measure 1
0000
0000
0000
0000
,  // measure 2
0000
0000
0000
0000
,  // measure 3
0000
0000
0000
0000
,  // measure 4
0000
0000
0000
0000
,  // measure 5
0000
0000
0000
0000
,  // measure 6
0001
0010
0001
0000
0010
0100
0000
0000
1000
0001
0000
0000
1000
0001
1000
0010
,  // measure 7
1000
0100
1000
0000
0100
0010
0000
0000
0001
1000
0000
0000
0001
1000
0001
0100
,  // measure 8
0010
1000
0010
0000
1000
0001
0000
0000
0100
0010
0000
0000
0100
0010
0100
1000
,  // measure 9
0020
0230
2300
3200
0320
0032
0023
0230
,  // measure 10
0310
0100
0010
0000
0020
0000
0000
0030
,  // measure 11
0001
0010
0001
0000
0010
0100
0000
0000
1000
0001
0000
0000
1000
0001
1000
0010
,  // measure 12
0100
0010
0100
0000
0200
0000
0000
0300
,  // measure 13
1000
0100
1000
0000
0100
0010
0000
0000
0001
1000
0000
0000
0001
1000
0001
0100
,  // measure 14
0001
1000
0001
0000
0002
0000
0000
0003
,  // measure 15
0100
0001
0100
0000
0001
1000
0000
0000
0010
0100
0000
0000
0010
0100
0010
0001
,  // measure 16
1000
0001
1000
0000
2000
0000
0000
3000
,  // measure 17
0010
1000
0010
0000
1000
0001
0000
0000
0100
0010
0000
0000
0100
0010
0100
1000
,  // measure 18
0020
2000
0000
0000
0000
0000
3000
0000
0200
0000
0000
0000
0030
0000
0000
0000
,  // measure 19
0002
0000
0300
0000
0020
0000
0000
0033
,  // measure 20
1000
0010
1000
0000
0001
1000
0001
1000
0100
0010
0001
0010
0200
0000
0000
0000
,  // measure 21
0310
1000
0010
0000
0100
0001
0100
0000
0010
1000
0010
0001
0010
1000
0010
0001
,  // measure 22
0200
0002
0000
0000
0000
0000
0003
0000
0020
0000
0000
0000
0300
0000
0000
0000
,  // measure 23
2000
0000
0030
0000
0200
0000
0000
3300
,  // measure 24
0001
0100
0001
0000
1000
0001
1000
0001
0010
0100
1000
0100
0020
0000
0000
0000
,  // measure 25
0130
1000
0100
0000
0010
0001
0010
0000
0100
0001
0100
1000
0100
0001
0100
1000
,  // measure 26
0002
0020
0000
0000
0000
0000
0030
0000
2000
0000
0000
0000
0003
0000
0000
0000
,  // measure 27
0200
0000
3000
0000
0002
0000
0000
0303
,  // measure 28
0010
0001
0010
0000
0100
0010
0100
0010
1000
0001
0100
0001
2000
0000
0000
0000
,  // measure 29
3001
0010
0001
0000
1000
0100
1000
0000
0001
0010
0001
0100
0001
0010
0001
0100
,  // measure 30
2002
0000
0000
0000
,  // measure 31
0000
0000
0000
3003
,  // measure 32
1000
0001
2000
0002
0000
0003
3001
0000
0100
0010
0200
0020
0000
0030
0310
0000
,  // measure 33
1000
0100
0010
0001
1000
0100
0010
0001
0200
0000
0010
0000
0010
0000
0310
0000
,  // measure 34
2000
0001
0000
0000
3002
1000
0000
0000
0023
0000
0000
0000
0032
0000
0000
0000
,  // measure 35
0103
0010
0100
0000
1000
0010
0000
0000
0001
0100
0000
0000
0001
0100
0001
1000
,  // measure 36
0002
1000
0000
0000
2003
0001
0000
0000
3200
0000
0000
0000
2300
0000
0000
0000
,  // measure 37
3010
0100
0010
0000
0001
0100
0000
0000
1000
0010
0000
0000
1000
0010
1000
0001
,  // measure 38
2000
0001
0000
0000
3002
1000
0000
0000
0023
0000
0000
0000
0032
0000
0000
0000
,  // measure 39
0103
0010
0100
0000
1000
0010
0000
0000
0001
0100
0000
0000
0001
0100
0001
1000
,  // measure 40
0002
1000
0000
0000
2003
0001
0000
0000
3200
0000
0000
0000
2300
0000
0000
0000
,  // measure 41
3010
0000
0010
0000
0010
0000
0010
0000
0100
0001
0100
0001
0010
1000
0010
1000
,  // measure 42
0200
1000
0320
0000
2030
0000
3002
0000
0103
0010
0100
0001
0100
0010
0100
1000
,  // measure 43
0002
1000
0023
0000
0230
0000
0302
0000
1003
0100
0010
0000
0001
0010
0100
0000
,  // measure 44
0020
0001
0230
0000
0302
0000
2003
0000
3010
0100
0010
1000
0010
0100
0010
0001
,  // measure 45
2000
0001
3200
0000
0320
0000
2030
0000
3001
0010
0100
0000
1000
0100
0010
0000
,  // measure 46
2000
0010
3002
0000
0023
0000
0230
0000
1300
0001
1000
0100
1000
0001
1000
0010
,  // measure 47
0200
0010
0302
0000
2003
0000
3200
0000
0310
1000
0001
0000
0100
0001
1000
0000
,  // measure 48
0002
0100
2003
0000
3200
0000
0320
0000
0031
1000
0001
0010
0001
1000
0001
0100
,  // measure 49
0020
0100
2030
0000
3002
0000
0023
0000
0130
0001
1000
0000
0010
1000
0001
0000
,  // measure 50
0020
0100
0000
0100
0000
0000
0100
0000
2030
0000
0001
0000
3001
0010
0100
1000
,  // measure 51
0002
0010
0000
0100
0000
0000
1000
0000
0203
0000
0010
0000
0310
0100
0010
0001
,  // measure 52
0200
0010
0000
0010
0000
0000
0010
0000
0302
0000
1000
0000
1003
0100
0010
0001
,  // measure 53
2000
0100
0000
0010
0000
0000
0001
0000
3020
0000
0100
0000
0130
0010
0100
1000
,  // measure 54
0002
1000
0000
1000
0000
0000
1000
0000
0023
0000
0100
0000
0130
0001
1000
0010
,  // measure 55
0200
0001
0000
1000
0000
0000
0010
0000
2300
0000
0001
0000
3001
1000
0001
0100
,  // measure 56
2000
0001
0000
0001
0000
0000
0001
0000
3200
0000
0010
0000
0310
1000
0001
0100
,  // measure 57
0020
1000
0000
0001
0000
0000
0100
0000
0032
0000
1000
0000
1003
0001
1000
0010
,  // measure 58
0020
0100
0000
0100
0000
0000
0100
0000
2030
0000
0001
0000
3001
0010
0100
1000
,  // measure 59
0002
0010
0000
0100
0000
0000
1000
0000
0203
0000
0010
0000
0310
0100
0010
0001
,  // measure 60
0200
0010
0000
0010
0000
0000
0010
0000
0302
0000
1000
0000
1003
0100
0010
0001
,  // measure 61
2000
0100
0000
0010
0000
0000
0001
0000
3020
0000
0100
0000
0130
0010
0100
1000
,  // measure 62
0002
1000
0000
1000
0000
0000
1000
0000
0023
0000
0100
0000
0130
0001
1000
0010
,  // measure 63
0200
0001
0000
1000
0000
0000
0010
0000
2300
0000
0001
0000
3001
1000
0001
0100
,  // measure 64
2000
0001
0000
0001
0000
0000
0001
0000
3200
0000
0010
0000
0310
1000
0001
0100
,  // measure 65
0020
1000
0000
0001
0000
0000
0100
0000
0031
0100
0010
0001
1000
0001
1000
0010
,  // measure 66
0101
0010
1000
0010
0100
0010
0001
0000
0010
0100
0010
1000
0100
0010
0001
0100
,  // measure 67
0001
0010
1000
0010
0100
0010
1000
0000
0010
0100
0010
1000
0100
0010
0010
0100
,  // measure 68
1010
0100
0001
0100
0010
0100
1000
0000
0100
0010
0100
0001
0010
0100
1000
0010
,  // measure 69
1000
0100
0001
0100
0010
0100
0001
0000
0100
0010
0100
0001
0010
0100
0100
0010
,  // measure 70
1100
0001
0010
0001
1000
0001
0100
0000
0001
1000
0001
0010
1000
0001
0100
1000
,  // measure 71
0100
0001
0010
0001
1000
0001
0010
0000
0001
1000
0001
0010
1000
0001
0001
1000
,  // measure 72
0011
1000
0100
1000
0001
1000
0010
0000
1000
0001
1000
0100
0001
1000
0010
0001
,  // measure 73
0010
1000
0100
1000
0001
1000
0100
0000
1000
0001
1000
0100
0001
1000
1000
0001
,  // measure 74
0110
0000
0010
0100
0011
0000
0001
0000
1001
0100
0010
1000
0100
0010
0001
0100
,  // measure 75
1010
0000
0010
1000
0110
0000
0100
0000
0101
0010
1000
0100
1000
0001
0100
0001
,  // measure 76
0110
0000
0100
0010
1100
0000
1000
0000
1001
0010
0100
0001
0010
0100
1000
0010
,  // measure 77
0101
0000
0100
0001
0110
0000
0010
0000
1010
0100
0001
0010
0001
1000
0010
1000
,  // measure 78
1001
0000
0001
1000
0101
0000
0100
0000
0110
1000
0001
0010
1000
0001
0100
1000
,  // measure 79
0011
0000
0001
0010
1001
0000
1000
0000
1100
0001
0010
1000
0010
0100
1000
0100
,  // measure 80
1001
0000
1000
0001
1010
0000
0010
0000
0110
0001
1000
0100
0001
1000
0010
0001
,  // measure 81
1100
0000
1000
0100
1001
0000
0001
0000
0011
1000
0100
0001
0100
0010
0001
0020
,  // measure 82
0000
0000
0000
0030
1000
0100
0010
0001
1000
0100
0010
0001
1000
0100
0010
0001
,  // measure 83
1000
0100
0010
0001
1000
0100
0010
0001
1000
0100
0010
0001
1000
0100
0010
0001
,  // measure 84
0100
0010
0100
0000
0100
0010
0100
0000
0100
0010
0100
0000
0100
0010
0100
0000
,  // measure 85
0100
0010
0100
0000
0100
0010
0100
0000
0200
0000
0000
0000
0020
0000
0330
0000
,  // measure 86
2020
0000
0000
0000
0000
0000
3030
0000
0010
0001
0010
0001
0010
0001
0010
0001
,  // measure 87
0202
0000
0000
0000
0000
0000
0303
0000
0100
1000
0100
1000
0100
1000
0100
1000
,  // measure 88
0100
0110
0000
0000
0010
0110
0000
0000
1000
1001
0000
0000
0001
1001
0000
0000
,  // measure 89
0020
0100
0000
0030
0100
0110
0000
0000
0001
1001
0000
0000
1000
1001
0000
0000
,  // measure 90
1001
0000
0000
0000
;

//---------------dance-single - ----------------
#NOTEDATA:;
#CHARTNAME:;
#STEPSTYPE:dance-single;
#DESCRIPTION:;
#CHARTSTYLE:;
#DIFFICULTY:Hard;
#METER:18;
#RADARVALUES:0.916067,1.119418,0.304040,0.905209,1.209248,928.000000,884.000000,44.000000,131.000000,0.000000,0.000000,0.000000,0.000000,0.000000,0.916067,1.119418,0.304040,0.905209,1.209248,928.000000,884.000000,44.000000,131.000000,0.000000,0.000000,0.000000,0.000000,0.000000;
#CREDIT:;
#NOTES:
// measure 0
0000
0000
0000
0000
,  // measure 1
0000
0000
0000
0000
,  // measure 2
0000
0000
0000
0000
,  // measure 3
0000
0000
0000
0000
,  // measure 4
0000
0000
0000
0000
,  // measure 5
0000
0000
0000
0000
,  // measure 6
0001
0010
0001
0000
0010
0100
0010
0000
1000
0001
0000
0000
1000
0001
1000
0010
,  // measure 7
1000
0100
1000
0000
0100
0010
0100
0000
0001
1000
0000
0000
0001
1000
0001
0100
,  // measure 8
0010
1000
0010
0000
1000
0001
1000
0000
0100
0010
0000
0000
0100
0010
0100
1000
,  // measure 9
0020
0230
2300
3200
0320
0032
0023
0230
,  // measure 10
0310
0000
0100
0000
0010
0100
0000
0000
0020
0000
0000
0000
0000
0000
0030
0000
,  // measure 11
0001
0010
0001
0000
0010
0100
0010
0000
1000
0001
0000
0000
1000
0001
1000
0010
,  // measure 12
0100
0000
0010
0000
0100
0010
0000
0000
0200
0000
0000
0000
0000
0000
0300
0000
,  // measure 13
1000
0100
1000
0000
0100
0010
0100
0000
0001
1000
0000
0000
0001
1000
0001
0100
,  // measure 14
0001
1000
0001
0000
0002
0000
0000
0003
,  // measure 15
0100
0001
0100
0000
0001
1000
0001
0000
0010
0100
0000
0000
0010
0100
0010
0001
,  // measure 16
1000
0001
1000
0000
2000
0000
0000
3000
,  // measure 17
0010
1000
0010
0000
1000
0001
1000
0000
0100
0010
0000
0000
0100
0010
0100
1000
,  // measure 18
0020
2000
0000
0000
0000
0000
3000
0000
0200
0000
0000
0000
0030
0000
0000
0000
,  // measure 19
0002
0000
0000
0000
0300
0000
0000
0000
0020
0000
0000
0030
2000
0000
3003
0000
,  // measure 20
1000
0010
1000
0000
0001
1000
0001
1000
0100
0010
0001
0010
0200
0000
0000
0000
,  // measure 21
0310
1000
0010
0000
0100
0001
0100
0000
0010
1000
0010
0001
0010
1000
0010
0001
,  // measure 22
0200
0002
0000
0000
0000
0000
0003
0000
0020
0000
0000
0000
0300
0000
0000
0000
,  // measure 23
2000
0000
0000
0000
0030
0000
0000
0000
0200
0000
0000
0300
0002
0000
3003
0000
,  // measure 24
0001
0100
0001
0000
1000
0001
1000
0001
0010
0100
1000
0100
0020
0000
0000
0000
,  // measure 25
0130
1000
0100
0000
0010
0001
0010
0000
0100
0001
0100
1000
0100
0001
0100
1000
,  // measure 26
0002
0020
0000
0000
0000
0000
0030
0000
2000
0000
0000
0000
0003
0000
0000
0000
,  // measure 27
0200
0000
0000
0000
3000
0000
0000
0000
0002
0000
0000
0003
0020
0000
0330
0000
,  // measure 28
0010
0001
0010
0000
0100
0010
0100
0010
1000
0001
0100
0001
2000
0000
0000
0000
,  // measure 29
3001
0010
0001
0000
1000
0100
1000
0000
0001
0010
0001
0100
0001
0010
0001
0100
,  // measure 30
2002
0000
0000
0000
,  // measure 31
0000
0000
0000
3003
,  // measure 32
1000
0001
2000
0002
0000
0003
3001
0000
0100
0010
0200
0020
0000
0030
0310
0000
,  // measure 33
1000
0100
0010
0001
1000
0100
0010
0001
0200
0000
0010
0000
0010
0000
0310
0000
,  // measure 34
2000
0001
0000
0000
3002
1000
0000
0000
0023
0000
2030
0000
3002
0000
0000
0000
,  // measure 35
0103
0010
0100
0000
1000
0010
0000
0000
0001
0100
0000
0000
0001
0100
0001
1000
,  // measure 36
0002
1000
0000
0000
2003
0001
0000
0000
3200
0000
0302
0000
2003
0000
0000
0000
,  // measure 37
3010
0100
0010
0000
0001
0100
0000
0000
1000
0010
0000
0000
1000
0010
1000
0001
,  // measure 38
2000
0001
0000
0000
3002
1000
0000
0000
0023
0000
2030
0000
3002
0000
0000
0000
,  // measure 39
0103
0010
0100
0000
1000
0010
0000
0000
0001
0100
0000
0000
0001
0100
0001
1000
,  // measure 40
0002
1000
0000
0000
2003
0001
0000
0000
3200
0000
0302
0000
2003
0000
0000
0000
,  // measure 41
3010
0000
0010
0000
0110
0000
0010
0000
0100
0001
0100
0001
0010
1000
0010
1000
,  // measure 42
0200
1000
0320
0000
2030
0000
3002
0000
0103
0010
0100
0001
0100
0010
0100
1000
,  // measure 43
0002
1000
0023
0000
0230
0000
0302
0000
1003
0100
0010
0000
0001
0010
0100
0000
,  // measure 44
0020
0001
0230
0000
0302
0000
2003
0000
3010
0100
0010
1000
0010
0100
0010
0001
,  // measure 45
2000
0001
3200
0000
0320
0000
2030
0000
3001
0010
0100
0000
1000
0100
0010
0000
,  // measure 46
2000
0010
3002
0000
0023
0000
0230
0000
1300
0001
1000
0100
1000
0001
1000
0010
,  // measure 47
0200
0010
0302
0000
2003
0000
3200
0000
0310
1000
0001
0000
0100
0001
1000
0000
,  // measure 48
0002
0100
2003
0000
3200
0000
0320
0000
0031
1000
0001
0010
0001
1000
0001
0100
,  // measure 49
0020
0100
2030
0000
3002
0000
0023
0000
0130
0001
1000
0000
0010
1000
0001
0000
,  // measure 50
0020
0100
0000
0100
0000
0000
0100
0000
2030
0000
0001
0000
3001
0010
0100
1000
,  // measure 51
0002
0010
0000
0100
0000
0000
1000
0000
0203
0000
0010
0000
0310
0100
0010
0001
,  // measure 52
0200
0010
0000
0010
0000
0000
0010
0000
0302
0000
1000
0000
1003
0100
0010
0001
,  // measure 53
2000
0100
0000
0010
0000
0000
0001
0000
3020
0000
0100
0000
0130
0010
0100
1000
,  // measure 54
0002
1000
0000
1000
0000
0000
1000
0000
0023
0000
0100
0000
0130
0001
1000
0010
,  // measure 55
0200
0001
0000
1000
0000
0000
0010
0000
2300
0000
0001
0000
3001
1000
0001
0100
,  // measure 56
2000
0001
0000
0001
0000
0000
0001
0000
3200
0000
0010
0000
0310
1000
0001
0100
,  // measure 57
0020
1000
0000
0001
0000
0000
0100
0000
0032
0000
1000
0000
1003
0001
1000
0010
,  // measure 58
0020
0100
0000
0100
0000
0000
0100
0000
2030
0000
0001
0000
3001
0010
0100
1000
,  // measure 59
0002
0010
0000
0100
0000
0000
1000
0000
0203
0000
0010
0000
0310
0100
0010
0001
,  // measure 60
0200
0010
0000
0010
0000
0000
0010
0000
0302
0000
1000
0000
1003
0100
0010
0001
,  // measure 61
2000
0100
0000
0010
0000
0000
0001
0000
3020
0000
0100
0000
0130
0010
0100
1000
,  // measure 62
0002
1000
0000
1000
0000
0000
1000
0000
0023
0000
0100
0000
0130
0001
1000
0010
,  // measure 63
0200
0001
0000
1000
0000
0000
0010
0000
2300
0000
0001
0000
3001
1000
0001
0100
,  // measure 64
2000
0001
0000
0001
0000
0000
0001
0000
3200
0000
0010
0000
0310
1000
0001
0100
,  // measure 65
0020
1000
0000
0001
0000
0000
0100
0000
0031
0100
0010
0001
1000
0001
1000
0010
,  // measure 66
0101
0010
1000
0010
0100
0010
0001
0000
0010
0100
0010
1000
0100
0010
0001
0100
,  // measure 67
1001
0010
1000
0010
0100
0010
1000
0000
0010
0100
0010
1000
0100
0010
0010
0100
,  // measure 68
1010
0100
0001
0100
0010
0100
1000
0000
0100
0010
0100
0001
0010
0100
1000
0010
,  // measure 69
1001
0100
0001
0100
0010
0100
0001
0000
0100
0010
0100
0001
0010
0100
0100
0010
,  // measure 70
1100
0001
0010
0001
1000
0001
0100
0000
0001
1000
0001
0010
1000
0001
0100
1000
,  // measure 71
0110
0001
0010
0001
1000
0001
0010
0000
0001
1000
0001
0010
1000
0001
0001
1000
,  // measure 72
0011
1000
0100
1000
0001
1000
0010
0000
1000
0001
1000
0100
0001
1000
0010
0001
,  // measure 73
0110
1000
0100
1000
0001
1000
0100
0000
1000
0001
1000
0100
0001
1000
1000
0001
,  // measure 74
0110
0000
0010
0100
0011
0000
0001
0010
1001
0100
0010
1000
0100
0010
0001
0100
,  // measure 75
1010
0000
0010
1000
0110
0000
0100
0010
0101
0010
1000
0100
1000
0001
0100
0001
,  // measure 76
0110
0000
0100
0010
1100
0000
1000
0100
1001
0010
0100
0001
0010
0100
1000
0010
,  // measure 77
0101
0000
0100
0001
0110
0000
0010
0100
1010
0100
0001
0010
0001
1000
0010
1000
,  // measure 78
1001
0000
0001
1000
0101
0000
0100
0001
0110
1000
0001
0010
1000
0001
0100
1000
,  // measure 79
0011
0000
0001
0010
1001
0000
1000
0001
1100
0001
0010
1000
0010
0100
1000
0100
,  // measure 80
1001
0000
1000
0001
1010
0000
0010
1000
0110
0001
1000
0100
0001
1000
0010
0001
,  // measure 81
1100
0000
1000
0100
1001
0000
0001
1000
0011
1000
0100
0001
0100
0010
0001
0020
,  // measure 82
0000
0000
0000
0030
1000
0100
0010
0001
1000
0100
0010
0001
1000
0100
0010
0001
,  // measure 83
1000
0000
0000
0100
0000
0000
0010
0000
0000
0001
0000
0000
1000
0000
0000
0100
0000
0000
0010
0000
0000
0001
0000
0000
1000
0000
0100
0000
0010
0000
0001
0000
1000
0000
0100
0000
0010
0000
0001
0000
1000
0000
0100
0000
0010
0000
0001
0000
,  // measure 84
0100
0010
0100
0000
0100
0010
0100
0000
0100
0010
0100
0000
0100
0010
0100
0000
,  // measure 85
0100
0010
0100
0000
0100
0010
0100
0000
0200
0000
0010
0000
0020
0000
0330
0000
,  // measure 86
1020
0000
1000
0000
2000
0000
3030
0000
0010
0001
0010
0001
0010
0001
0010
0001
,  // measure 87
0201
0000
0001
0000
0002
0000
0303
0000
0100
1000
0100
1000
0100
1000
0100
1000
,  // measure 88
0100
0101
0000
0000
0010
1010
0000
0000
1000
1100
0000
0000
0001
0011
0000
0000
,  // measure 89
0020
1000
0000
0030
0100
0101
0000
0000
0001
1001
0000
0000
1000
1001
0000
0000
,  // measure 90
1001
0000
0000
0000
;

//---------------dance-single - ----------------
#NOTEDATA:;
#CHARTNAME:;
#STEPSTYPE:dance-single;
#DESCRIPTION:;
#CHARTSTYLE:;
#DIFFICULTY:Challenge;
#METER:18;
#RADARVALUES:0.948643,1.119418,0.476789,0.905209,1.236888,961.000000,892.000000,69.000000,131.000000,0.000000,0.000000,0.000000,0.000000,0.000000,0.948643,1.119418,0.476789,0.905209,1.236888,961.000000,892.000000,69.000000,131.000000,0.000000,0.000000,0.000000,0.000000,0.000000;
#CREDIT:;
#NOTES:
// measure 0
0000
0000
0000
0000
,  // measure 1
0000
0000
0000
0000
,  // measure 2
0000
0000
0000
0000
,  // measure 3
0000
0000
0000
0000
,  // measure 4
0000
0000
0000
0000
,  // measure 5
0000
0000
0000
0000
,  // measure 6
0001
0010
0001
0000
0010
0100
0010
0000
1000
0001
0000
0000
1000
0001
1000
0010
,  // measure 7
1000
0100
1000
0000
0100
0010
0100
0000
0001
1000
0000
0000
0001
1000
0001
0100
,  // measure 8
0010
1000
0010
0000
1000
0001
1000
0000
0100
0010
0000
0000
0100
0010
0100
1000
,  // measure 9
0020
0230
2300
3200
0320
0032
0023
0230
,  // measure 10
0310
0000
0100
0000
0010
0100
0000
0000
0020
0000
0000
0000
0000
0000
0030
0000
,  // measure 11
0001
0010
0001
0000
0010
0100
0010
0000
1000
0001
0000
0000
1000
0001
1000
0010
,  // measure 12
0100
0000
0010
0000
0100
0010
0000
0000
0200
0000
0000
0000
0000
0000
0300
0000
,  // measure 13
1000
0100
1000
0000
0100
0010
0100
0000
0001
1000
0000
0000
0001
1000
0001
0100
,  // measure 14
0001
1000
0001
0000
0002
0000
0000
0003
,  // measure 15
0100
0001
0100
0000
0001
1000
0001
0000
0010
0100
0000
0000
0010
0100
0010
0001
,  // measure 16
1000
0001
1000
0000
2000
0000
0000
3000
,  // measure 17
0010
1000
0010
0000
1000
0001
1000
0000
0100
0010
0000
0000
0100
0010
0100
1000
,  // measure 18
0020
2000
0000
0000
0000
0000
3000
0000
0200
0000
0000
0000
0030
0000
0000
0000
,  // measure 19
0002
0000
0000
0000
0300
0000
0000
0000
0020
0000
0000
0030
2000
0000
3003
0000
,  // measure 20
1000
0010
1000
0000
0001
1000
0001
1000
0100
0010
0001
0010
0200
0000
0000
0000
,  // measure 21
0310
1000
0010
0000
0100
0001
0100
0000
0010
1000
0010
0001
0010
1000
0010
0001
,  // measure 22
0200
0002
0000
0000
0000
0000
0003
0000
0020
0000
0000
0000
0300
0000
0000
0000
,  // measure 23
2000
0000
0000
0000
0030
0000
0000
0000
0200
0000
0000
0300
0002
0000
3003
0000
,  // measure 24
0001
0100
0001
0000
1000
0001
1000
0001
0010
0100
1000
0100
0020
0000
0000
0000
,  // measure 25
0130
1000
0100
0000
0010
0001
0010
0000
0100
0001
0100
1000
0100
0001
0100
1000
,  // measure 26
0002
0020
0000
0000
0000
0000
0030
0000
2000
0000
0000
0000
0003
0000
0000
0000
,  // measure 27
0200
0000
0000
0000
3000
0000
0000
0000
0002
0000
0000
0003
0020
0000
0330
0000
,  // measure 28
0010
0001
0010
0000
0100
0010
0100
0010
1000
0001
0100
0001
2000
0000
0000
0000
,  // measure 29
3001
0010
0001
0000
1000
0100
1000
0000
0001
0010
0001
0100
0001
0010
0001
0100
,  // measure 30
2002
0000
0000
0000
,  // measure 31
0000
0000
0000
3003
,  // measure 32
1000
0001
2000
0002
0000
0003
3001
0000
0100
0010
0200
0020
0000
0030
0310
0000
,  // measure 33
1000
0100
0010
0001
1000
0100
0010
0001
0200
0000
0010
0000
0010
0000
0310
0000
,  // measure 34
2000
0001
0000
0000
3002
1000
0000
0000
0023
0000
2030
0000
3002
0000
0000
0000
,  // measure 35
0103
0010
0100
0000
1000
0010
0000
0000
0001
0100
0000
0000
0001
0100
0001
1000
,  // measure 36
0002
1000
0000
0000
2003
0001
0000
0000
3200
0000
0302
0000
2003
0000
0000
0000
,  // measure 37
3010
0100
0010
0000
0001
0100
0000
0000
1000
0010
0000
0000
1000
0010
1000
0001
,  // measure 38
2000
0001
0000
0000
3002
1000
0000
0000
0023
0000
2030
0000
3002
0000
0000
0000
,  // measure 39
0103
0010
0100
0000
1000
0010
0000
0000
0001
0100
0000
0000
0001
0100
0001
1000
,  // measure 40
0002
1000
0000
0000
2003
0001
0000
0000
3200
0000
0302
0000
2003
0000
0000
0000
,  // measure 41
3010
0000
0010
0000
0110
0000
0010
0000
0100
0001
0100
0001
0010
1000
0010
1000
,  // measure 42
0210
1000
0320
0000
2030
0000
3002
0000
0103
0010
0100
0001
0100
0010
0100
1000
,  // measure 43
0012
1000
0023
0000
0230
0000
0302
0000
1003
0100
0010
0000
0001
0010
0100
0000
,  // measure 44
0120
0001
0230
0000
0302
0000
2003
0000
3010
0100
0010
1000
0010
0100
0010
0001
,  // measure 45
2100
0001
3200
0000
0320
0000
2030
0000
3001
0010
0100
0000
1000
0100
0010
0000
,  // measure 46
2001
0010
3002
0000
0023
0000
0230
0000
1300
0001
1000
0100
1000
0001
1000
0010
,  // measure 47
0201
0010
0302
0000
2003
0000
3200
0000
0310
1000
0001
0000
0100
0001
1000
0000
,  // measure 48
1002
0100
2003
0000
3200
0000
0320
0000
0031
1000
0001
0010
0001
1000
0001
0100
,  // measure 49
1020
0100
2030
0000
3002
0000
0023
0000
0130
0001
1000
0000
0010
1000
0001
0000
,  // measure 50
1020
0100
0000
0100
0000
0000
0100
0000
2030
0000
0001
0000
3001
0010
0100
1000
,  // measure 51
0102
0010
0000
0100
0000
0000
1000
0000
0203
0000
0010
0000
0310
0100
0010
0001
,  // measure 52
0201
0010
0000
0010
0000
0000
0010
0000
0302
0000
1000
0000
1003
0100
0010
0001
,  // measure 53
2010
0100
0000
0010
0000
0000
0001
0000
3020
0000
0100
0000
0130
0010
0100
1000
,  // measure 54
0012
1000
0000
1000
0000
0000
1000
0000
0023
0000
0100
0000
0130
0001
1000
0010
,  // measure 55
1200
0001
0000
1000
0000
0000
0010
0000
2300
0000
0001
0000
3001
1000
0001
0100
,  // measure 56
2100
0001
0000
0001
0000
0000
0001
0000
3200
0000
0010
0000
0310
1000
0001
0100
,  // measure 57
0021
1000
0000
0001
0000
0000
0100
0000
0032
0000
1000
0000
1003
0001
1000
0010
,  // measure 58
1020
0100
0000
0100
0000
0000
0100
0000
2030
0000
0001
0000
3001
0010
0100
1000
,  // measure 59
0102
0010
0000
0100
0000
0000
1000
0000
0203
0000
0010
0000
0310
0100
0010
0001
,  // measure 60
0201
0010
0000
0010
0000
0000
0010
0000
0302
0000
1000
0000
1003
0100
0010
0001
,  // measure 61
2010
0100
0000
0010
0000
0000
0001
0000
3020
0000
0100
0000
0130
0010
0100
1000
,  // measure 62
0012
1000
0000
1000
0000
0000
1000
0000
0023
0000
0100
0000
0130
0001
1000
0010
,  // measure 63
1200
0001
0000
1000
0000
0000
0010
0000
2300
0000
0001
0000
3001
1000
0001
0100
,  // measure 64
2100
0001
0000
0001
0000
0000
0001
0000
3200
0000
0010
0000
0310
1000
0001
0100
,  // measure 65
0021
1000
0000
0001
0000
0000
0100
0000
0031
0100
0010
0001
1000
0001
1000
0010
,  // measure 66
0101
0010
1000
0010
0100
0010
0001
1000
0010
0100
0010
1000
0100
0010
0001
0100
,  // measure 67
1001
0010
1000
0010
0100
0010
1000
0001
0010
0100
0010
1000
0100
0010
0010
0100
,  // measure 68
1010
0100
0001
0100
0010
0100
1000
0001
0100
0010
0100
0001
0010
0100
1000
0010
,  // measure 69
1001
0100
0001
0100
0010
0100
0001
1000
0100
0010
0100
0001
0010
0100
0100
0010
,  // measure 70
1100
0001
0010
0001
1000
0001
0100
0010
0001
1000
0001
0010
1000
0001
0100
1000
,  // measure 71
0110
0001
0010
0001
1000
0001
0010
0100
0001
1000
0001
0010
1000
0001
0001
1000
,  // measure 72
0011
1000
0100
1000
0001
1000
0010
0100
1000
0001
1000
0100
0001
1000
0010
0001
,  // measure 73
0110
1000
0100
1000
0001
1000
0100
0010
1000
0001
1000
0100
0001
1000
1000
0001
,  // measure 74
0110
0000
0010
0100
0011
0000
0001
0010
1001
0100
0010
1000
0100
0010
0001
0100
,  // measure 75
1010
0000
0010
1000
0110
0000
0100
0010
0101
0010
1000
0100
1000
0001
0100
0001
,  // measure 76
0110
0000
0100
0010
1100
0000
1000
0100
1001
0010
0100
0001
0010
0100
1000
0010
,  // measure 77
0101
0000
0100
0001
0110
0000
0010
0100
1010
0100
0001
0010
0001
1000
0010
1000
,  // measure 78
1001
0000
0001
1000
0101
0000
0100
0001
0110
1000
0001
0010
1000
0001
0100
1000
,  // measure 79
0011
0000
0001
0010
1001
0000
1000
0001
1100
0001
0010
1000
0010
0100
1000
0100
,  // measure 80
1001
0000
1000
0001
1010
0000
0010
1000
0110
0001
1000
0100
0001
1000
0010
0001
,  // measure 81
1100
0000
1000
0100
1001
0000
0001
1000
0011
1000
0100
0001
0100
0010
0001
0020
,  // measure 82
0000
0000
0000
0030
1000
0100
0010
0001
1000
0100
0010
0001
1000
0100
0010
0001
,  // measure 83
1000
0000
0000
0100
0000
0000
0010
0000
0000
0001
0000
0000
1000
0000
0000
0100
0000
0000
0010
0000
0000
0001
0000
0000
1000
0000
0100
0000
0010
0000
0001
0000
1000
0000
0100
0000
0010
0000
0001
0000
1000
0000
0100
0000
0010
0000
0001
0000
,  // measure 84
0100
0010
0100
0000
0100
0010
0100
0000
0100
0010
0100
0000
0100
0010
0100
0000
,  // measure 85
0100
0010
0100
0000
0100
0010
0100
0000
0210
0000
0010
0000
0020
0000
0330
0000
,  // measure 86
1020
0000
1000
0000
2000
0000
3030
0000
0010
0001
0010
0001
0010
0001
0010
0001
,  // measure 87
0201
0000
0001
0000
0002
0000
0303
0000
0100
1000
0100
1000
0100
1000
0100
1000
,  // measure 88
0100
0101
0000
0000
0010
1010
0000
0000
1000
1100
0000
0000
0001
0011
0000
0000
,  // measure 89
0020
1000
0000
0030
0100
0101
0000
0000
0001
1001
0000
0000
1000
1001
0000
0000
,  // measure 90
1001
0000
0000
0000
;

//---------------dance-single - Enjoy----------------
#NOTEDATA:;
#CHARTNAME:;
#STEPSTYPE:dance-single;
#DESCRIPTION:Enjoy;
#CHARTSTYLE:;
#DIFFICULTY:Edit;
#METER:1;
#RADARVALUES:0.047383,0.093285,0.006910,0.027640,0.000000,48.000000,47.000000,1.000000,4.000000,0.000000,0.000000,0.000000,0.000000,0.000000,0.047383,0.093285,0.006910,0.027640,0.000000,48.000000,47.000000,1.000000,4.000000,0.000000,0.000000,0.000000,0.000000,0.000000;
#CREDIT:;
#NOTES:
// measure 0
0000
0000
0000
0000
,  // measure 1
0000
0000
0000
0000
,  // measure 2
0000
0000
0000
0000
,  // measure 3
0000
0000
0000
0000
,  // measure 4
0000
0000
0000
0000
,  // measure 5
0000
0000
0000
0000
,  // measure 6
0001
0000
0000
0000
,  // measure 7
0000
0000
0000
0000
,  // measure 8
1000
0000
0000
0000
,  // measure 9
0000
0000
0000
0000
,  // measure 10
0001
0000
0000
0000
,  // measure 11
0000
0000
0000
0000
,  // measure 12
1000
0000
0000
0000
,  // measure 13
0000
0000
0000
0000
,  // measure 14
0100
0000
0000
0000
,  // measure 15
0000
0000
0000
0000
,  // measure 16
0100
0000
0000
0000
,  // measure 17
0000
0000
0000
0000
,  // measure 18
0020
0000
0000
0000
,  // measure 19
0000
0000
0000
0000
,  // measure 20
0000
0000
0000
0000
,  // measure 21
0000
0000
0000
0030
,  // measure 22
0200
0000
0000
0000
,  // measure 23
0000
0000
0000
0000
,  // measure 24
0000
0000
0000
0000
,  // measure 25
0000
0000
0000
0300
,  // measure 26
0020
0000
0000
0000
,  // measure 27
0000
0000
0000
0000
,  // measure 28
0000
0000
0000
0000
,  // measure 29
0000
0000
0000
0030
,  // measure 30
0200
0000
0000
0000
,  // measure 31
0000
0000
0000
0000
,  // measure 32
0000
0000
0000
0000
,  // measure 33
0000
0000
0000
0300
,  // measure 34
0001
0000
0000
0000
,  // measure 35
0000
0000
0000
0000
,  // measure 36
0010
0000
0000
0000
,  // measure 37
1000
0000
0000
0000
,  // measure 38
1000
0000
0000
0000
,  // measure 39
0000
0000
0000
0000
,  // measure 40
0010
0000
0000
0000
,  // measure 41
0001
0000
0000
0000
,  // measure 42
0100
0000
0000
0000
,  // measure 43
0000
0000
0000
0000
,  // measure 44
0001
0000
0000
0000
,  // measure 45
0010
0000
0000
0000
,  // measure 46
0010
0000
0000
0000
,  // measure 47
0000
0000
0000
0000
,  // measure 48
0001
0000
0000
0000
,  // measure 49
0100
0000
0000
0000
,  // measure 50
0001
0000
0000
0000
,  // measure 51
0000
0000
0000
0000
,  // measure 52
0001
0000
0000
0000
,  // measure 53
0000
0000
0000
0000
,  // measure 54
1000
0000
0000
0000
,  // measure 55
0000
0000
0000
0000
,  // measure 56
1000
0000
0000
0000
,  // measure 57
0000
0000
0000
0000
,  // measure 58
0001
0000
0000
0000
,  // measure 59
0000
0000
0000
0000
,  // measure 60
0001
0000
0000
0000
,  // measure 61
0000
0000
0000
0000
,  // measure 62
1000
0000
0000
0000
,  // measure 63
0000
0000
0000
0000
,  // measure 64
1000
0000
0000
0000
,  // measure 65
0000
0000
0000
0000
,  // measure 66
0010
0000
0000
0000
,  // measure 67
0000
0000
0000
0000
,  // measure 68
0010
0000
0000
0000
,  // measure 69
0100
0000
0000
0000
,  // measure 70
0100
0000
0000
0000
,  // measure 71
0000
0000
0000
0000
,  // measure 72
0100
0000
0000
0000
,  // measure 73
0010
0000
0000
0000
,  // measure 74
0001
0000
0000
0000
,  // measure 75
0000
0000
0000
0000
,  // measure 76
0001
0000
0000
0000
,  // measure 77
1000
0000
0000
0000
,  // measure 78
1000
0000
0000
0000
,  // measure 79
0000
0000
0000
0000
,  // measure 80
1000
0000
0000
0000
,  // measure 81
0001
0000
0000
0000
,  // measure 82
0000
1000
0000
0000
,  // measure 83
0000
0000
0000
0000
,  // measure 84
0001
0000
0000
0000
,  // measure 85
0000
0000
0000
0000
,  // measure 86
0010
0000
0000
0000
,  // measure 87
0000
0000
0000
0000
,  // measure 88
1000
0000
0000
0000
,  // measure 89
0000
0000
0000
0000
,  // measure 90
1001
0000
0000
0000
;
