#VERSION:0.83;
#TITLE:Dantalion;
#SUBTITLE:;
#ARTIST:Team Grimoire;
#TITLETRANSLIT:;
#SUBTITLETRANSLIT:;
#ARTISTTRANSLIT:;
#GENRE:;
#ORIGIN:;
#CREDIT:;
#BANNER:;
#BACKGROUND:;
#PREVIEWVID:;
#JACKET:;
#CDIMAGE:;
#DISCIMAGE:;
#LYRICSPATH:;
#CDTITLE:;
#MUSIC:Dantalion.ogg;
#OFFSET:-1.500000;
#SAMPLESTART:92.467751;
#SAMPLELENGTH:15.000000;
#SELECTABLE:YES;
#DISPLAYBPM:47.000000:744.000000;
#BPMS:0.000=46.500,
8.000=93.000,
24.000=186.000,
88.000=372.000,
252.000=93.000,
288.000=372.000,
512.000=744.000,
704.000=46.500;
#STOPS:;
#DELAYS:;
#WARPS:;
#TIMESIGNATURES:0.000=4=4;
#TICKCOUNTS:0.000=4;
#COMBOS:0.000=1;
#SPEEDS:0.000=1.000=0.000=0;
#SCROLLS:0.000=1.000;
#FAKES:;
#LABELS:0.000=Song Start;
#BGCHANGES:;
#KEYSOUNDS:;
#ATTACKS:
;

//---------------dance-single - ----------------
#NOTEDATA:;
#CHARTNAME:;
#STEPSTYPE:dance-single;
#DESCRIPTION:;
#CHARTSTYLE:;
#DIFFICULTY:Easy;
#METER:17;
#RADARVALUES:0.939307,1.335700,0.308415,0.072182,0.104992,1002.000000,955.000000,47.000000,11.000000,0.000000,0.000000,0.000000,0.000000,0.000000,0.939307,1.335700,0.308415,0.072182,0.104992,1002.000000,955.000000,47.000000,11.000000,0.000000,0.000000,0.000000,0.000000,0.000000;
#CREDIT:;
#DISPLAYBPM:47.000000:744.000000;
#NOTES:
1000
0010
0100
0001
0010
0100
0001
1000
,
0001
0100
0010
1000
0100
0010
1000
0001
,
1000
0100
1000
0100
0010
0001
0010
0100
,
0001
0010
0001
0010
1000
0100
1000
0001
,
1000
0100
1000
0100
0010
0001
0010
0100
,
0010
0000
1000
0000
0100
0000
0010
0000
0001
0010
0000
1000
0100
0000
0001
0010
,
1000
0000
0100
0000
1000
0000
0001
0000
0001
0000
0100
0001
0010
0000
1000
0000
,
1000
0000
0100
0000
1000
0000
0001
0000
0001
0000
0100
0001
0010
0000
1000
0000
,
1000
0000
0100
0000
1000
0000
0001
0000
0001
0000
0100
0001
0010
0000
1000
0000
,
1000
0000
0100
0000
1000
0000
0001
0000
0001
0000
0100
0001
0010
0000
1000
0000
,
1000
0000
0100
0000
1000
0000
0001
0000
0001
0000
0100
0001
0010
0000
1000
0000
,
1000
0000
0100
0000
1000
0000
0001
0000
0001
0000
0100
0001
0010
0000
1000
0000
,
1000
0000
0100
0000
1000
0000
0001
0000
0001
0000
0100
0001
0010
0000
1000
0000
,
0002
0010
0010
0010
2003
0100
0100
3100
,
0001
0000
0010
0000
0001
0000
1000
0000
1000
0000
0010
1000
0100
0000
0001
0000
,
0001
0000
0010
0000
0001
0000
1000
0000
1000
0000
0010
1000
0100
0000
0001
0000
,
0001
0000
0010
0000
0001
0000
1000
0000
1000
0000
0010
1000
0100
0000
0001
0000
,
0001
0000
0010
0000
0001
0000
1000
0000
1000
0000
0010
1000
0100
0000
0001
0000
,
0001
0000
0010
0000
0001
0000
1000
0000
1000
0000
0010
1000
0100
0000
0001
0000
,
0001
0000
0010
0000
0001
0000
1000
0000
1000
0000
0010
1000
0100
0000
0001
0000
,
1001
0000
0000
0110
0000
0000
1100
0000
0000
0110
0000
0000
0011
0000
0000
1000
,
0100
0000
0100
0010
0000
0010
0001
0000
0001
0010
0000
0010
0100
0000
0100
1000
,
0010
0000
0001
0000
0010
1000
0010
0001
,
0010
0000
0001
0000
0010
1000
0010
0001
,
0010
0000
0001
0000
0010
1000
0010
0001
,
0010
0000
0001
0000
0010
1000
0010
0001
,
0010
0000
0001
0000
0010
1000
0010
0001
,
0010
0000
0001
0000
0010
1000
0010
0001
,
0010
0000
0001
0000
0010
1000
0010
0001
,
0010
0000
0001
0000
0010
1000
0010
0001
,
0010
0000
0001
0000
0010
1000
0010
0001
,
0010
0000
0001
0000
0010
1000
0010
0001
,
0010
0000
0001
0000
0010
1000
0010
0001
,
0010
0000
0001
0000
0010
1000
0010
0001
,
0010
0000
0001
0000
0010
1000
0010
0001
,
0010
0000
0001
0000
0010
1000
0010
0001
,
0010
0000
0001
0000
0010
1000
0010
0001
,
0010
0000
0001
0000
0010
1000
0010
0001
,
0010
0000
0001
0000
0010
1000
0010
0001
,
0010
0000
0001
0000
0010
1000
0010
0001
,
0010
0100
0010
0000
1001
0000
0000
0000
,
0110
0000
1001
0000
,
0100
0000
1000
0000
0100
0001
0100
1000
,
0100
0000
1000
0000
0100
0001
0100
1000
,
0100
0000
1000
0000
0100
0001
0100
1000
,
0100
0000
1000
0000
0100
0001
0100
1000
,
0100
0000
1000
0000
0100
0001
0100
1000
,
0100
0000
1000
0000
0100
0001
0100
1000
,
0100
0000
1000
0000
0100
0001
0100
1000
,
0100
0000
1000
0000
0100
0001
0100
1000
,
0100
0000
1000
0000
0100
0001
0100
1000
,
0100
0000
1000
0000
0100
0001
0100
1000
,
0100
0000
1000
0000
0100
0001
0100
1000
,
0100
0000
1000
0000
0100
0001
0100
1000
,
0100
0000
1000
0000
0100
0001
0100
1000
,
0100
0000
1000
0000
0100
0001
0100
1000
,
0100
0000
1000
0000
0100
0001
0100
1000
,
0100
0000
1000
0000
0100
0001
0100
1000
,
0100
0000
1000
0000
0100
0001
0100
1000
,
0100
0000
1000
0000
1001
0000
0000
0110
,
0000
0000
1010
0000
0000
0101
0000
0000
,
1001
0000
0000
1010
0000
0000
1001
0000
,
2002
0000
0000
0000
0000
0000
0000
3003
,
1000
0010
0100
1000
0010
0100
1000
0010
,
0001
1000
0010
0001
0100
0010
1000
0100
,
0010
1000
0001
0010
0100
0001
0010
0100
,
1000
0001
0010
0100
0001
1000
0010
0100
,
0001
0010
0100
1000
0010
0100
1000
0010
,
0001
1000
0010
0001
0100
0010
1000
0100
,
0010
1000
0001
0010
0100
0001
0010
0100
,
1000
0001
0010
0100
0001
1000
0010
0100
,
0010
0010
0010
0010
0010
0020
0000
0030
0100
0200
0000
0300
2002
0000
0000
3003
,
0010
0100
0010
0001
,
0100
0010
0100
1000
,
0001
1000
0001
1000
,
0010
0100
0010
0100
,
0001
1000
0001
0000
0001
0000
0001
0000
,
1000
0001
1000
0000
1000
0000
1000
0000
,
0010
0001
0010
0000
0100
0000
1000
0000
,
0100
1000
0100
0000
0010
0000
0001
0000
,
0010
0100
0010
0000
0001
0000
1000
0000
,
0100
0010
0100
0000
1000
0000
0001
0000
,
0010
0100
0010
0000
0001
0000
1000
0000
,
0100
0010
0100
0000
1000
0000
0001
0000
,
1001
0000
0000
0110
0000
0000
1001
0000
,
0010
0100
0010
0000
1000
0000
1000
0000
,
0001
1000
0001
0000
1000
0001
1000
0000
,
0001
1000
0001
0000
1000
0001
0000
0000
,
0010
0100
0010
0001
,
0100
0010
0100
1000
,
0001
1000
0001
1000
,
0010
0100
0010
0100
,
1001
0000
0000
0110
0000
0000
1001
0000
,
0110
0000
1000
0001
1000
0000
0001
1000
,
0001
0100
0010
0001
,
0100
0000
0010
0000
1000
0000
0001
0000
0010
0000
0100
0000
,
1010
0000
0000
0101
0000
0000
1010
0000
,
0100
0001
0100
0000
1000
0001
1000
0000
,
0101
0000
0000
1010
0000
0000
0101
0000
,
0010
1000
0010
0000
0001
1000
0001
0000
,
1000
0001
1000
0000
0001
1000
0001
0000
,
0001
1000
0001
0000
1000
0001
1000
0000
,
0010
0100
0010
0000
0100
0010
0100
0000
,
0001
1000
0001
1000
0020
0000
0000
0030
,
0100
0001
0100
0000
0010
1000
0010
0000
,
0100
0001
0100
0000
0010
1000
0010
0000
,
1000
0001
1000
0000
0001
1000
0001
0000
,
1000
0001
1000
0000
0001
1000
0001
0000
,
1000
0100
1000
0000
0010
0001
0010
1000
,
0001
0010
0001
0000
0100
1000
0100
0001
,
0010
0100
0010
0000
0010
0100
0010
0001
,
0100
0010
0100
0000
0100
0010
0100
1000
,
0010
0000
0001
0000
0010
0100
0010
0100
,
1000
0000
0010
0000
0100
0010
0100
0010
,
0001
1000
0001
0000
0001
0000
0001
0000
,
1000
0001
1000
0000
1000
0000
1000
0000
,
0010
1000
0100
0000
0001
0100
0010
0000
,
0100
0010
1000
0000
0010
0001
0100
1000
,
0010
0000
0001
0000
0010
0001
0010
0001
,
1000
0000
0001
0000
0100
1000
0100
1000
,
0100
0001
0100
0000
0010
1000
0010
0000
,
0100
0001
0100
0000
0010
1000
0010
0000
,
1000
0001
1000
0000
0001
1000
0001
0000
,
1000
0001
1000
0000
0001
1000
0001
0000
,
1000
0100
1000
0000
0010
0001
0010
1000
,
0001
0010
0001
0000
0100
1000
0100
0001
,
1000
0100
1000
0000
0010
0001
0010
1000
,
0001
0010
0001
0000
0100
1000
0100
0001
,
1000
0001
1000
0001
,
1000
0001
1000
0001
,
1000
0001
1000
0001
,
1000
0100
0010
0001
,
0010
0100
0010
0100
,
0010
0100
0010
0100
,
0010
0100
0010
0100
,
1000
0100
0001
0010
,
0001
1000
0001
1000
,
0001
1000
0001
1000
,
0001
1000
0001
1000
,
0001
0010
0100
1000
,
0010
0100
0010
0100
,
0010
0100
0010
0100
,
0010
0100
0010
0100
,
1000
0100
0001
0010
,
0100
0000
1001
0000
,
1000
0000
1001
0000
,
0001
0000
1001
0000
,
1000
0000
1001
0000
,
0001
0010
0001
0010
,
1000
0100
1000
0100
,
0001
0010
0100
1000
,
0001
0010
0100
1000
,
0100
0000
1001
0000
,
1000
0000
1001
0000
,
0001
0000
1001
0000
,
1000
0000
1001
0000
,
0001
0010
0001
0010
,
1000
0100
1000
0100
,
0001
0010
0100
1000
,
0001
0010
0100
1000
,
0010
0000
1001
0000
,
0001
0000
1001
0000
,
1000
0000
1001
0000
,
0001
0000
1001
0000
,
1000
0100
1000
0100
,
0001
0010
0001
0010
,
1000
0100
0010
0001
,
1000
0100
0010
0001
,
0010
0000
1001
0000
,
0001
0000
1001
0000
,
1000
0000
1001
0000
,
0001
0000
1001
0000
,
1000
0100
1000
0100
,
0001
0010
0001
0010
,
1000
0100
0010
0001
,
1000
0100
0010
0001
,
0100
2002
0000
0000
,
3003
0000
0000
0000
;

//---------------dance-single - ----------------
#NOTEDATA:;
#CHARTNAME:;
#STEPSTYPE:dance-single;
#DESCRIPTION:;
#CHARTSTYLE:;
#DIFFICULTY:Medium;
#METER:18;
#RADARVALUES:1.069610,1.451848,0.328101,0.085306,0.206704,1141.000000,1091.000000,50.000000,13.000000,0.000000,0.000000,0.000000,0.000000,0.000000,1.069610,1.451848,0.328101,0.085306,0.206704,1141.000000,1091.000000,50.000000,13.000000,0.000000,0.000000,0.000000,0.000000,0.000000;
#CREDIT:;
#DISPLAYBPM:47.000000:744.000000;
#NOTES:
1000
0001
0010
0000
0100
0000
0001
0000
0010
0000
0100
0000
0001
0000
1000
0000
,
0001
1000
0100
0000
0010
0000
1000
0000
0100
0000
0010
0000
2000
0000
3002
0000
,
1003
0100
1000
0100
0010
0001
0010
0100
,
0001
0010
0001
0010
1000
0100
1000
0001
,
1000
0100
1000
0100
0010
0001
0010
0100
,
0010
0000
1000
0000
0100
0000
0010
0000
0011
0010
0000
1100
0100
0000
0011
0010
,
1000
0001
0100
0000
1000
0000
0001
0000
0001
0000
0100
0001
0010
0000
1000
0000
,
1000
0001
0100
0000
1000
0000
0001
0000
0001
0000
0100
0001
0010
0000
1000
0000
,
1000
0001
0100
0000
1000
0000
0001
0000
0001
0000
0100
0001
0010
0000
1000
0000
,
1000
0001
0100
0000
1000
0000
0001
0000
0001
0000
0100
0001
0010
0000
1000
0000
,
1000
0001
0100
0000
1000
0000
0001
0000
0001
0000
0100
0001
0010
0000
1000
0000
,
1000
0001
0100
0000
1000
0000
0001
0000
0001
0000
0100
0001
0010
0000
1000
0000
,
1000
0001
0100
0000
1000
0000
0001
0000
0001
0000
0100
0001
0010
0000
1000
0000
,
0002
0010
0010
0010
2003
0100
0100
3100
,
0001
1000
0010
0000
0001
0000
1000
0000
1000
0000
0010
1000
0100
0000
0001
0000
,
0001
1000
0010
0000
0001
0000
1000
0000
1000
0000
0010
1000
0100
0000
0001
0000
,
0001
1000
0010
0000
0001
0000
1000
0000
1000
0000
0010
1000
0100
0000
0001
0000
,
0001
1000
0010
0000
0001
0000
1000
0000
1000
0000
0010
1000
0100
0000
0001
0000
,
0001
1000
0010
0000
0001
0000
1000
0000
1000
0000
0010
1000
0100
0000
0001
0000
,
0001
1000
0010
0000
0001
0000
1000
0000
1000
0000
0010
1000
0100
0000
0001
0000
,
1001
0000
0000
0101
0000
0000
0110
0000
0000
1010
0000
0000
1001
0000
0000
1000
,
0100
0000
0100
0010
0000
0010
0001
0000
0001
0010
0000
0010
0100
0000
0100
1000
,
0010
0000
0001
0100
0010
1000
0010
0001
,
0010
0000
0001
0100
0010
1000
0010
0001
,
0010
0000
0001
0100
0010
1000
0010
0001
,
0010
0000
0001
0100
0010
1000
0010
0001
,
0010
0000
0001
0100
0010
1000
0010
0001
,
0010
0000
0001
0100
0010
1000
0010
0001
,
0010
0000
0001
0100
0010
1000
0010
0001
,
0010
0000
0001
0100
0010
1000
0010
0001
,
0010
0000
0001
0100
0010
1000
0010
0001
,
0010
0000
0001
0100
0010
1000
0010
0001
,
0010
0000
0001
0100
0010
1000
0010
0001
,
0010
0000
0001
0100
0010
1000
0010
0001
,
0010
0000
0001
0100
0010
1000
0010
0001
,
0010
0000
0001
0100
0010
1000
0010
0001
,
0010
0000
0001
0100
0010
1000
0010
0001
,
0010
0000
0001
0100
0010
1000
0010
0001
,
0010
0000
0001
0100
0010
1000
0010
0001
,
0010
0000
0001
0100
0010
1000
0010
0001
,
0010
0100
0010
0000
1001
0000
0010
0000
,
0110
0100
1001
0010
,
0100
0000
1000
0010
0100
0001
0100
1000
,
0100
0000
1000
0010
0100
0001
0100
1000
,
0100
0000
1000
0010
0100
0001
0100
1000
,
0100
0000
1000
0010
0100
0001
0100
1000
,
0100
0000
1000
0010
0100
0001
0100
1000
,
0100
0000
1000
0010
0100
0001
0100
1000
,
0100
0000
1000
0010
0100
0001
0100
1000
,
0100
0000
1000
0010
0100
0001
0100
1000
,
0100
0000
1000
0010
0100
0001
0100
1000
,
0100
0000
1000
0010
0100
0001
0100
1000
,
0100
0000
1000
0010
0100
0001
0100
1000
,
0100
0000
1000
0010
0100
0001
0100
1000
,
0100
0000
1000
0010
0100
0001
0100
1000
,
0100
0000
1000
0010
0100
0001
0100
1000
,
0100
0000
1000
0010
0100
0001
0100
1000
,
0100
0000
1000
0010
0100
0001
0100
1000
,
0100
0000
1000
0010
0100
0001
0100
1000
,
0100
0000
1000
0000
0011
0000
0000
0110
,
0000
0000
1010
0000
0000
1010
0000
0000
,
1001
0000
0000
0101
0000
0000
1001
0000
,
2002
0000
0000
0000
0000
0000
0000
3003
,
1000
0001
0010
1000
0100
0000
1000
0000
0010
0000
0100
0000
1000
0000
0010
0000
,
0001
0100
1000
0100
0010
0000
0001
0000
0100
0000
0010
0000
1000
0000
0100
0000
,
0010
0001
1000
0100
0001
0000
0010
0000
0100
0000
0001
0000
0010
0000
0100
0000
,
1000
0010
0001
1000
0010
0000
0100
0000
0001
0000
1000
0000
0010
0000
0100
0000
,
0001
1000
0010
0001
0100
0000
1000
0000
0010
0000
0100
0000
1000
0000
0010
0000
,
0001
0010
1000
0100
0010
0000
0001
0000
0100
0000
0010
0000
1000
0000
0100
0000
,
0010
0001
1000
0100
0001
0000
0010
0000
0100
0000
0001
0000
0010
0000
0100
0000
,
1000
0010
0001
1000
0010
0000
0100
0000
0001
0000
1000
0000
0010
0000
0100
0000
,
0010
0001
0010
0100
0010
0020
0000
0030
0100
0200
0000
0300
2002
0000
0000
3003
,
0010
1000
0100
0000
0010
0000
0001
0000
,
0100
0001
0010
0000
0100
0000
1000
0000
,
0001
1000
0001
0000
0001
0000
1000
0000
,
0100
0010
0100
0000
0010
0000
0100
0000
,
0001
1000
0001
0000
0001
1000
0001
0000
,
1000
0001
1000
0000
1000
0001
1000
0000
,
0010
0001
0010
0000
1000
0100
1000
0000
,
0100
1000
0100
0000
0010
0001
0010
0000
,
0010
0100
0010
0000
0001
1000
0001
0000
,
0100
0010
0100
0000
1000
0001
1000
0000
,
0010
0100
0010
0000
0001
1000
0001
0000
,
0100
0010
0100
0000
1000
0001
1000
0000
,
1001
0000
0000
0110
0000
0000
1001
0000
,
0010
0100
0010
0000
1000
0001
1000
0000
,
0001
1000
0001
1000
0001
1000
0001
1000
,
0001
1000
0001
1000
0001
1000
0001
1000
,
0010
1000
0100
0000
0010
0000
0001
0000
,
0100
0001
0010
0000
0100
0000
1000
0000
,
0001
1000
0001
0000
0001
0000
1000
0000
,
0100
0010
0100
0000
0010
0000
0100
0000
,
1001
0000
0000
0110
0000
0000
1001
0000
,
0110
0000
1000
0001
1000
0000
0001
1000
,
0001
0100
0010
0001
,
0010
0000
0100
0000
0001
0000
1000
0000
0100
0000
0010
0000
,
0101
0000
0000
1010
0000
0000
0101
0000
,
0100
0001
0100
0000
1000
0001
1000
0000
,
0101
0000
0000
1010
0000
0000
0101
0000
,
0010
1000
0010
0000
0100
0001
0100
0000
,
0010
1000
0010
1000
0010
1000
0010
1000
,
0100
0001
0100
0001
0100
0001
0100
0001
,
0010
0100
0010
0100
0010
0100
0010
0100
,
0001
1000
0001
1000
0020
0000
0000
0030
,
0100
0001
0100
0001
0010
1000
0010
1000
,
0100
0001
0100
0001
0010
1000
0010
0100
,
1000
0001
1000
0010
0001
1000
0001
0100
,
1000
0001
1000
0010
0001
1000
0001
0100
,
1000
0100
1000
0100
0010
0001
0010
1000
,
0001
0010
0001
0010
0100
1000
0100
0001
,
0010
0100
0010
0100
0010
0100
0010
0001
,
0100
0010
0100
0010
0100
0010
0100
1000
,
0010
1000
0001
1000
0010
0100
0010
0100
,
1000
0001
0010
0001
0100
0010
0100
0010
,
0001
1000
0001
0000
0001
0010
0001
0010
,
1000
0001
1000
0000
1000
0100
1000
0100
,
0010
1000
0100
0010
0001
0100
0010
0001
,
0100
0010
1000
0001
0010
0001
0100
1000
,
0010
0100
0001
0100
0010
0001
0010
0001
,
1000
0010
0001
0010
0100
1000
0100
1000
,
0100
0001
0100
0001
0010
1000
0010
1000
,
0100
0001
0100
0001
0010
1000
0010
0100
,
1000
0001
1000
0010
0001
1000
0001
0100
,
1000
0001
1000
0010
0001
1000
0001
0100
,
1000
0100
1000
0100
0010
0001
0010
1000
,
0001
0010
0001
0010
0100
1000
0100
0001
,
1000
0100
1000
0100
0010
0001
0010
1000
,
0001
0010
0001
0010
0100
1000
0100
0001
,
1000
0001
0010
0001
,
1000
0001
0010
0001
,
1000
0001
0010
0001
,
1000
0100
0010
0001
,
0010
0100
0001
1000
,
0010
0100
0001
1000
,
0010
0100
1000
0001
,
1000
0100
0001
0010
,
0001
1000
0100
1000
,
0001
1000
0100
1000
,
0001
1000
0100
1000
,
0001
0010
0100
1000
,
0010
0100
0001
1000
,
0010
0100
0001
1000
,
0010
0100
0001
0100
,
1000
0100
0001
0010
,
0100
0000
1001
0000
,
1000
0000
1001
0000
,
0001
0000
1001
0000
,
1000
0000
1001
0000
,
0001
0010
0001
0010
,
1000
0100
1000
0100
,
0001
0010
0100
1000
,
0001
0010
0100
1000
,
0100
0000
1001
0000
,
1000
0000
1001
0000
,
0001
0000
1001
0000
,
1000
0000
1001
0000
,
0001
0010
0001
0010
,
1000
0100
1000
0100
,
0001
0010
0100
1000
,
0001
0010
0100
1000
,
0010
0000
1001
0000
,
0001
0000
1001
0000
,
1000
0000
1001
0000
,
0001
0000
1001
0000
,
1000
0100
1000
0100
,
0001
0010
0001
0010
,
1000
0100
0010
0001
,
1000
0100
0010
0001
,
0010
0000
1001
0000
,
0001
0000
1001
0000
,
1000
0000
1001
0000
,
0001
0000
1001
0000
,
1000
0100
0001
0100
,
0001
0010
1000
0010
,
0001
0010
0100
1000
,
0001
0010
0100
1000
,
0100
2002
0000
0000
,
3003
0000
0000
0000
;

//---------------dance-single - ----------------
#NOTEDATA:;
#CHARTNAME:Old Easy;
#STEPSTYPE:dance-single;
#DESCRIPTION:;
#CHARTSTYLE:;
#DIFFICULTY:Edit;
#METER:13;
#RADARVALUES:0.673076,0.987257,0.209985,0.072182,0.026248,718.000000,686.000000,32.000000,11.000000,0.000000,0.000000,0.000000,0.000000,0.000000,0.673076,0.987257,0.209985,0.072182,0.026248,718.000000,686.000000,32.000000,11.000000,0.000000,0.000000,0.000000,0.000000,0.000000;
#CREDIT:;
#DISPLAYBPM:47.000000:744.000000;
#NOTES:
1000
0100
0010
0001
,
0001
0010
0100
1000
,
1000
0100
1000
0100
0010
0001
0010
0100
,
0001
0010
0001
0010
1000
0100
1000
0001
,
1000
0100
1000
0100
0010
0001
0010
0100
,
0010
0000
1000
0000
0100
0000
0010
0000
0001
0000
0000
1000
0000
0000
0001
0000
,
1000
0100
1000
0010
0001
0100
0010
1000
,
1000
0100
1000
0010
0001
0100
0010
1000
,
1000
0100
1000
0010
0001
0100
0010
1000
,
1000
0100
1000
0010
0001
0100
0010
1000
,
1000
0100
1000
0010
0001
0100
0010
1000
,
1000
0100
1000
0010
0001
0100
0010
1000
,
1000
0100
1000
0010
0001
0100
0010
1000
,
0002
0010
0010
0010
2003
0100
0100
3100
,
0001
0010
0001
0100
1000
0010
0100
0001
,
0001
0010
0001
0100
1000
0010
0100
0001
,
0001
0010
0001
0100
1000
0010
0100
0001
,
0001
0010
0001
0100
1000
0010
0100
0001
,
0001
0010
0001
0100
1000
0010
0100
0001
,
0001
0010
0001
0100
1000
0010
0100
0001
,
1000
0000
0000
0010
0000
0000
0100
0000
0000
0010
0000
0000
0001
0000
0000
1000
,
0000
0000
0100
0000
0000
0010
0000
0000
0001
0000
0000
0010
0000
0000
0100
0000
,
0010
0001
0010
1000
,
0010
0001
0010
1000
,
0010
0001
0010
1000
,
0010
0001
0010
1000
,
0010
0001
0010
1000
,
0010
0001
0010
1000
,
0010
0001
0010
1000
,
0010
0001
0010
1000
,
0010
0001
0010
1000
,
0010
0001
0010
1000
,
0010
0001
0010
1000
,
0010
0001
0010
1000
,
0010
0001
0010
1000
,
0010
0001
0010
1000
,
0010
0001
0010
1000
,
0010
0001
0010
1000
,
0010
0001
0010
1000
,
0010
0001
0010
1000
,
0010
0100
1001
0000
,
0110
0000
1001
0000
,
0100
1000
0100
0001
,
0100
1000
0100
0001
,
0100
1000
0100
0001
,
0100
1000
0100
0001
,
0100
1000
0100
0001
,
0100
1000
0100
0001
,
0100
1000
0100
0001
,
0100
1000
0100
0001
,
0100
1000
0100
0001
,
0100
1000
0100
0001
,
0100
1000
0100
0001
,
0100
1000
0100
0001
,
0100
1000
0100
0001
,
0100
1000
0100
0001
,
0100
1000
0100
0001
,
0100
1000
0100
0001
,
0100
1000
0100
0001
,
0100
0000
0001
0000
1000
0000
0000
1000
,
0000
0000
1001
0000
0000
0001
0000
0000
,
1001
0000
0000
1000
0000
0000
1001
0000
,
2002
0000
0000
0000
0000
0000
0000
3003
,
1000
0100
0010
1000
,
0001
0010
0100
1000
,
0010
0001
0100
0010
,
1000
0010
0001
0010
,
0001
0100
0010
1000
,
0001
0010
0100
1000
,
0010
0001
0100
0010
,
1000
0010
0001
0010
,
0010
0000
0000
0000
0020
0000
0000
0030
0200
0000
0000
0300
2002
0000
0000
3003
,
0010
0100
0010
0001
,
0100
0010
0100
1000
,
0001
1000
0001
1000
,
0010
0100
0010
0100
,
0001
0001
0001
0001
,
1000
1000
1000
1000
,
0001
0010
0100
1000
,
1000
0100
0010
0001
,
0100
0010
0001
1000
,
0010
0100
1000
0001
,
0100
0010
0001
1000
,
0010
0100
1000
0001
,
1000
0000
0000
0110
0000
0000
0001
0000
,
0010
0010
1000
1000
,
0001
0001
1000
1000
,
0001
0001
1000
0000
,
0010
0100
0010
0001
,
0100
0010
0100
1000
,
0001
1000
0001
1000
,
0010
0100
0010
0100
,
1000
0000
0000
0110
0000
0000
0001
0000
,
0110
1000
1000
0001
,
0001
0100
0010
0001
,
0100
0000
0000
0000
1000
0000
0000
0000
0010
0000
0000
0000
,
1000
0000
0000
0001
0000
0000
1000
0000
,
0100
0100
1000
1000
,
0001
0000
0000
1000
0000
0000
0001
0000
,
0010
0010
0001
0001
,
0001
0001
0001
0001
,
1000
1000
1000
1000
,
0010
0010
0100
0100
,
0010
0000
0010
0100
0020
0000
0000
0030
,
0100
1000
0100
0000
0010
0000
0010
0000
,
0100
0001
0100
0000
0010
0000
0010
0000
,
1000
0001
1000
0000
0001
0000
0001
0000
,
1000
0000
1000
0000
0001
1000
0001
0000
,
1000
0100
1000
0000
0010
0000
0010
0000
,
0001
0010
0001
0000
0100
0000
0100
0000
,
0010
0100
0010
0000
0010
0000
0010
0000
,
0100
0010
0100
0000
0100
0000
0100
0000
,
0010
0000
0001
0000
0010
0100
0010
0000
,
1000
0000
0010
0000
0100
0010
0100
0000
,
0001
1000
0001
0000
0001
0000
0001
0000
,
1000
0001
1000
0000
1000
0000
1000
0000
,
0010
0100
0001
0010
,
0100
1000
0010
0100
,
0010
0000
0001
0000
0010
0000
0010
0001
,
1000
0000
0001
0000
0100
0000
0100
1000
,
0100
0100
0010
0010
,
0100
0100
0010
0010
,
1000
1000
0001
0001
,
1000
1000
0001
0001
,
1000
1000
0010
0010
,
0001
0001
0100
0100
,
1000
1000
0010
0010
,
0001
0001
0100
0100
,
1000
0001
1000
0001
,
1000
0001
1000
0001
,
1000
0001
1000
0001
,
1000
0100
0010
0001
,
0010
0000
0010
0000
,
0010
0000
0010
0000
,
0010
0000
0010
0000
,
0010
0000
0010
1000
,
0001
0000
0001
0000
,
0001
0000
0001
0100
,
1000
0000
1000
0000
,
1000
0000
1000
0010
,
0100
0000
0100
0000
,
0100
0000
0100
0000
,
0100
0000
0100
0000
,
0100
0000
0100
0000
,
0110
0000
1001
0000
,
0000
0000
1001
0000
,
0000
0000
1001
0000
,
0000
0000
1001
0000
,
0001
0000
0001
0000
,
1000
0000
1000
0000
,
0001
0000
1000
0000
,
0001
0000
1000
0000
,
0110
0000
1001
0000
,
0000
0000
1001
0000
,
0000
0000
1001
0000
,
0000
0000
1001
0000
,
0001
0000
0001
0000
,
1000
0000
1000
0000
,
0001
0000
1000
0000
,
0001
0000
1000
0000
,
0110
0000
1001
0000
,
0000
0000
1001
0000
,
0000
0000
1001
0000
,
0000
0000
1001
0000
,
1000
0000
1000
0000
,
0001
0000
0001
0000
,
1000
0000
0100
0000
,
0010
0000
0001
0000
,
0110
0000
1001
0000
,
0000
0000
1001
0000
,
0000
0000
1001
0000
,
0000
0000
1001
0000
,
1000
0000
1000
0000
,
0001
0000
0001
0000
,
0010
0100
0010
0100
,
0010
0100
0010
0100
,
0010
2002
0000
0000
,
3003
0000
0000
0000
;

//---------------dance-single - ----------------
#NOTEDATA:;
#CHARTNAME:;
#STEPSTYPE:dance-single;
#DESCRIPTION:;
#CHARTSTYLE:;
#DIFFICULTY:Hard;
#METER:18;
#RADARVALUES:1.189601,1.684143,0.354349,0.085306,0.374035,1269.000000,1215.000000,54.000000,13.000000,0.000000,0.000000,0.000000,0.000000,0.000000,1.189601,1.684143,0.354349,0.085306,0.374035,1269.000000,1215.000000,54.000000,13.000000,0.000000,0.000000,0.000000,0.000000,0.000000;
#CREDIT:;
#DISPLAYBPM:47.000000:744.000000;
#NOTES:
1000
0001
0010
1000
0100
0000
0001
0000
0010
1000
0100
0000
0001
0000
1000
0000
,
0001
1000
0100
0001
0010
0000
1000
0001
0100
0000
0010
0000
2000
0000
3002
0000
,
0013
0100
1000
0100
0010
0001
0010
0100
,
0001
1000
0001
0010
1000
0100
1000
0001
,
1000
0100
0001
0100
0010
0001
0010
1000
,
0010
0000
1000
0000
0100
0000
0010
0000
0011
0010
0000
1100
0100
0000
0011
0010
,
1000
0001
0100
0000
1000
0010
0001
0000
0001
0010
0100
0001
0010
0100
1000
0000
,
1000
0001
0100
0000
1000
0010
0001
0000
0001
0010
0100
0001
0010
0100
1000
0000
,
1000
0001
0100
0000
1000
0010
0001
0000
0001
0010
0100
0001
0010
0100
1000
0000
,
1000
0001
0100
0000
1000
0010
0001
0000
0001
0010
0100
0001
0010
0100
1000
0000
,
1000
0001
0100
0000
1000
0010
0001
0000
0001
0010
0100
0001
0010
0100
1000
0000
,
1000
0001
0100
0000
1000
0010
0001
0000
0001
0010
0100
0001
0010
0100
1000
0000
,
1000
0001
0100
0000
1000
0010
0001
0000
0001
0010
0100
0001
0010
0100
1000
0000
,
0012
0010
0010
0010
2003
0100
0100
3100
,
0001
1000
0010
0000
0001
0100
1000
0000
1000
0100
0010
1000
0100
0010
0001
0000
,
0001
1000
0010
0000
0001
0100
1000
0000
1000
0100
0010
1000
0100
0010
0001
0000
,
0001
1000
0010
0000
0001
0100
1000
0000
1000
0100
0010
1000
0100
0010
0001
0000
,
0001
1000
0010
0000
0001
0000
1000
0000
1000
0000
0010
1000
0100
0000
0001
0000
,
0001
1000
0010
0000
0001
0100
1000
0000
1000
0100
0010
1000
0100
0010
0001
0000
,
0001
1000
0010
0000
0001
0000
1000
0000
1000
0000
0010
1000
0100
0000
0001
0000
,
1010
0000
0000
0101
0000
0000
0110
0000
0000
1010
0000
0000
0101
0000
0000
1000
,
0100
1000
0100
0010
0001
0010
0001
1000
0001
0010
0001
0010
0100
1000
0100
1000
,
0010
0100
0001
0100
0010
1000
0010
0001
,
0010
0100
0001
0100
0010
1000
0010
0001
,
0010
0100
0001
0100
0010
1000
0010
0001
,
0010
0100
0001
0100
0010
1000
0010
0001
,
0010
0100
0001
0100
0010
1000
0010
0001
,
0010
0100
0001
0100
0010
1000
0010
0001
,
0010
0100
0001
0100
0010
1000
0010
0001
,
0010
0100
0001
0100
0010
1000
0010
0001
,
0010
0100
0001
0100
0010
1000
0010
0001
,
0010
0100
0001
0100
0010
1000
0010
0001
,
0010
0100
0001
0100
0010
1000
0010
0001
,
0010
0100
0001
0100
0010
1000
0010
0001
,
0010
0100
0001
0100
0010
1000
0010
0001
,
0010
0100
0001
0100
0010
1000
0010
0001
,
0010
0100
0001
0100
0010
1000
0010
0001
,
0010
0100
0001
0100
0010
1000
0010
0001
,
0010
0100
0001
0100
0010
1000
0010
0001
,
0010
0100
0001
0100
0010
1000
0010
0001
,
0010
0100
0010
0000
1001
0000
1010
0000
,
0110
0101
1001
0010
,
0100
0010
1000
0010
0100
0001
0100
1000
,
0100
0010
1000
0010
0100
0001
0100
1000
,
0100
0010
1000
0010
0100
0001
0100
1000
,
0100
0010
1000
0010
0100
0001
0100
1000
,
0100
0010
1000
0010
0100
0001
0100
1000
,
0100
0010
1000
0010
0100
0001
0100
1000
,
0100
0010
1000
0010
0100
0001
0100
1000
,
0100
0010
1000
0010
0100
0001
0100
1000
,
0100
0010
1000
0010
0100
0001
0100
1000
,
0100
0010
1000
0010
0100
0001
0100
1000
,
0100
0010
1000
0010
0100
0001
0100
1000
,
0100
0010
1000
0010
0100
0001
0100
1000
,
0100
0010
1000
0010
0100
0001
0100
1000
,
0100
0010
1000
0010
0100
0001
0100
1000
,
0100
0010
1000
0010
0100
0001
0100
1000
,
0100
0010
1000
0010
0100
0001
0100
1000
,
0100
0010
1000
0010
0100
0001
0100
1000
,
0100
0000
1100
0000
0011
0000
0000
0110
,
0000
0000
1010
0000
0000
1010
0000
0000
,
1001
0000
0000
0101
0000
0000
1001
0000
,
2002
0000
0000
0000
0000
0000
0000
3003
,
1000
0001
0010
1000
0100
0010
1000
0100
0010
0000
0100
0000
1000
0000
0010
0000
,
0001
0100
1000
0100
0010
0100
0001
0000
0100
0000
0010
0000
1000
0000
0100
0000
,
0010
0001
1000
0100
0001
1000
0010
0000
0100
0000
0001
0000
0010
0000
0100
0000
,
1000
0010
0001
1000
0010
0001
0100
0000
0001
0000
1000
0000
0010
0000
0100
0000
,
0001
1000
0010
0001
0100
0010
1000
0000
0010
0000
0100
0000
1000
0000
0010
0000
,
0001
0010
1000
0100
0010
1000
0001
0000
0100
0000
0010
0000
1000
0000
0100
0000
,
0010
0001
1000
0100
0001
0100
0010
0000
0100
0000
0001
0000
0010
0000
0100
0000
,
1000
0010
0001
1000
0010
0001
0100
0000
0001
0000
1000
0000
0010
0000
0100
0000
,
0010
0000
0001
0000
0010
0000
0100
0000
0010
0001
0020
0000
0000
0000
0030
0000
0100
1000
0200
0000
0000
0000
0300
0000
2002
0000
0000
0000
0000
0000
3003
0000
,
0010
1000
0100
0001
0010
0000
0001
0000
,
0100
0001
0010
1000
0100
0000
1000
0000
,
0001
1000
0001
1000
0001
1000
0001
0000
,
0100
0010
0100
0010
0100
0010
0100
0000
,
0001
1000
0001
1000
0001
1000
0001
0000
,
1000
0001
1000
0001
1000
0001
1000
0000
,
0010
0001
0010
0001
0100
1000
0100
1000
,
0100
1000
0100
1000
0010
0001
0010
0001
,
0010
0100
0010
0100
0001
1000
0001
1000
,
0100
0010
0100
0010
1000
0001
1000
0001
,
0010
0100
0010
0100
0001
1000
0001
1000
,
0100
0010
0100
0010
1000
0001
1000
0000
,
1001
0000
0000
0110
0000
0000
1001
0000
,
0010
0100
0010
0100
1000
0001
1000
0010
,
0001
1000
0001
1000
0001
1000
0001
1000
,
0001
1000
0001
1000
0001
1000
0001
1000
,
0010
1000
0100
0001
0010
0000
0001
0000
,
0100
0001
0010
1000
0100
0000
1000
0000
,
0001
1000
0001
1000
0001
1000
0001
0000
,
0100
0010
0100
0010
0100
0010
0100
0000
,
1001
0000
0000
0110
0000
0000
1001
0000
,
0110
0000
1000
0010
1000
0010
0001
1000
,
0001
1000
0100
0000
0010
0000
0001
0000
,
0010
0000
0100
0000
0001
0000
1000
0000
0100
0000
0010
0000
,
0101
0000
0000
1010
0000
0000
0101
0000
,
0100
0001
0100
0001
1000
0001
1000
0000
,
0101
0000
0000
1010
0000
0000
0101
0000
,
0010
1000
0010
1000
0100
0001
0100
0001
,
0010
1000
0010
1000
0010
1000
0010
1000
,
0100
0001
0100
0001
0100
0001
0100
0001
,
0010
0100
0010
0100
0010
0100
0010
0100
,
0001
1000
0001
1000
0020
0000
0000
0030
,
0100
0001
0100
0001
0010
1000
0010
1000
,
0100
0001
0100
0001
0010
1000
0010
0100
,
1000
0001
1000
0010
0001
1000
0001
0100
,
1000
0001
1000
0010
0001
1000
0001
0100
,
1000
0100
1000
0100
0010
0001
0010
1000
,
0001
0010
0001
0010
0100
1000
0100
0001
,
0010
0100
0010
0100
0010
0100
0010
0001
,
0100
0010
0100
0010
0100
0010
0100
1000
,
0010
1000
0001
1000
0010
0100
0010
0100
,
1000
0001
0010
0001
0100
0010
0100
0010
,
0001
1000
0001
0100
0001
0010
0001
0010
,
1000
0001
1000
0010
1000
0100
1000
0100
,
0010
1000
0100
0010
0001
0100
0010
0001
,
0100
0010
1000
0001
0010
0001
0100
1000
,
0010
0100
0001
0100
0010
0001
0010
0001
,
1000
0010
0001
0010
0100
1000
0100
1000
,
0100
0001
0100
0001
0010
1000
0010
1000
,
0100
0001
0100
0001
0010
1000
0010
0100
,
1000
0001
1000
0010
0001
1000
0001
0100
,
1000
0001
1000
0010
0001
1000
0001
0100
,
1000
0100
1000
0100
0010
0001
0010
1000
,
0001
0010
0001
0010
0100
1000
0100
0001
,
1000
0100
1000
0100
0010
0001
0010
1000
,
0001
0010
0001
0010
0100
1000
0100
0001
,
0001
1000
0100
1000
,
0001
1000
0100
1000
,
0001
1000
0100
1000
,
0001
0010
0100
1000
,
0100
0010
1000
0001
,
0100
0010
1000
0001
,
0100
0010
0001
1000
,
0001
0010
1000
0100
,
1000
0001
0010
0001
,
1000
0001
0010
0001
,
1000
0001
0010
0001
,
1000
0100
0010
0001
,
0100
0010
1000
0001
,
0100
0010
1000
0001
,
0100
0010
1000
0010
,
0001
0010
1000
0100
,
0010
0100
1001
0000
,
0001
0000
1001
0000
,
1000
0000
1001
0000
,
0001
0000
1001
0000
,
1000
0001
1000
0010
,
0001
0010
1000
0010
,
1000
0001
0010
0100
,
1000
0100
0010
0001
,
0010
0000
1001
0000
,
0001
0000
1001
0000
,
1000
0000
1001
0000
,
0001
0000
1001
0000
,
1000
0100
0001
0100
,
0001
0010
1000
0010
,
1000
0100
0001
0010
,
1000
0100
0001
0010
,
0100
0000
1001
0000
,
1000
0000
1001
0000
,
0001
0000
1001
0000
,
1000
0000
1001
0000
,
0001
0010
1000
0010
,
1000
0100
0001
0100
,
0001
0010
1000
0100
,
0001
1000
0100
0001
,
0100
0000
1001
0000
,
1000
0000
1001
0000
,
0001
0000
1001
0000
,
1000
0000
1001
0000
,
0001
0010
1000
0010
,
1000
0100
0001
0100
,
1000
0100
0010
0001
,
1000
0000
0100
0000
0010
0000
0010
0100
,
0010
2002
0000
0000
,
3003
0000
0000
0000
;

//---------------dance-single - ----------------
#NOTEDATA:;
#CHARTNAME:;
#STEPSTYPE:dance-single;
#DESCRIPTION:;
#CHARTSTYLE:;
#DIFFICULTY:Challenge;
#METER:20;
#RADARVALUES:1.378025,2.090661,0.374035,0.085306,0.866187,1470.000000,1413.000000,57.000000,13.000000,0.000000,0.000000,0.000000,0.000000,0.000000,1.378025,2.090661,0.374035,0.085306,0.866187,1470.000000,1413.000000,57.000000,13.000000,0.000000,0.000000,0.000000,0.000000,0.000000;
#CREDIT:;
#DISPLAYBPM:47.000000:744.000000;
#NOTES:
1000
0001
0010
1000
0100
0010
0001
0100
0010
1000
0100
0010
0001
0100
1000
0010
,
0001
1000
0100
0001
0010
0100
1000
0001
0100
1000
0010
0001
2000
0000
3002
0000
,
0013
1000
0100
0010
1000
0010
0100
1000
0010
0100
0001
1000
0010
0001
0100
0010
,
0001
0100
1000
0010
0001
0100
0010
0001
1000
0010
0100
0010
1000
0100
0001
0010
,
1000
0010
0100
0010
0001
0010
0100
1000
0010
0100
0001
1000
0010
0100
1000
0001
,
0010
0100
1000
0001
0100
1000
0010
0100
0011
0010
0000
1100
0100
0000
0011
0010
,
1000
0001
0100
0010
1000
0010
0001
1000
0001
0010
0100
0001
0010
0100
1000
0000
,
1000
0001
0100
0010
1000
0010
0001
1000
0001
0010
0100
0001
0010
0100
1000
0000
,
1000
0001
0100
0010
1000
0010
0001
1000
0001
0010
0100
0001
0010
0100
1000
0000
,
1000
0001
0100
0010
1000
0010
0001
1000
0001
0010
0100
0001
0010
0100
1000
0000
,
1000
0001
0100
0010
1000
0010
0001
1000
0001
0010
0100
0001
0010
0100
1000
0000
,
1000
0001
0100
0010
1000
0010
0001
1000
0001
0010
0100
0001
0010
0100
1000
0000
,
1000
0001
0100
0010
1000
0010
0001
1000
0001
0010
0100
0001
0010
0100
1000
0000
,
0012
0010
0010
0010
2003
0100
0100
3100
,
0001
1000
0010
0100
0001
0100
1000
0001
1000
0100
0010
1000
0100
0010
0001
0000
,
0001
1000
0010
0100
0001
0100
1000
0001
1000
0100
0010
1000
0100
0010
0001
0000
,
0001
1000
0010
0100
0001
0100
1000
0001
1000
0100
0010
1000
0100
0010
0001
0000
,
0001
1000
0010
0100
0001
0100
1000
0001
1000
0100
0010
1000
0100
0010
0001
0000
,
0001
1000
0010
0100
0001
0100
1000
0001
1000
0100
0010
1000
0100
0010
0001
0000
,
0001
1000
0010
0100
0001
0100
1000
0001
1000
0100
0010
1000
0100
0010
0001
0000
,
1010
0000
0010
0101
0000
0000
0110
0000
0100
1010
0000
0000
0101
0000
0010
1000
,
0100
0000
1000
0000
0100
0000
0010
0000
0001
0000
0010
0000
0001
0000
1000
0000
0001
0000
0010
0000
0001
0000
0010
0000
0100
0000
1000
0000
0010
0100
1000
0000
,
0010
0100
0001
0100
0010
1000
0010
0001
,
0010
0100
0001
0100
0010
1000
0010
0001
,
0010
0100
0001
0100
0010
1000
0010
0001
,
0010
0100
0001
0100
0010
1000
0010
0001
,
0010
0100
0001
0100
0010
1000
0010
0001
,
0010
0100
0001
0100
0010
1000
0010
0001
,
0010
0100
0001
0100
0010
1000
0010
0001
,
0010
0100
0001
0100
0010
1000
0010
0001
,
0010
0100
0001
0100
0010
1000
0010
0001
,
0010
0100
0001
0100
0010
1000
0010
0001
,
0010
0100
0001
0100
0010
1000
0010
0001
,
0010
0100
0001
0100
0010
1000
0010
0001
,
0010
0100
0001
0100
0010
1000
0010
0001
,
0010
0100
0001
0100
0010
1000
0010
0001
,
0010
0100
0001
0100
0010
1000
0010
0001
,
0010
0100
0001
0100
0010
1000
0010
0001
,
0010
0100
0001
0100
0010
1000
0010
0001
,
0010
0100
0001
0100
0010
1000
0010
0001
,
0010
0000
0010
0100
0010
0100
0000
0000
1001
0000
0000
0000
1010
0000
0000
0000
,
0110
0101
1001
0010
,
0100
0010
1000
0010
0100
0001
0100
1000
,
0100
0010
1000
0010
0100
0001
0100
1000
,
0100
0010
1000
0010
0100
0001
0100
1000
,
0100
0010
1000
0010
0100
0001
0100
1000
,
0100
0010
1000
0010
0100
0001
0100
1000
,
0100
0010
1000
0010
0100
0001
0100
1000
,
0100
0010
1000
0010
0100
0001
0100
1000
,
0100
0010
1000
0010
0100
0001
0100
1000
,
0100
0010
1000
0010
0100
0001
0100
1000
,
0100
0010
1000
0010
0100
0001
0100
1000
,
0100
0010
1000
0010
0100
0001
0100
1000
,
0100
0010
1000
0010
0100
0001
0100
1000
,
0100
0010
1000
0010
0100
0001
0100
1000
,
0100
0010
1000
0010
0100
0001
0100
1000
,
0100
0010
1000
0010
0100
0001
0100
1000
,
0100
0010
1000
0010
0100
0001
0100
1000
,
0100
0010
1000
0010
0100
0001
0100
1000
,
0100
0010
0001
0000
1100
0000
0000
0000
0011
0000
0000
0010
0000
0000
0110
0000
,
0000
0010
0000
0000
1010
0000
0000
0100
0000
0000
1010
0000
0000
0100
0000
0000
,
1001
0000
0000
0100
0000
0000
0101
0000
0000
0010
0000
0000
1001
0000
0000
0000
,
2002
0000
0000
0000
0000
0000
0000
3003
,
1000
0001
0010
1000
0100
0010
1000
0100
0010
0001
0100
0010
1000
0100
0010
1000
,
0001
0100
1000
0100
0010
0100
0001
0010
0100
0001
0010
0100
1000
0001
0100
1000
,
0010
0001
1000
0100
0001
1000
0010
0001
0100
1000
0001
0100
0010
0001
0100
0010
,
1000
0010
0001
1000
0010
0001
0100
0010
0001
0100
1000
0001
0010
1000
0100
0010
,
0001
1000
0010
0001
0100
0010
1000
0001
0010
1000
0100
0010
1000
0001
0010
0100
,
0001
0010
1000
0100
0010
1000
0001
0010
0100
0000
0010
0001
1000
0010
0100
1000
,
0010
0001
1000
0100
0001
0100
0010
0001
0100
1000
0001
0100
0010
0001
0100
0010
,
1000
0010
0001
1000
0010
0001
0100
1000
0001
0010
1000
0100
0010
0001
0100
1000
,
0010
0001
0010
0000
0100
1000
0100
0000
0010
0001
0020
0000
0000
0000
0030
0000
0100
1000
0200
0000
0000
0000
0300
0000
2002
0000
0000
0000
0000
0000
3003
0000
,
0010
1000
0100
0001
0010
1000
0001
0010
,
0100
0001
0010
1000
0100
0001
1000
0100
,
0001
1000
0001
1000
0001
1000
0001
1000
,
0100
0010
0100
0010
0100
0010
0100
0010
,
0001
1000
0001
1000
0001
1000
0001
0010
,
1000
0001
1000
0001
1000
0001
1000
0100
,
0010
0001
0010
0001
0100
1000
0100
1000
,
0100
1000
0100
1000
0010
0001
0010
0001
,
0010
0100
0010
0100
0001
1000
0001
1000
,
0100
0010
0100
0010
1000
0001
1000
0001
,
0010
0100
0010
0100
0001
1000
0001
1000
,
0100
0010
0100
0010
1000
0001
1000
0000
,
1001
0000
0000
0110
0000
0000
1001
0000
,
0010
0100
0010
0100
1000
0001
1000
0010
,
0001
1000
0001
1000
0001
1000
0001
1000
,
0001
1000
0001
1000
0001
1000
0001
1000
,
0010
1000
0100
0001
0010
1000
0001
0010
,
0100
0001
0010
1000
0100
0001
1000
0100
,
0001
1000
0001
1000
0001
1000
0001
1000
,
0100
0010
0100
0010
0100
0010
0100
0010
,
1001
0000
0000
0110
0000
0000
1001
0000
,
0110
0001
1000
0010
1000
0010
0001
1000
,
0001
1000
0100
0001
0010
1000
0001
0100
,
0010
0000
0100
0000
0001
0000
1000
0000
0100
0000
0010
0000
,
0101
0000
0000
1010
0000
0000
0101
0000
,
0100
0001
0100
0001
1000
0001
1000
0000
,
0101
0000
0000
1010
0000
0000
0101
0000
,
0010
1000
0010
1000
0100
0001
0100
0001
,
0010
1000
0010
1000
0010
1000
0010
1000
,
0100
0001
0100
0001
0100
0001
0100
0001
,
0010
0100
0010
0100
0010
0100
0010
0100
,
0001
0000
1000
0000
0001
1000
0001
1000
0020
0000
0000
0000
0000
0000
0030
0000
,
0001
0100
0001
0000
0100
0000
0001
0000
1000
0010
1000
0000
0010
0000
1000
0000
,
0001
0100
0001
0000
0100
0000
0001
0000
1000
0010
1000
0000
0010
0000
0100
0000
,
1000
0001
1000
0000
1000
0000
0010
0000
0001
1000
0001
0000
0001
0000
0100
0000
,
1000
0001
1000
0000
1000
0000
0010
0000
0001
1000
0001
0000
0001
0000
0100
0000
,
1000
0001
0100
0000
1000
0000
0100
0000
0010
0000
0001
0000
0010
0000
1000
0000
,
0001
1000
0010
0000
0001
0000
0010
0000
0100
0000
1000
0000
0100
0000
0001
0000
,
0100
0010
0100
0000
0010
0000
0100
0000
0010
0000
0100
0000
0010
0000
0001
0000
,
0010
0100
0010
0000
0100
0000
0010
0000
0100
0000
0010
0000
0100
0000
1000
0000
,
0010
1000
0010
0000
0001
0000
1000
0000
0010
0000
0100
0000
0010
0000
0100
0000
,
1000
0001
1000
0000
0010
0000
0001
0000
0100
0000
0010
0000
0100
0000
0010
0000
,
0001
1000
0001
0000
0001
0000
0100
0000
0001
0000
0010
0000
0001
0000
0010
0000
,
1000
0001
1000
0000
1000
0000
0010
0000
1000
0000
0100
0000
1000
0000
0100
0000
,
0010
1000
0100
0010
0001
0100
0010
0001
,
0100
0010
1000
0001
0010
0001
0100
1000
,
0010
1000
0100
0000
0001
0010
0100
0000
0010
1000
0001
0000
0010
0100
0001
0000
,
1000
0001
0010
0000
0001
0000
0010
0000
1000
0100
1000
0000
0100
0000
1000
0000
,
0001
0100
0001
0000
0100
0000
0001
0000
1000
0010
1000
0000
0010
0000
1000
0000
,
0001
0100
0001
0000
0100
0000
0001
0000
1000
0010
1000
0000
0010
0000
0100
0000
,
1000
0001
1000
0000
1000
0000
0010
0000
0001
1000
0001
0000
0001
0000
0100
0000
,
1000
0001
1000
0000
1000
0000
0010
0000
0001
1000
0001
0000
0001
0000
0100
0000
,
1000
0100
0001
0100
0010
0001
0010
1000
,
0001
0010
1000
0010
0100
1000
0100
0001
,
1000
0100
0001
0100
0010
0001
0010
1000
,
0001
0010
1000
0010
0100
1000
0100
0001
,
0001
1000
0100
1000
,
0001
1000
0100
1000
,
0001
1000
0100
1000
,
0001
0000
0010
0000
0001
0010
0100
1000
,
0100
0010
1000
0001
,
0100
0010
1000
0001
,
0100
0010
0001
1000
,
0100
0000
0010
0000
0001
0010
1000
0100
,
1000
0001
0010
0001
,
1000
0001
0010
0001
,
1000
0001
0010
0001
,
1000
0000
0100
0000
1000
0100
0010
0001
,
0100
0010
1000
0001
,
0100
0010
1000
0001
,
0100
0010
1000
0010
,
0001
0000
0010
0000
1000
0000
0100
0010
,
0100
0010
0100
0000
1001
0000
0000
0000
,
0001
0000
1001
0000
,
1000
0000
1001
0000
,
0001
0000
1001
0000
,
1000
0010
0001
0000
1000
0000
0010
0000
,
0001
0100
0010
0000
1000
0000
0010
0000
,
1000
0010
0001
0000
0010
0000
0100
0000
,
1000
0001
0100
0000
0010
0000
0001
0000
,
0010
0000
1010
0000
,
0001
0000
1001
0000
,
1000
0000
0101
0000
,
0001
0000
1010
0000
,
1000
0001
0100
0000
0001
0000
0100
0000
,
0001
1000
0010
0000
1000
0000
0010
0000
,
1000
0010
0100
0000
0001
0000
0010
0000
,
1000
0010
0100
0000
0001
0000
0010
0000
,
0100
0000
0011
0000
,
1000
0000
0011
0000
,
0001
0000
1100
0000
,
1000
0000
1100
0000
,
0001
1000
0010
0000
1000
0000
0010
0000
,
1000
0001
0100
0000
0001
0000
0100
0000
,
0001
1000
0010
0000
1000
0000
0100
0000
,
0001
0010
1000
0000
0100
0000
0001
0000
,
0100
0000
1001
0000
,
1010
0000
1001
0000
,
0101
0000
1001
0000
,
1010
0000
1001
0000
,
0001
1000
0010
0000
1000
0000
0010
0000
,
1000
0001
0100
0000
0001
0000
0100
0000
,
1000
0100
1000
0000
0001
0010
0001
0000
,
0100
0010
0100
0000
0010
0100
0010
0100
,
0010
2002
0000
0000
,
3003
0000
0000
0000
;

//---------------dance-single - ----------------
#NOTEDATA:;
#CHARTNAME:;
#STEPSTYPE:dance-single;
#DESCRIPTION:;
#CHARTSTYLE:;
#DIFFICULTY:Beginner;
#METER:15;
#RADARVALUES:0.881186,1.335700,0.308415,0.072182,0.062339,940.000000,893.000000,47.000000,11.000000,0.000000,0.000000,0.000000,0.000000,0.000000,0.881186,1.335700,0.308415,0.072182,0.062339,940.000000,893.000000,47.000000,11.000000,0.000000,0.000000,0.000000,0.000000,0.000000;
#CREDIT:;
#DISPLAYBPM:47.000000:744.000000;
#NOTES:
1000
0010
0100
0001
0010
0100
0001
1000
,
0001
0100
0010
1000
0100
0010
1000
0001
,
1000
0100
1000
0100
0010
0001
0010
0100
,
0001
0010
0001
0010
1000
0100
1000
0001
,
1000
0100
1000
0100
0010
0001
0010
0100
,
0010
0000
1000
0000
0100
0000
0010
0000
0001
0010
0000
1000
0100
0000
0001
0010
,
1000
0100
1000
0001
0001
0100
0010
1000
,
1000
0100
1000
0001
0001
0100
0010
1000
,
1000
0100
1000
0001
0001
0100
0010
1000
,
1000
0100
1000
0001
0001
0100
0010
1000
,
1000
0100
1000
0001
0001
0100
0010
1000
,
1000
0100
1000
0001
0001
0100
0010
1000
,
1000
0100
1000
0001
0001
0100
0010
1000
,
0002
0010
0010
0010
2003
0100
0100
3100
,
0001
0010
0001
1000
1000
0010
0100
0001
,
0001
0010
0001
1000
1000
0010
0100
0001
,
0001
0010
0001
1000
1000
0010
0100
0001
,
0001
0010
0001
1000
1000
0010
0100
0001
,
0001
0010
0001
1000
1000
0010
0100
0001
,
0001
0010
0001
1000
1000
0010
0100
0001
,
1001
0000
0000
0110
0000
0000
1100
0000
0000
0110
0000
0000
0011
0000
0000
1000
,
0100
0000
0100
0010
0000
0010
0001
0000
0001
0010
0000
0010
0100
0000
0100
1000
,
0010
0000
0001
0000
0010
1000
0010
0000
,
0010
0000
0001
0000
0010
1000
0010
0000
,
0010
0000
0001
0000
0010
1000
0010
0000
,
0010
0000
0001
0000
0010
1000
0010
0000
,
0010
0000
0001
0000
0010
1000
0010
0000
,
0010
0000
0001
0000
0010
1000
0010
0000
,
0010
0000
0001
0000
0010
1000
0010
0000
,
0010
0000
0001
0000
0010
1000
0010
0000
,
0010
0000
0001
0000
0010
1000
0010
0000
,
0010
0000
0001
0000
0010
1000
0010
0000
,
0010
0000
0001
0000
0010
1000
0010
0000
,
0010
0000
0001
0000
0010
1000
0010
0000
,
0010
0000
0001
0000
0010
1000
0010
0000
,
0010
0000
0001
0000
0010
1000
0010
0000
,
0010
0000
0001
0000
0010
1000
0010
0000
,
0010
0000
0001
0000
0010
1000
0010
0000
,
0010
0000
0001
0000
0010
1000
0010
0000
,
0010
0000
0001
0000
0010
1000
0010
0000
,
0010
0100
0010
0000
1001
0000
0000
0000
,
0110
0000
1001
0000
,
0100
0000
1000
0000
0100
0001
0100
0000
,
0100
0000
1000
0000
0100
0001
0100
0000
,
0100
0000
1000
0000
0100
0001
0100
0000
,
0100
0000
1000
0000
0100
0001
0100
0000
,
0100
0000
1000
0000
0100
0001
0100
0000
,
0100
0000
1000
0000
0100
0001
0100
0000
,
0100
0000
1000
0000
0100
0001
0100
0000
,
0100
0000
1000
0000
0100
0001
0100
0000
,
0100
0000
1000
0000
0100
0001
0100
0000
,
0100
0000
1000
0000
0100
0001
0100
0000
,
0100
0000
1000
0000
0100
0001
0100
0000
,
0100
0000
1000
0000
0100
0001
0100
0000
,
0100
0000
1000
0000
0100
0001
0100
0000
,
0100
0000
1000
0000
0100
0001
0100
0000
,
0100
0000
1000
0000
0100
0001
0100
0000
,
0100
0000
1000
0000
0100
0001
0100
0000
,
0100
0000
1000
0000
0100
0001
0100
0000
,
0100
0000
1000
0000
1001
0000
0000
0110
,
0000
0000
1010
0000
0000
0101
0000
0000
,
1001
0000
0000
1010
0000
0000
1001
0000
,
2002
0000
0000
0000
0000
0000
0000
3003
,
1000
0010
0100
1000
0010
0100
1000
0010
,
0001
1000
0010
0001
0100
0010
1000
0100
,
0010
1000
0001
0010
0100
0001
0010
0100
,
1000
0001
0010
0100
0001
1000
0010
0100
,
0001
0010
0100
1000
0010
0100
1000
0010
,
0001
1000
0010
0001
0100
0010
1000
0100
,
0010
1000
0001
0010
0100
0001
0010
0100
,
1000
0001
0010
0100
0001
1000
0010
0100
,
0010
0010
0010
0010
0010
0020
0000
0030
0100
0200
0000
0300
2002
0000
0000
3003
,
0010
0100
0010
0001
,
0100
0010
0100
1000
,
0001
1000
0001
1000
,
0010
0100
0010
0100
,
0001
1000
0001
0000
0001
0000
0001
0000
,
1000
0001
1000
0000
1000
0000
1000
0000
,
0010
0001
0010
0000
0100
0000
1000
0000
,
0100
1000
0100
0000
0010
0000
0001
0000
,
0010
0100
0010
0000
0001
0000
1000
0000
,
0100
0010
0100
0000
1000
0000
0001
0000
,
0010
0100
0010
0000
0001
0000
1000
0000
,
0100
0010
0100
0000
1000
0000
0001
0000
,
1001
0000
0000
0110
0000
0000
1001
0000
,
0010
0100
0010
0000
1000
0000
1000
0000
,
0001
1000
0001
0000
1000
0001
1000
0000
,
0001
1000
0001
0000
1000
0001
0000
0000
,
0010
0100
0010
0001
,
0100
0010
0100
1000
,
0001
1000
0001
1000
,
0010
0100
0010
0100
,
1001
0000
0000
0110
0000
0000
1001
0000
,
0110
0000
1000
0001
1000
0000
0001
1000
,
0001
0100
0010
0001
,
0100
0000
0010
0000
1000
0000
0001
0000
0010
0000
0100
0000
,
1010
0000
0000
0101
0000
0000
1010
0000
,
0100
0001
0100
0000
1000
0001
1000
0000
,
0101
0000
0000
1010
0000
0000
0101
0000
,
0010
1000
0010
0000
0001
1000
0001
0000
,
1000
0001
1000
0000
0001
1000
0001
0000
,
0001
1000
0001
0000
1000
0001
1000
0000
,
0010
0100
0010
0000
0100
0010
0100
0000
,
0001
1000
0001
0000
0020
0000
0000
0030
,
0100
0001
0100
0000
0010
1000
0010
0000
,
0100
0001
0100
0000
0010
1000
0010
0000
,
1000
0001
1000
0000
0001
1000
0001
0000
,
1000
0001
1000
0000
0001
1000
0001
0000
,
1000
0100
1000
0000
0010
0001
0010
0000
,
0001
0010
0001
0000
0100
1000
0100
0000
,
0010
0100
0010
0000
0010
0100
0010
0000
,
0100
0010
0100
0000
0100
0010
0100
0000
,
0010
0000
0001
0000
0010
0100
0010
0000
,
1000
0000
0010
0000
0100
0010
0100
0000
,
0001
1000
0001
0000
0001
0000
0001
0000
,
1000
0001
1000
0000
1000
0000
1000
0000
,
0010
1000
0100
0000
0001
0100
0010
0000
,
0100
0010
1000
0000
0010
0001
0100
0000
,
0010
0000
0001
0000
0010
0001
0010
0000
,
1000
0000
0001
0000
0100
1000
0100
0000
,
0100
0001
0100
0000
0010
1000
0010
0000
,
0100
0001
0100
0000
0010
1000
0010
0000
,
1000
0001
1000
0000
0001
1000
0001
0000
,
1000
0001
1000
0000
0001
1000
0001
0000
,
1000
0100
1000
0000
0010
0001
0010
0000
,
0001
0010
0001
0000
0100
1000
0100
0000
,
1000
0100
1000
0000
0010
0001
0010
0000
,
0001
0010
0001
0000
0100
1000
0100
0000
,
1000
0001
1000
0001
,
1000
0001
1000
0001
,
1000
0001
1000
0001
,
1000
0100
0010
0001
,
0010
0100
0010
0100
,
0010
0100
0010
0100
,
0010
0100
0010
0100
,
1000
0100
0001
0010
,
0001
1000
0001
1000
,
0001
1000
0001
1000
,
0001
1000
0001
1000
,
0001
0010
0100
1000
,
0010
0100
0010
0100
,
0010
0100
0010
0100
,
0010
0100
0010
0100
,
1000
0100
0001
0010
,
0100
0000
1001
0000
,
1000
0000
1001
0000
,
0001
0000
1001
0000
,
1000
0000
1001
0000
,
0001
0010
0001
0010
,
1000
0100
1000
0100
,
0001
0010
0100
1000
,
0001
0010
0100
1000
,
0100
0000
1001
0000
,
1000
0000
1001
0000
,
0001
0000
1001
0000
,
1000
0000
1001
0000
,
0001
0010
0001
0010
,
1000
0100
1000
0100
,
0001
0010
0100
1000
,
0001
0010
0100
1000
,
0010
0000
1001
0000
,
0001
0000
1001
0000
,
1000
0000
1001
0000
,
0001
0000
1001
0000
,
1000
0100
1000
0100
,
0001
0010
0001
0010
,
1000
0100
0010
0001
,
1000
0100
0010
0001
,
0010
0000
1001
0000
,
0001
0000
1001
0000
,
1000
0000
1001
0000
,
0001
0000
1001
0000
,
1000
0100
1000
0100
,
0001
0010
0001
0010
,
1000
0100
0010
0001
,
1000
0100
0010
0001
,
0100
2002
0000
0000
,
3003
0000
0000
0000
;

//---------------dance-single - Deluxe----------------
#NOTEDATA:;
#CHARTNAME:;
#STEPSTYPE:dance-single;
#DESCRIPTION:Deluxe;
#CHARTSTYLE:;
#DIFFICULTY:Edit;
#METER:21;
#RADARVALUES:1.423022,2.090661,0.459342,0.085306,0.915402,1518.000000,1448.000000,70.000000,13.000000,0.000000,0.000000,0.000000,0.000000,0.000000,1.423022,2.090661,0.459342,0.085306,0.915402,1518.000000,1448.000000,70.000000,13.000000,0.000000,0.000000,0.000000,0.000000,0.000000;
#CREDIT:;
#DISPLAYBPM:47.000000:744.000000;
#NOTES:
// measure 0
1000
0001
0010
1000
0100
0010
0001
0100
0010
1000
0100
0010
0001
0100
1000
0010
,  // measure 1
0001
1000
0100
0001
0010
0100
1000
0001
0100
1000
0010
0001
2000
0010
3002
0100
,  // measure 2
0013
1000
0100
0010
1000
0010
0100
1000
0010
0100
0001
1000
0010
0001
0100
0010
,  // measure 3
0001
0100
1000
0010
0001
0100
0010
0001
1000
0010
0100
0010
1000
0100
0001
0010
,  // measure 4
1000
0010
0100
0010
0001
0010
0100
1000
0010
0100
0001
1000
0010
0100
1000
0001
,  // measure 5
0010
0100
1000
0001
0100
1000
0010
0100
0011
0010
0000
1100
0100
0000
0011
0010
,  // measure 6
1000
0001
0100
0010
1000
0010
0001
1000
0001
0010
0100
0001
0010
0100
1000
0100
,  // measure 7
1000
0001
0100
0010
1000
0010
0001
1000
0001
0010
0100
0001
0010
0100
1000
0100
,  // measure 8
1000
0001
0100
0010
1000
0010
0001
1000
0001
0010
0100
0001
0010
0100
1000
0100
,  // measure 9
1000
0001
0100
0010
1000
0010
0001
1000
0001
0010
0100
0001
0010
0100
1000
0100
,  // measure 10
1000
0001
0100
0010
1000
0010
0001
1000
0001
0010
0100
0001
0010
0100
1000
0100
,  // measure 11
1000
0001
0100
0010
1000
0010
0001
1000
0001
0010
0100
0001
0010
0100
1000
0100
,  // measure 12
1000
0001
0100
0010
1000
0010
0001
1000
0001
0010
0100
0001
0010
0100
1000
0100
,  // measure 13
0012
0010
0010
0010
2003
0100
0100
3100
,  // measure 14
0001
1000
0010
0100
0001
0100
1000
0001
1000
0100
0010
1000
0100
0010
0001
0010
,  // measure 15
0001
1000
0010
0100
0001
0100
1000
0001
1000
0100
0010
1000
0100
0010
0001
0010
,  // measure 16
0001
1000
0010
0100
0001
0100
1000
0001
1000
0100
0010
1000
0100
0010
0001
0010
,  // measure 17
0001
1000
0010
0100
0001
0100
1000
0001
1000
0100
0010
1000
0100
0010
0001
0010
,  // measure 18
0001
1000
0010
0100
0001
0100
1000
0001
1000
0100
0010
1000
0100
0010
0001
0010
,  // measure 19
0001
1000
0010
0100
0001
0100
1000
0001
1000
0100
0010
1000
0100
0010
0001
0010
,  // measure 20
1010
0000
0010
0101
0000
0000
0110
0000
0100
1010
0000
0000
0101
0000
0010
1000
,  // measure 21
0100
0000
1000
0000
0100
0000
0010
0000
0001
0000
0010
0000
0001
0000
1000
0000
0001
0000
0010
0000
0001
0000
0010
0000
0100
0000
1000
0000
0010
0100
1000
0000
,  // measure 22
0010
0100
0001
0100
0010
1000
0010
0001
,  // measure 23
0010
0100
0001
0100
0010
1000
0010
0001
,  // measure 24
0010
0100
0001
0100
0010
1000
0010
0001
,  // measure 25
0010
0100
0001
0100
0010
1000
0010
0001
,  // measure 26
0010
0100
0001
0100
0010
1000
0010
0001
,  // measure 27
0010
0100
0001
0100
0010
1000
0010
0001
,  // measure 28
0010
0100
0001
0100
0010
1000
0010
0001
,  // measure 29
0010
0100
0001
0100
0010
1000
0010
0001
,  // measure 30
0010
0100
0001
0100
0010
1000
0010
0001
,  // measure 31
0010
0100
0001
0100
0010
1000
0010
0001
,  // measure 32
0010
0100
0001
0100
0010
1000
0010
0001
,  // measure 33
0010
0100
0001
0100
0010
1000
0010
0001
,  // measure 34
0010
0100
0001
0100
0010
1000
0010
0001
,  // measure 35
0010
0100
0001
0100
0010
1000
0010
0001
,  // measure 36
0010
0100
0001
0100
0010
1000
0010
0001
,  // measure 37
0010
0100
0001
0100
0010
1000
0010
0001
,  // measure 38
0010
0100
0001
0100
0010
1000
0010
0001
,  // measure 39
0010
0100
0001
0100
0010
1000
0010
0001
,  // measure 40
0010
0000
0010
0100
0010
0100
0000
0000
1001
0000
0000
0000
1010
0000
0000
0000
,  // measure 41
0110
0101
1001
0010
,  // measure 42
0100
0010
1000
0010
0100
0001
0100
1000
,  // measure 43
0100
0010
1000
0010
0100
0001
0100
1000
,  // measure 44
0100
0010
1000
0010
0100
0001
0100
1000
,  // measure 45
0100
0010
1000
0010
0100
0001
0100
1000
,  // measure 46
0100
0010
1000
0010
0100
0001
0100
1000
,  // measure 47
0100
0010
1000
0010
0100
0001
0100
1000
,  // measure 48
0100
0010
1000
0010
0100
0001
0100
1000
,  // measure 49
0100
0010
1000
0010
0100
0001
0100
1000
,  // measure 50
0100
0010
1000
0010
0100
0001
0100
1000
,  // measure 51
0100
0010
1000
0010
0100
0001
0100
1000
,  // measure 52
0100
0010
1000
0010
0100
0001
0100
1000
,  // measure 53
0100
0010
1000
0010
0100
0001
0100
1000
,  // measure 54
0100
0010
1000
0010
0100
0001
0100
1000
,  // measure 55
0100
0010
1000
0010
0100
0001
0100
1000
,  // measure 56
0100
0010
1000
0010
0100
0001
0100
1000
,  // measure 57
0100
0010
1000
0010
0100
0001
0100
1000
,  // measure 58
0100
0010
1000
0010
0100
0001
0100
1000
,  // measure 59
0100
0010
0001
0000
1100
0000
0000
0000
0011
0000
0000
0010
0000
0000
0110
0000
,  // measure 60
0000
0010
0000
0000
1010
0000
0000
0100
0000
0000
1010
0000
0000
0100
0000
0000
,  // measure 61
1001
0000
0000
0100
0000
0000
0101
0000
0000
0010
0000
0000
1001
0000
0000
0000
,  // measure 62
2002
0000
0000
0000
0000
0000
0000
3003
,  // measure 63
1000
0001
0010
1000
0100
0010
1000
0100
0010
0001
0100
0010
1000
0100
0010
1000
,  // measure 64
0001
0100
1000
0100
0010
0100
0001
0010
0100
0001
0010
0100
1000
0001
0100
1000
,  // measure 65
0010
0001
1000
0100
0001
1000
0010
0001
0100
1000
0001
0100
0010
0001
0100
0010
,  // measure 66
1000
0010
0001
1000
0010
0001
0100
0010
0001
0100
1000
0001
0010
1000
0100
0010
,  // measure 67
0001
1000
0010
0001
0100
0010
1000
0001
0010
1000
0100
0010
1000
0001
0010
0100
,  // measure 68
0001
0010
1000
0100
0010
1000
0001
0010
0100
0000
0010
0001
1000
0010
0100
1000
,  // measure 69
0010
0001
1000
0100
0001
0100
0010
0001
0100
1000
0001
0100
0010
0001
0100
0010
,  // measure 70
1000
0010
0001
1000
0010
0001
0100
1000
0001
0010
1000
0100
0010
0001
0100
1000
,  // measure 71
0010
0001
0010
0000
0100
1000
0100
0000
0010
0001
0020
0000
0000
0000
0030
0000
0100
1000
0200
0000
0000
0000
0300
0000
2002
0000
0000
0000
0000
0000
3003
0000
,  // measure 72
0010
1000
0100
0001
0010
1000
0001
0010
,  // measure 73
0100
0001
0010
1000
0100
0001
1000
0100
,  // measure 74
0001
1000
0001
1000
0001
1000
0001
1000
,  // measure 75
0100
0010
0100
0010
0100
0010
0100
0010
,  // measure 76
0001
1000
0001
1000
0001
1000
0001
0010
,  // measure 77
1000
0001
1000
0001
1000
0001
1000
0100
,  // measure 78
0010
0001
0010
0001
0100
1000
0100
1000
,  // measure 79
0100
1000
0100
1000
0010
0001
0010
0001
,  // measure 80
0010
0100
0010
0100
0001
1000
0001
1000
,  // measure 81
0100
0010
0100
0010
1000
0001
1000
0001
,  // measure 82
0010
0100
0010
0100
0001
1000
0001
1000
,  // measure 83
0100
0010
0100
0010
1000
0001
1000
0001
,  // measure 84
1001
0000
0000
0110
0000
0000
1001
0000
,  // measure 85
0010
0100
0010
0100
1000
0001
1000
0010
,  // measure 86
0001
1000
0001
1000
0001
1000
0001
1000
,  // measure 87
0001
1000
0001
1000
0001
1000
0001
1000
,  // measure 88
0010
1000
0100
0001
0010
1000
0001
0010
,  // measure 89
0100
0001
0010
1000
0100
0001
1000
0100
,  // measure 90
0001
1000
0001
1000
0001
1000
0001
1000
,  // measure 91
0100
0010
0100
0010
0100
0010
0100
0010
,  // measure 92
1001
0001
0000
0110
0010
0000
1001
1000
,  // measure 93
0110
0001
1000
0010
1000
0010
0001
1000
,  // measure 94
0001
1000
0100
0001
0010
1000
0001
0100
,  // measure 95
0010
0000
0100
0000
0001
0000
1000
0000
0100
0000
0010
0000
,  // measure 96
0101
0000
0000
1010
0000
0000
0101
0000
,  // measure 97
0100
0001
0100
0001
1000
0001
1000
0001
,  // measure 98
0101
0100
0000
1010
0010
0000
0101
0100
,  // measure 99
0010
1000
0010
1000
0100
0001
0100
0001
,  // measure 100
0010
1000
0010
1000
0010
1000
0010
1000
,  // measure 101
0100
0001
0100
0001
0100
0001
0100
0001
,  // measure 102
0010
0100
0010
0100
0010
0100
0010
0100
,  // measure 103
0001
0000
1000
0000
0001
1000
0001
1000
0020
0000
0000
0000
0000
0000
0030
0000
,  // measure 104
0001
0100
0001
0000
0100
0000
0001
0000
1000
0010
1000
0000
0010
0000
1000
0000
,  // measure 105
0001
0100
0001
0000
0100
0000
0001
0000
1000
0010
1000
0000
0010
0000
0100
0000
,  // measure 106
1000
0001
1000
0000
1000
0000
0010
0000
0001
1000
0001
0000
0001
0000
0100
0000
,  // measure 107
1000
0001
1000
0000
1000
0000
0010
0000
0001
1000
0001
0000
0001
0000
0100
0000
,  // measure 108
1000
0001
0100
0000
1000
0000
0100
0000
0010
0000
0001
0000
0010
0000
1000
0000
,  // measure 109
0001
1000
0010
0000
0001
0000
0010
0000
0100
0000
1000
0000
0100
0000
0001
0000
,  // measure 110
0100
0010
0100
0000
0010
0000
0100
0000
0010
0000
0100
0000
0010
0000
0001
0000
,  // measure 111
0010
0100
0010
0000
0100
0000
0010
0000
0100
0000
0010
0000
0100
0000
1000
0000
,  // measure 112
0010
1000
0010
0000
0001
0000
1000
0000
0010
0000
0100
0000
0010
0000
0100
0000
,  // measure 113
1000
0001
1000
0000
0010
0000
0001
0000
0100
0000
0010
0000
0100
0000
0010
0000
,  // measure 114
0001
1000
0001
0000
0001
0000
0100
0000
0001
0000
0010
0000
0001
0000
0010
0000
,  // measure 115
1000
0001
1000
0000
1000
0000
0010
0000
1000
0000
0100
0000
1000
0000
0100
0000
,  // measure 116
0010
1000
0100
0010
0001
0100
0010
0001
,  // measure 117
0100
0010
1000
0001
0010
0001
0100
1000
,  // measure 118
0010
1000
0100
0000
0001
0010
0100
0000
0010
1000
0001
0000
0010
0100
0001
0000
,  // measure 119
1000
0001
0010
0000
0001
0000
0010
0000
1000
0100
1000
0000
0100
0000
1000
0000
,  // measure 120
0001
0100
0001
0000
0100
0000
0001
0000
1000
0010
1000
0000
0010
0000
1000
0000
,  // measure 121
0001
0100
0001
0000
0100
0000
0001
0000
1000
0010
1000
0000
0010
0000
0100
0000
,  // measure 122
1000
0001
1000
0000
1000
0000
0010
0000
0001
1000
0001
0000
0001
0000
0100
0000
,  // measure 123
1000
0001
1000
0000
1000
0000
0010
0000
0001
1000
0001
0000
0001
0000
0100
0000
,  // measure 124
1000
0100
0001
0100
0010
0001
0010
1000
,  // measure 125
0001
0010
1000
0010
0100
1000
0100
0001
,  // measure 126
1000
0100
0001
0100
0010
0001
0010
1000
,  // measure 127
0001
0010
1000
0010
0100
1000
0100
0001
,  // measure 128
0001
0100
1000
0000
0100
0000
1000
0000
,  // measure 129
0001
0100
1000
0000
0100
0000
1000
0000
,  // measure 130
0001
0100
1000
0000
0100
0000
1000
0000
,  // measure 131
0001
0000
0010
0000
0001
0010
0100
1000
,  // measure 132
0100
1000
0010
0000
1000
0000
0001
0000
,  // measure 133
0100
1000
0010
0000
1000
0000
0001
0000
,  // measure 134
0100
1000
0010
0000
0001
0000
1000
0000
,  // measure 135
0100
0000
0010
0000
0001
0010
1000
0100
,  // measure 136
1000
0010
0001
0000
0010
0000
0001
0000
,  // measure 137
1000
0010
0001
0000
0010
0000
0001
0000
,  // measure 138
1000
0010
0001
0000
0010
0000
0001
0000
,  // measure 139
1000
0000
0100
0000
1000
0100
0010
0001
,  // measure 140
0100
1000
0010
0000
1000
0000
0001
0000
,  // measure 141
0100
1000
0010
0000
1000
0000
0001
0000
,  // measure 142
0100
1000
0010
0000
1000
0000
0010
0000
,  // measure 143
0001
0000
0010
0000
1000
0000
0100
0010
,  // measure 144
0100
0010
0100
0000
1001
0000
0000
0000
,  // measure 145
0101
0000
1001
0000
,  // measure 146
1010
0000
1001
0000
,  // measure 147
0101
0000
1001
0000
,  // measure 148
1000
0010
0001
0000
1000
0000
0010
0000
,  // measure 149
0001
0100
0010
0000
1000
0000
0010
0000
,  // measure 150
1000
0010
0001
0000
0010
0000
0100
0000
,  // measure 151
1000
0001
0100
0000
0010
0000
0001
0000
,  // measure 152
0110
0000
1010
0000
,  // measure 153
0101
0000
1001
0000
,  // measure 154
1010
0000
0101
0000
,  // measure 155
0011
0000
1010
0000
,  // measure 156
1000
0001
0100
0000
0001
0000
0100
0000
,  // measure 157
0001
1000
0010
0000
1000
0000
0010
0000
,  // measure 158
1000
0010
0100
0000
0001
0000
0010
0000
,  // measure 159
1000
0010
0100
0000
0001
0000
0010
0000
,  // measure 160
0101
0000
0011
0000
,  // measure 161
1100
0000
0011
0000
,  // measure 162
0101
0000
1100
0000
,  // measure 163
1010
0000
1100
0000
,  // measure 164
0001
1000
0010
0000
1000
0000
0010
0000
,  // measure 165
1000
0001
0100
0000
0001
0000
0100
0000
,  // measure 166
0001
1000
0010
0000
1000
0000
0100
0000
,  // measure 167
0001
0010
1000
0000
0100
0000
0001
0000
,  // measure 168
0110
0000
1001
0000
,  // measure 169
1010
0000
1001
0000
,  // measure 170
0101
0000
1001
0000
,  // measure 171
1010
0000
1001
0000
,  // measure 172
0001
1000
0010
0000
1000
0000
0010
0000
,  // measure 173
1000
0001
0100
0000
0001
0000
0100
0000
,  // measure 174
1000
0100
1000
0000
0001
0010
0001
0000
,  // measure 175
0100
0010
0100
0000
0010
0100
0010
0100
,  // measure 176
0110
2002
0000
0000
,  // measure 177
3003
0000
0000
0000
;

//---------------dance-single - Enjoy----------------
#NOTEDATA:;
#CHARTNAME:;
#STEPSTYPE:dance-single;
#DESCRIPTION:Enjoy;
#CHARTSTYLE:;
#DIFFICULTY:Edit;
#METER:1;
#RADARVALUES:0.044059,0.173484,0.032810,0.013124,0.000000,47.000000,42.000000,5.000000,2.000000,0.000000,0.000000,0.000000,0.000000,0.000000,0.044059,0.173484,0.032810,0.013124,0.000000,47.000000,42.000000,5.000000,2.000000,0.000000,0.000000,0.000000,0.000000,0.000000;
#CREDIT:;
#DISPLAYBPM:47.000000:744.000000;
#NOTES:
// measure 0
0020
0000
0000
0000
,  // measure 1
0000
0000
0000
0030
,  // measure 2
0100
0000
0000
0000
,  // measure 3
0000
0000
0000
0000
,  // measure 4
0010
0000
0000
0000
,  // measure 5
0000
0000
0000
0000
,  // measure 6
1000
0000
0000
0000
,  // measure 7
0000
0000
0000
0000
,  // measure 8
0000
0000
0000
0000
,  // measure 9
0000
0000
0000
0000
,  // measure 10
1000
0000
0000
0000
,  // measure 11
0000
0000
0000
0000
,  // measure 12
0000
0000
0000
0000
,  // measure 13
0000
0000
0000
0000
,  // measure 14
0001
0000
0000
0000
,  // measure 15
0000
0000
0000
0000
,  // measure 16
0000
0000
0000
0000
,  // measure 17
0000
0000
0000
0000
,  // measure 18
0001
0000
0000
0000
,  // measure 19
0000
0000
0000
0000
,  // measure 20
0000
0000
0000
0000
,  // measure 21
0000
0000
0000
0000
,  // measure 22
1000
0000
0000
0000
,  // measure 23
0000
0000
0000
0000
,  // measure 24
0000
0000
0000
0000
,  // measure 25
0000
0000
0000
0000
,  // measure 26
1000
0000
0000
0000
,  // measure 27
0000
0000
0000
0000
,  // measure 28
0000
0000
0000
0000
,  // measure 29
0000
0000
0000
0000
,  // measure 30
1000
0000
0000
0000
,  // measure 31
0000
0000
0000
0000
,  // measure 32
0000
0000
0000
0000
,  // measure 33
0000
0000
0000
0000
,  // measure 34
1000
0000
0000
0000
,  // measure 35
0000
0000
0000
0000
,  // measure 36
0000
0000
0000
0000
,  // measure 37
0000
0000
0000
0000
,  // measure 38
1000
0000
0000
0000
,  // measure 39
0000
0000
0000
0000
,  // measure 40
0000
0000
0000
0000
,  // measure 41
0000
0000
0000
0000
,  // measure 42
0001
0000
0000
0000
,  // measure 43
0000
0000
0000
0000
,  // measure 44
0000
0000
0000
0000
,  // measure 45
0000
0000
0000
0000
,  // measure 46
0001
0000
0000
0000
,  // measure 47
0000
0000
0000
0000
,  // measure 48
0000
0000
0000
0000
,  // measure 49
0000
0000
0000
0000
,  // measure 50
0001
0000
0000
0000
,  // measure 51
0000
0000
0000
0000
,  // measure 52
0000
0000
0000
0000
,  // measure 53
0000
0000
0000
0000
,  // measure 54
0001
0000
0000
0000
,  // measure 55
0000
0000
0000
0000
,  // measure 56
0000
0000
0000
0000
,  // measure 57
0000
0000
0000
0000
,  // measure 58
0001
0000
0000
0000
,  // measure 59
0000
0000
0000
0000
,  // measure 60
0000
0000
0000
0000
,  // measure 61
0000
0000
0000
0000
,  // measure 62
0001
0000
0000
0000
,  // measure 63
1001
0000
0000
0000
,  // measure 64
0000
0000
0000
0000
,  // measure 65
0000
0000
0000
0000
,  // measure 66
0000
0000
0000
0000
,  // measure 67
0110
0000
0000
0000
,  // measure 68
0000
0000
0000
0000
,  // measure 69
0000
0000
0000
0000
,  // measure 70
0000
0000
0000
0000
,  // measure 71
0010
0000
0000
0000
,  // measure 72
0100
0000
0000
0000
,  // measure 73
0000
0000
0000
0000
,  // measure 74
0000
0000
0000
0000
,  // measure 75
0000
0000
0000
0000
,  // measure 76
0100
0000
0000
0000
,  // measure 77
0000
0000
0000
0000
,  // measure 78
0000
0000
0000
0000
,  // measure 79
0000
0000
0000
0000
,  // measure 80
0001
0000
0000
0000
,  // measure 81
0000
0000
0000
0000
,  // measure 82
0000
0000
0000
0000
,  // measure 83
0000
0000
0000
0000
,  // measure 84
1000
0000
0000
0000
,  // measure 85
0000
0000
0000
0000
,  // measure 86
0000
0000
0000
0000
,  // measure 87
0000
0000
0000
0000
,  // measure 88
0010
0000
0000
0000
,  // measure 89
0000
0000
0000
0000
,  // measure 90
0000
0000
0000
0000
,  // measure 91
0000
0000
0000
0000
,  // measure 92
0010
0000
0000
0000
,  // measure 93
0000
0000
0000
0000
,  // measure 94
0000
0000
0000
0000
,  // measure 95
0000
0000
0000
0000
,  // measure 96
0001
0000
0000
0000
,  // measure 97
0000
0000
0000
0000
,  // measure 98
0000
0000
0000
0000
,  // measure 99
0000
0000
0000
0000
,  // measure 100
1000
0000
0000
0000
,  // measure 101
0000
0000
0000
0000
,  // measure 102
0001
0000
0000
0000
,  // measure 103
0000
0000
0000
0000
,  // measure 104
0100
0000
0000
0000
,  // measure 105
0000
0000
0000
0000
,  // measure 106
0000
0000
0000
0000
,  // measure 107
0000
0000
0000
0000
,  // measure 108
1100
0000
0000
0000
,  // measure 109
0000
0000
0000
0000
,  // measure 110
0000
0000
0000
0000
,  // measure 111
0000
0000
0000
0000
,  // measure 112
0010
0000
0000
0000
,  // measure 113
0000
0000
0000
0000
,  // measure 114
0000
0000
0000
0000
,  // measure 115
0000
0000
0000
0000
,  // measure 116
0011
0000
0000
0000
,  // measure 117
0000
0000
0000
0000
,  // measure 118
0000
0000
0000
0000
,  // measure 119
0000
0000
0000
0000
,  // measure 120
1000
0000
0000
0000
,  // measure 121
0000
0000
0000
0000
,  // measure 122
0000
0000
0000
0000
,  // measure 123
0000
0000
0000
0000
,  // measure 124
0001
0000
0000
0000
,  // measure 125
0000
0000
0000
0000
,  // measure 126
0000
0000
0000
0000
,  // measure 127
0000
0000
0000
0000
,  // measure 128
0020
0000
0000
0000
,  // measure 129
0000
0000
0000
0000
,  // measure 130
0000
0000
0000
0000
,  // measure 131
0000
0000
0000
0000
,  // measure 132
0000
0000
0000
0000
,  // measure 133
0000
0000
0000
0000
,  // measure 134
0000
0000
0000
0000
,  // measure 135
0000
0000
0000
0000
,  // measure 136
0000
0000
0000
0000
,  // measure 137
0000
0000
0000
0000
,  // measure 138
0000
0000
0000
0000
,  // measure 139
0000
0000
0000
0000
,  // measure 140
0000
0000
0000
0000
,  // measure 141
0000
0000
0000
0000
,  // measure 142
0000
0000
0000
0000
,  // measure 143
0000
0000
0000
0030
,  // measure 144
0100
0000
0000
0000
,  // measure 145
0000
0000
0000
0000
,  // measure 146
0000
0000
0000
0000
,  // measure 147
0000
0000
0000
0000
,  // measure 148
0000
0000
0000
0000
,  // measure 149
0000
0000
0000
0000
,  // measure 150
0000
0000
0000
0000
,  // measure 151
0000
0000
0000
0000
,  // measure 152
0100
0000
0000
0000
,  // measure 153
0000
0000
0000
0000
,  // measure 154
0000
0000
0000
0000
,  // measure 155
0000
0000
0000
0000
,  // measure 156
0000
0000
0000
0000
,  // measure 157
0000
0000
0000
0000
,  // measure 158
0000
0000
0000
0000
,  // measure 159
0000
0000
0000
0000
,  // measure 160
0100
0000
0000
0000
,  // measure 161
0000
0000
0000
0000
,  // measure 162
0000
0000
0000
0000
,  // measure 163
0000
0000
0000
0000
,  // measure 164
0000
0000
0000
0000
,  // measure 165
0000
0000
0000
0000
,  // measure 166
0000
0000
0000
0000
,  // measure 167
0000
0000
0000
0000
,  // measure 168
0010
0000
0000
0000
,  // measure 169
0000
0000
0000
0000
,  // measure 170
0000
0000
0000
0000
,  // measure 171
0000
0000
0000
0000
,  // measure 172
0000
0000
0000
0000
,  // measure 173
0000
0000
0000
0000
,  // measure 174
0000
0000
0000
0000
,  // measure 175
0000
0000
0000
0000
,  // measure 176
0000
1001
0000
0000
;
