#TITLE:DIAMOND CROSSING;
#SUBTITLE:;
#ARTIST:S-C-U vs L.E.D.;
#TITLETRANSLIT:;
#SUBTITLETRANSLIT:;
#ARTISTTRANSLIT:S-C-U & L.E.D.;
#GENRE:HARD ELECTRIC POP;
#CREDIT:;
#BANNER:;
#BACKGROUND:;
#LYRICSPATH:;
#CDTITLE:;
#MUSIC:DIAMOND CROSSING.ogg;
#OFFSET:-1.000000;
#SAMPLESTART:25.000000;
#SAMPLELENGTH:15.000000;
#SELECTABLE:YES;
#BPMS:0.000000=180.000000
;
#STOPS:
;
#BGCHANGES:;
#KEYSOUNDS:;
#ATTACKS:;

//---------------dance-single - ----------------
#NOTES:
     dance-single:
     :
     Easy:
     12:
     0.494351,0.624483,0.266873,0.186811,0.115645,389.000000,359.000000,30.000000,21.000000,0.000000,0.000000,0.494351,0.624483,0.266873,0.186811,0.115645,389.000000,359.000000,30.000000,21.000000,0.000000,0.000000:
// measure 0
0000
0000
0000
0000
,  // measure 1
0000
0000
0000
0000
,  // measure 2
0000
0000
0000
0000
,  // measure 3
0000
0000
0000
0000
,  // measure 4
0000
0000
0000
0000
,  // measure 5
0000
0000
0000
0000
,  // measure 6
0000
0000
0000
0000
,  // measure 7
0000
0000
0000
0000
,  // measure 8
0000
0000
0000
0000
,  // measure 9
0000
0000
0000
0000
,  // measure 10
1000
0100
0001
0100
0010
0000
0010
0000
,  // measure 11
0001
0010
1000
0010
0100
0000
0100
0000
,  // measure 12
0010
1000
0100
1000
0001
0000
0001
0000
,  // measure 13
0100
0001
0010
0001
1000
0000
1000
0000
,  // measure 14
0001
0000
1000
0000
0001
1000
0001
1000
,  // measure 15
0010
0000
0100
0000
0010
0100
0010
0100
,  // measure 16
1000
0001
1000
0001
1000
0001
1000
0001
,  // measure 17
1000
0001
1000
0001
1000
0001
1000
0001
,  // measure 18
2000
0000
0000
0000
3010
0100
0001
0010
,  // measure 19
0100
0100
0010
0100
0020
0000
0000
0030
,  // measure 20
1000
0100
0001
0100
1000
0010
0010
0100
,  // measure 21
0010
0000
0100
0000
0010
0000
0100
0000
0000
0010
0000
0000
0100
0000
0000
0000
,  // measure 22
0020
0000
0000
0000
0031
1000
0100
0001
,  // measure 23
0010
0000
0100
0000
0000
0000
0000
0010
0000
0000
1000
0000
0010
0000
1000
0000
,  // measure 24
0200
0000
0000
0320
0000
0000
0032
0000
2000
0000
0000
0000
0000
0000
3003
0000
,  // measure 25
0010
0000
0100
0000
0010
0100
0010
0100
,  // measure 26
0002
0000
0000
0000
0103
0010
1000
0100
,  // measure 27
0010
0010
0100
0010
0200
0000
0000
0300
,  // measure 28
0001
0010
1000
0010
0001
0100
0100
0010
,  // measure 29
0100
0000
0010
0000
0100
0000
0010
0000
0000
0100
0000
0000
0010
0000
0000
0000
,  // measure 30
0200
0000
0000
0000
1300
0001
0010
1000
,  // measure 31
0100
0000
0010
0000
0000
0000
0000
0100
0000
0000
0001
0000
0100
0000
0001
0000
,  // measure 32
0020
0000
0000
0230
0000
0000
2300
0000
0002
0000
0000
0000
0000
0000
3003
0000
,  // measure 33
1001
0110
1001
0110
,  // measure 34
1000
0000
0000
0100
0000
0000
0010
0000
0100
0000
0000
0010
0000
0000
0001
0000
,  // measure 35
0010
0000
0000
1000
0000
0000
0001
0000
1000
0000
0000
0001
0000
0000
0100
0000
,  // measure 36
1000
0000
0000
0100
0000
0000
0001
0000
0000
0000
0010
0000
0010
0000
0010
0000
,  // measure 37
1000
0010
0001
0010
0000
0100
0010
0100
,  // measure 38
0010
0001
0100
1000
0010
0001
0100
1000
,  // measure 39
0010
0010
0010
0010
,  // measure 40
0100
1000
0010
0001
0100
1000
0010
0001
,  // measure 41
0100
0100
0100
0100
,  // measure 42
2002
0000
0000
3003
,  // measure 43
1010
0000
0101
0000
,  // measure 44
0110
0000
1010
0000
,  // measure 45
0100
0000
0100
0010
0100
0000
0001
0100
,  // measure 46
1000
0000
0100
0000
1000
0000
0100
0000
0011
0000
0000
0110
0000
0000
1100
0000
,  // measure 47
0101
0000
1010
0000
,  // measure 48
0110
0000
0101
0000
,  // measure 49
0001
0010
1000
0010
1000
0010
0001
0100
,  // measure 50
1000
0100
0001
0100
0001
0100
1000
0010
,  // measure 51
1000
0000
0001
0000
1000
0001
1000
0001
,  // measure 52
0010
0100
0010
0100
0010
0100
0010
0100
,  // measure 53
1000
0000
0000
0100
0000
0000
0010
0000
0100
0000
0000
0010
0000
0000
0001
0000
,  // measure 54
0010
0000
0000
1000
0000
0000
0001
0000
1000
0000
0000
0001
0000
0000
0100
0000
,  // measure 55
1000
0000
0000
0100
0000
0000
0001
0000
0000
0000
0010
0000
0010
0000
0010
0000
,  // measure 56
1000
0010
0001
0010
0000
0100
0010
0100
,  // measure 57
0010
0001
0100
1000
0010
0001
0100
1000
,  // measure 58
0010
0010
0010
0010
,  // measure 59
0100
1000
0010
0001
0100
1000
0010
0001
,  // measure 60
0100
0100
0100
0100
,  // measure 61
2002
0000
0000
3003
,  // measure 62
0101
0000
1010
0000
,  // measure 63
0110
0000
0101
0000
,  // measure 64
0010
0000
0010
0100
0010
0000
1000
0010
,  // measure 65
0001
0000
0010
0000
0001
0000
0010
0000
1100
0000
0000
0110
0000
0000
0011
0000
,  // measure 66
1010
0000
0101
0000
,  // measure 67
0110
0000
1010
0000
,  // measure 68
1000
0100
0001
0100
0001
0100
1000
0010
,  // measure 69
0001
0010
1000
0010
1000
0010
0001
0100
,  // measure 70
0001
0000
1000
0000
0001
1000
0001
1000
,  // measure 71
0100
0010
0100
0010
0100
0010
0100
0010
,  // measure 72
0210
0000
0000
0010
0000
0000
0000
0000
0010
0000
0000
0010
0000
0000
0000
0000
,  // measure 73
0010
0000
0000
0010
0000
0000
0000
0000
0010
0000
0000
0010
0000
0000
0000
0000
,  // measure 74
0010
0000
0000
0010
0000
0000
0000
0000
0010
0000
0000
0010
0000
0000
0000
0000
,  // measure 75
0010
0000
0000
0010
0000
0000
0000
0000
0010
0000
0000
0010
0000
0000
0300
0000
,  // measure 76
2002
0000
0000
0000
,  // measure 77
0000
0000
0000
0000
,  // measure 78
3003
0000
0000
0000
;

//---------------dance-single - ----------------
#NOTES:
     dance-single:
     :
     Beginner:
     11:
     0.472747,0.589789,0.231290,0.186811,0.115645,372.000000,346.000000,26.000000,21.000000,0.000000,0.000000,0.472747,0.589789,0.231290,0.186811,0.115645,372.000000,346.000000,26.000000,21.000000,0.000000,0.000000:
0000
0000
0000
0000
,
0000
0000
0000
0000
,
0000
0000
0000
0000
,
0000
0000
0000
0000
,
0000
0000
0000
0000
,
0000
0000
0000
0000
,
0000
0000
0000
0000
,
0000
0000
0000
0000
,
0000
0000
0000
0000
,
0000
0000
0000
0000
,
1000
0100
0001
0100
0010
0000
0010
0000
,
0001
0010
1000
0010
0100
0000
0100
0000
,
0010
1000
0100
1000
0001
0000
0001
0000
,
0100
0001
0010
0001
1000
0000
1000
0000
,
0001
0000
1000
0000
0001
1000
0001
1000
,
0010
0000
0100
0000
0010
0100
0010
0100
,
1000
0001
1000
0001
1000
0001
1000
0001
,
1000
0001
1000
0001
1000
0001
1000
0001
,
2000
0000
0000
0000
3010
0100
0001
0010
,
0100
0000
0010
0100
0020
0000
0000
0030
,
1000
0100
0001
0100
1000
0010
0010
0100
,
0010
0000
0000
0000
0010
0000
0100
0000
0000
0010
0000
0000
0100
0000
0000
0000
,
0020
0000
0000
0000
0031
1000
0100
0001
,
0010
0000
0100
0000
0000
0000
0000
0010
0000
0000
1000
0000
0010
0000
1000
0000
,
0200
0000
0000
0320
0000
0000
0032
0000
2000
0000
0000
0000
0000
0000
3003
0000
,
0010
0000
0100
0000
0010
0100
0010
0100
,
0002
0000
0000
0000
0103
0010
1000
0100
,
0010
0000
0100
0010
0200
0000
0000
0300
,
0001
0010
1000
0010
0001
0100
0100
0010
,
0100
0000
0000
0000
0100
0000
0010
0000
0000
0100
0000
0000
0010
0000
0000
0000
,
0200
0000
0000
0000
1300
0001
0010
1000
,
0100
0000
0010
0000
0000
0000
0000
0100
0000
0000
0001
0000
0100
0000
0001
0000
,
0020
0000
0000
0230
0000
0000
2300
0000
0002
0000
0000
0000
0000
0000
3003
0000
,
1001
0110
1001
0110
,
1000
0000
0000
0100
0000
0000
0010
0000
0100
0000
0000
0010
0000
0000
0001
0000
,
0010
0000
0000
1000
0000
0000
0001
0000
1000
0000
0000
0001
0000
0000
0100
0000
,
1000
0000
0000
0100
0000
0000
0001
0000
0000
0000
0010
0000
0000
0000
0010
0000
,
1000
0010
0001
0010
0000
0100
0010
0100
,
0010
0001
0100
1000
0010
0001
0100
1000
,
0010
0010
0010
0010
,
0100
1000
0010
0001
0100
1000
0010
0001
,
0100
0100
0100
0100
,
2002
0000
0000
3003
,
1010
0000
0101
0000
,
0110
0000
1010
0000
,
0100
0000
0100
0010
0100
0000
0001
0100
,
1000
0000
0100
0000
1000
0000
0100
0000
0001
0000
0000
0110
0000
0000
1000
0000
,
0101
0000
1010
0000
,
0110
0000
0101
0000
,
0001
0010
1000
0000
1000
0010
0001
0100
,
1000
0100
0001
0000
0001
0100
1000
0010
,
1000
0000
0001
0000
1000
0001
1000
0001
,
0010
0000
0100
0000
0010
0100
0010
0100
,
1000
0000
0000
0100
0000
0000
0010
0000
0100
0000
0000
0010
0000
0000
0001
0000
,
0010
0000
0000
1000
0000
0000
0001
0000
1000
0000
0000
0001
0000
0000
0100
0000
,
1000
0000
0000
0100
0000
0000
0001
0000
0000
0000
0010
0000
0010
0000
0010
0000
,
1000
0010
0001
0010
0000
0100
0010
0100
,
0010
0001
0100
1000
0010
0001
0100
1000
,
0010
0010
0010
0010
,
0100
1000
0010
0001
0100
1000
0010
0001
,
0100
0100
0100
0100
,
2002
0000
0000
3003
,
0101
0000
1010
0000
,
0110
0000
0101
0000
,
0010
0000
0010
0100
0010
0000
1000
0010
,
0001
0000
0010
0000
0001
0000
0010
0000
1000
0000
0000
0110
0000
0000
0001
0000
,
1010
0000
0101
0000
,
0110
0000
1010
0000
,
1000
0100
0001
0000
0001
0100
1000
0010
,
0001
0010
1000
0000
1000
0010
0001
0100
,
0001
0000
1000
0000
0001
1000
0001
1000
,
0100
0000
0010
0000
0100
0010
0100
0010
,
0210
0000
0000
0010
0000
0000
0000
0000
0010
0000
0000
0010
0000
0000
0000
0000
,
0010
0000
0000
0010
0000
0000
0000
0000
0010
0000
0000
0010
0000
0000
0000
0000
,
0010
0000
0000
0010
0000
0000
0000
0000
0010
0000
0000
0010
0000
0000
0000
0000
,
0010
0000
0000
0010
0000
0000
0000
0000
0010
0000
0000
0010
0000
0000
0300
0000
,
2002
0000
0000
0000
,
0000
0000
0000
0000
,
3003
0000
0000
0000
;

//---------------dance-single - ----------------
#NOTES:
     dance-single:
     :
     Medium:
     12:
     0.529934,0.624483,0.284665,0.186811,0.115645,417.000000,385.000000,32.000000,21.000000,0.000000,0.000000,0.529934,0.624483,0.284665,0.186811,0.115645,417.000000,385.000000,32.000000,21.000000,0.000000,0.000000:
0000
0000
0000
0000
,
0000
0000
0000
0000
,
0000
0000
0000
0000
,
0000
0000
0000
0000
,
0000
0000
0000
0000
,
0000
0000
0000
0000
,
0000
0000
0000
0000
,
0000
0000
0000
0000
,
0000
0000
0000
0000
,
0000
0000
0000
0000
,
1000
0100
0001
0100
0010
0000
0010
0010
,
0001
0010
1000
0010
0100
0000
0100
0100
,
0010
1000
0100
1000
0001
0000
0001
0001
,
0100
0001
0010
0001
1000
0000
1000
1000
,
0001
1000
0001
1000
0001
1000
0001
1000
,
0010
0100
0010
0100
0010
0100
0010
0100
,
1000
0001
1000
0001
1000
0001
1000
0001
,
1000
0001
1000
0001
1000
0001
1000
0001
,
2000
0000
0001
0000
3010
0100
0001
0010
,
0100
0100
0010
0100
0020
0000
0000
0030
,
1000
0100
0001
0100
1000
0010
0010
0100
,
0010
0000
0100
0000
0010
0000
0100
0000
0000
0010
0000
0000
0100
0000
0000
0000
,
0020
0000
1000
0000
0031
1000
0100
0001
,
0010
0000
0100
0000
0000
0000
0000
0010
0000
0000
1000
0000
0010
0000
1000
0000
,
0200
0000
0000
0320
0000
0000
0032
0000
2000
0000
0000
0000
0000
0000
3003
0000
,
0010
0000
0100
0000
0010
0100
0010
0100
,
0002
0000
1000
0000
0103
0010
1000
0100
,
0010
0010
0100
0010
0200
0000
0000
0300
,
0001
0010
1000
0010
0001
0100
0100
0010
,
0100
0000
0010
0000
0100
0000
0010
0000
0000
0100
0000
0000
0010
0000
0000
0000
,
0200
0000
0001
0000
1300
0001
0010
1000
,
0100
0000
0010
0000
0000
0000
0000
0100
0000
0000
0001
0000
0100
0000
0001
0000
,
0020
0000
0000
0230
0000
0000
2300
0000
0002
0000
0000
0000
0000
0000
3003
0000
,
1001
0000
0110
0100
1001
0000
0110
0010
,
1000
0000
0000
0100
0000
0000
0010
0000
0100
0000
0000
0010
0000
0000
0001
0000
,
0010
0000
0000
1000
0000
0000
0001
0000
1000
0000
0000
0001
0000
0000
0100
0000
,
1000
0000
0000
0100
0000
0000
0001
0000
0000
0000
0110
0000
0010
0000
0010
0000
,
1000
0010
0001
0010
0000
0100
0010
0100
,
0010
0001
0100
1000
0010
0001
0100
1000
,
0010
0000
0010
0000
0010
0100
0010
0000
,
0100
1000
0010
0001
0100
1000
0010
0001
,
0100
0000
0100
0000
0100
0010
0100
0000
,
2002
0000
0000
3003
,
1010
0000
0101
0000
,
0110
0000
1010
0100
,
0100
0000
0100
0010
0100
0000
0001
0100
,
1000
0000
0100
0000
1000
0000
0100
0000
0011
0000
0000
0110
0000
0000
1100
0000
,
0101
0000
1010
0000
,
0110
0000
0101
0010
,
0001
0010
1000
0010
1000
0010
0001
0100
,
1000
0100
0001
0100
0001
0100
1000
0010
,
1000
0001
1000
0001
1000
0001
1000
0001
,
0010
0100
0010
0100
0010
0100
0010
0100
,
1000
0000
0000
0100
0000
0000
0010
0000
0100
0000
0000
0010
0000
0000
0001
0000
,
0010
0000
0000
1000
0000
0000
0001
0000
1000
0000
0000
0001
0000
0000
0100
0000
,
1000
0000
0000
0100
0000
0000
0001
0000
0000
0000
0110
0000
0010
0000
0010
0000
,
1000
0010
0001
0010
0000
0100
0010
0100
,
0010
0001
0100
1000
0010
0001
0100
1000
,
0010
0000
0010
0000
0010
0100
0010
0000
,
0100
1000
0010
0001
0100
1000
0010
0001
,
0100
0000
0100
0000
0100
0010
0100
0000
,
2002
0000
0000
3003
,
0101
0000
1010
0000
,
0110
0000
0101
0100
,
0010
0000
0010
0100
0010
0000
1000
0010
,
0001
0000
0010
0000
0001
0000
0010
0000
1100
0000
0000
0110
0000
0000
0011
0000
,
1010
0000
0101
0000
,
0110
0000
1010
0010
,
1000
0100
0001
0100
0001
0100
1000
0010
,
0001
0010
1000
0010
1000
0010
0001
0100
,
0001
1000
0001
1000
0001
1000
0001
1000
,
0100
0010
0100
0010
0100
0010
0100
0010
,
1200
0000
0000
0010
0000
0000
0000
0000
0001
0000
0000
0010
0000
0000
0000
0000
,
1000
0000
0000
0010
0000
0000
0000
0000
0001
0000
0000
0010
0000
0000
0000
0000
,
1000
0000
0000
0010
0000
0000
0000
0000
0001
0000
0000
0010
0000
0000
0000
0000
,
1000
0000
0000
0010
0000
0000
0000
0000
0001
0000
0000
0010
0000
0000
0300
0000
,
2002
0000
0000
0000
,
0000
0000
0000
0000
,
3003
0000
0000
0000
;

//---------------dance-single - ----------------
#NOTES:
     dance-single:
     :
     Hard:
     13:
     0.575683,0.728563,0.373622,0.186811,0.133437,453.000000,411.000000,42.000000,21.000000,0.000000,0.000000,0.575683,0.728563,0.373622,0.186811,0.133437,453.000000,411.000000,42.000000,21.000000,0.000000,0.000000:
0000
0000
0000
0000
,
0000
0000
0000
0000
,
0000
0000
0000
0000
,
0000
0000
0000
0000
,
0000
0000
0000
0000
,
0000
0000
0000
0000
,
0000
0000
0000
0000
,
0000
0000
0000
0000
,
0000
0000
0000
0000
,
0000
0000
0000
0000
,
1000
0100
0001
0100
0010
0001
0010
0010
,
0001
0010
1000
0010
0100
1000
0100
0100
,
0010
1000
0100
1000
0001
0100
0001
0001
,
0100
0001
0010
0001
1000
0010
1000
1000
,
0001
1000
0001
1000
0001
1000
0001
1000
,
0010
0100
0010
0100
0010
0100
0010
0100
,
1000
0001
1000
0001
1000
0001
1000
0001
,
1000
0001
1000
0001
1000
0001
1000
0001
,
2010
0000
0001
0000
3010
0100
0001
0010
,
0100
0100
0010
0100
0020
0000
0000
0030
,
1000
0100
0001
0100
1000
0010
0010
0100
,
0010
0000
0100
0000
0010
0000
0100
0000
0000
0010
0000
0000
0100
0000
0000
0000
,
0021
0000
1000
0000
0031
1000
0100
0001
,
0010
0000
0100
0000
0000
0000
0000
0010
0000
0000
1000
0000
0010
0000
1000
0000
,
0200
0000
0000
0320
0000
0000
0032
0000
2000
0000
0000
0000
0000
0000
3003
0000
,
0010
0000
0100
0000
0010
0100
0010
0100
,
0102
0000
1000
0000
0103
0010
1000
0100
,
0010
0010
0100
0010
0200
0000
0000
0300
,
0001
0010
1000
0010
0001
0100
0100
0010
,
0100
0000
0010
0000
0100
0000
0010
0000
0000
0100
0000
0000
0010
0000
0000
0000
,
1200
0000
0001
0000
1300
0001
0010
1000
,
0100
0000
0010
0000
0000
0000
0000
0100
0000
0000
0001
0000
0100
0000
0001
0000
,
0020
0000
0000
0230
0000
0000
2300
0000
0002
0000
0000
0000
0000
0000
3003
0000
,
1001
0001
0110
0100
1001
1000
0110
0010
,
1010
0000
0000
0100
0000
0000
0010
0000
0100
0000
0000
0010
0000
0000
0001
0000
,
0011
0000
0000
1000
0000
0000
0001
0000
1000
0000
0000
0001
0000
0000
0100
0000
,
1010
0000
0000
0100
0000
0000
0001
0000
0000
0000
0110
0000
0010
0000
0010
0000
,
1000
0010
0001
0010
0000
0100
0010
0100
,
0010
0001
0100
1000
0010
0001
0100
1000
,
0010
0000
0010
0000
0010
0100
0010
0100
,
0100
1000
0010
0001
0100
1000
0010
0001
,
0100
0000
0100
0000
0100
0010
0100
0010
,
2002
0000
0000
3003
,
1010
0000
0101
0010
,
0110
0000
1010
0100
,
0100
0000
0100
0010
0100
0000
0001
0100
,
1000
0000
0100
0000
1000
0000
0100
0000
0011
0000
0000
0110
0000
0000
1100
0000
,
0101
0000
1010
0100
,
0110
0000
0101
0010
,
0001
0000
0010
0000
1000
0000
0010
0000
1000
0000
0010
0000
0001
0010
0100
0000
,
1000
0000
0100
0000
0001
0000
0100
0000
0001
0000
0100
0000
1000
0100
0010
0000
,
1000
0001
1000
0001
1000
0001
1000
0001
,
0010
0100
0010
0100
0010
0100
0010
0100
,
1010
0000
0000
0100
0000
0000
0010
0000
0100
0000
0000
0010
0000
0000
0001
0000
,
0011
0000
0000
1000
0000
0000
0001
0000
1000
0000
0000
0001
0000
0000
0100
0000
,
1010
0000
0000
0100
0000
0000
0001
0000
0000
0000
0110
0000
0010
0000
0010
0000
,
1000
0010
0001
0010
0000
0100
0010
0100
,
0010
0001
0100
1000
0010
0001
0100
1000
,
0010
0000
0010
0000
0010
0100
0010
0100
,
0100
1000
0010
0001
0100
1000
0010
0001
,
0100
0000
0100
0000
0100
0010
0100
0010
,
2002
0000
0000
3003
,
0101
0000
1010
0010
,
0110
0000
0101
0100
,
0010
0000
0010
0100
0010
0000
1000
0010
,
0001
0000
0010
0000
0001
0000
0010
0000
1100
0000
0000
0110
0000
0000
0011
0000
,
1010
0000
0101
0100
,
0110
0000
1010
0010
,
1000
0000
0100
0000
0001
0000
0100
0000
0001
0000
0100
0000
1000
0100
0010
0000
,
0001
0000
0010
0000
1000
0000
0010
0000
1000
0000
0010
0000
0001
0010
0100
0000
,
0001
1000
0001
1000
0001
1000
0001
1000
,
0100
0010
0100
0010
0100
0010
0100
0010
,
1200
0000
0000
0010
0000
0000
0010
0000
0001
0000
0000
0010
0000
0000
0010
0000
,
1000
0000
0000
0010
0000
0000
0010
0000
0001
0000
0000
0010
0000
0000
0010
0000
,
1000
0000
0000
0010
0000
0000
0010
0000
0001
0000
0000
0010
0000
0000
0010
0000
,
1000
0000
0000
0010
0000
0000
1000
0000
0001
0000
0000
0010
0000
0000
0301
0000
,
2002
0000
0000
0000
,
0000
0000
0000
0000
,
3003
0000
0000
0000
;

//---------------dance-single - ----------------
#NOTES:
     dance-single:
     :
     Challenge:
     13:
     0.613808,0.728563,0.391414,0.186811,0.151228,483.000000,439.000000,44.000000,21.000000,0.000000,0.000000,0.613808,0.728563,0.391414,0.186811,0.151228,483.000000,439.000000,44.000000,21.000000,0.000000,0.000000:
0000
0000
0000
0000
,
0000
0000
0000
0000
,
0000
0000
0000
0000
,
0000
0000
0000
0000
,
0000
0000
0000
0000
,
0000
0000
0000
0000
,
0000
0000
0000
0000
,
0000
0000
0000
0000
,
0000
0000
0000
0000
,
0000
0000
0000
0000
,
1000
0100
0001
0100
0010
0001
0010
0010
,
0001
0010
1000
0010
0100
1000
0100
0100
,
0010
1000
0100
1000
0001
0100
0001
0001
,
0100
0001
0010
0001
1000
0010
1000
1000
,
0001
1000
0001
1000
0001
1000
0001
1000
,
0010
0100
0010
0100
0010
0100
0010
0100
,
1000
0001
1000
0001
1000
0001
1000
0001
,
1000
0000
0001
0000
1000
0000
0001
0000
1000
0000
0001
0000
1000
0001
1000
0001
,
2010
0000
0001
0000
3010
0100
0001
0010
,
0100
0100
0010
0100
0020
0100
0000
0130
,
1000
0100
0001
0100
1000
0010
0010
0100
,
0010
0000
0100
0000
0010
0000
0100
0000
0000
0010
0000
0000
0100
0000
0000
0000
,
0021
0000
1000
0000
0031
1000
0100
0001
,
0010
0000
0100
0000
0000
0000
0000
1010
0000
0000
1000
0000
0010
0000
1000
0000
,
0200
0000
0000
0320
0000
0000
0032
0000
2000
0000
0000
0000
0000
0000
3003
0000
,
0010
0000
0100
0000
0010
0100
0010
0100
,
0102
0000
1000
0000
0103
0010
1000
0100
,
0010
0010
0100
0010
0200
0010
0000
0310
,
0001
0010
1000
0010
0001
0100
0100
0010
,
0100
0000
0010
0000
0100
0000
0010
0000
0000
0100
0000
0000
0010
0000
0000
0000
,
1200
0000
0001
0000
1300
0001
0010
1000
,
0100
0000
0010
0000
0000
0000
0000
0101
0000
0000
0001
0000
0100
0000
0001
0000
,
0020
0000
0000
0230
0000
0000
2300
0000
0002
0000
0000
0000
0000
0000
3003
0000
,
1001
0001
0110
0100
1001
1000
0110
0010
,
1010
0000
0000
0100
0000
0000
0010
0000
0100
0000
0000
0010
0000
0000
0001
0000
,
0011
0000
0000
1000
0000
0000
0001
0000
1000
0000
0000
0001
0000
0000
0100
0000
,
1010
0000
0000
0100
0000
0000
0001
0000
0000
0000
0110
0000
0010
0000
0010
0000
,
1000
0010
0001
0010
0000
0100
0010
0100
,
0010
0001
0100
1000
0010
0001
0100
1000
,
0010
0100
0010
0100
0010
0100
0010
0100
,
0100
1000
0010
0001
0100
1000
0010
0001
,
0100
0010
0100
0010
0100
0010
0100
0010
,
2002
0000
0000
3003
,
1010
0100
0101
0010
,
0110
0010
1010
0100
,
0100
0010
0100
0010
0100
0010
0001
0100
,
1000
0000
0100
0000
1000
0000
0100
0000
0011
0000
0000
0110
0000
0000
1100
0000
,
0101
0010
1010
0100
,
0110
0100
0101
0010
,
0001
0000
0010
0000
1000
0000
0010
0000
1000
0000
0010
0000
0001
0010
0100
0000
,
1000
0000
0100
0000
0001
0000
0100
0000
0001
0000
0100
0000
1000
0100
0010
0000
,
1000
0001
1000
0001
1000
0001
1000
0001
,
0010
0100
0010
0100
0010
0100
0010
0100
,
1010
0000
0000
0100
0000
0000
0010
0000
0100
0000
0000
0010
0000
0000
0001
0000
,
0011
0000
0000
1000
0000
0000
0001
0000
1000
0000
0000
0001
0000
0000
0100
0000
,
1010
0000
0000
0100
0000
0000
0001
0000
0000
0000
0110
0000
0010
0000
0010
0000
,
1000
0010
0001
0010
0000
0100
0010
0100
,
0010
0001
0100
1000
0010
0001
0100
1000
,
0010
0100
0010
0100
0010
0100
0010
0100
,
0100
1000
0010
0001
0100
1000
0010
0001
,
0100
0010
0100
0010
0100
0010
0100
0010
,
2002
0000
0000
3003
,
0101
0100
1010
0010
,
0110
0010
0101
0100
,
0010
0100
0010
0100
0010
0100
1000
0010
,
0001
0000
0010
0000
0001
0000
0010
0000
1100
0000
0000
0110
0000
0000
0011
0000
,
1010
0010
0101
0100
,
0110
0100
1010
0010
,
1000
0000
0100
0000
0001
0000
0100
0000
0001
0000
0100
0000
1000
0100
0010
0000
,
0001
0000
0010
0000
1000
0000
0010
0000
1000
0000
0010
0000
0001
0010
0100
0000
,
0001
1000
0001
1000
0001
1000
0001
1000
,
0100
0000
0010
0000
0100
0000
0010
0000
0100
0000
0010
0000
0100
0010
0100
0010
,
1200
0000
0000
0010
0000
0000
1000
0000
0001
0000
0000
0010
0000
0000
0001
0000
,
1000
0000
0000
0010
0000
0000
0001
0000
0001
0000
0000
0010
0000
0000
1000
0000
,
1000
0000
0000
0010
0000
0000
0010
0000
0001
0000
0000
0010
0000
0000
0010
0000
,
1000
0000
0000
0010
0000
0000
1000
0000
0001
0000
0000
0010
0000
0000
0301
0000
,
2002
0000
0000
0000
,
0000
0000
0000
0000
,
3003
0000
0000
0000
;
