#TITLE:CO5M1C R4ILR0AD;
#SUBTITLE:;
#ARTIST:kanone;
#TITLETRANSLIT:;
#SUBTITLETRANSLIT:;
#ARTISTTRANSLIT:;
#GENRE:FUKUOKA (HI-NRGTECH TRANCE);
#CREDIT:;
#BANNER:;
#BACKGROUND:;
#LYRICSPATH:;
#CDTITLE:;
#MUSIC:CO5M1C R4ILR0AD.ogg;
#OFFSET:-1.548000;
#SAMPLESTART:78.967354;
#SAMPLELENGTH:15.000000;
#SELECTABLE:YES;
#BPMS:0.000000=155.000000
;
#STOPS:
;
#BGCHANGES:;
#KEYSOUNDS:;
#ATTACKS:;

//---------------dance-single - ----------------
#NOTES:
     dance-single:
     :
     Easy:
     14:
     0.697499,0.892037,0.066680,0.170406,0.618647,659.000000,650.000000,9.000000,23.000000,0.000000,0.000000,0.697499,0.892037,0.066680,0.170406,0.618647,659.000000,650.000000,9.000000,23.000000,0.000000,0.000000:
// measure 0
0000
0000
0000
0000
,  // measure 1
0000
0000
0000
0000
,  // measure 2
0010
0000
0000
0010
0000
0000
0010
0000
0010
0000
0010
0000
0000
0000
0000
0000
,  // measure 3
0020
0000
0000
0000
0000
0000
0000
0030
,  // measure 4
0100
0000
0000
0100
0000
0000
0100
0000
0100
0000
0100
0000
0000
0000
0000
0000
,  // measure 5
0002
0000
0000
0000
2000
0000
0000
3003
,  // measure 6
0010
0000
1000
0000
0010
0000
1000
0000
0010
1000
0000
0000
1000
0001
0000
0000
,  // measure 7
0100
0000
0001
0000
0100
0000
0001
0000
0100
0001
0000
0000
0001
1000
0000
0000
,  // measure 8
0100
0000
0000
0000
0010
0000
0000
0000
0100
0000
0010
0000
0100
0010
0100
0010
,  // measure 9
0100
0100
0100
0000
,  // measure 10
0010
0000
0100
0000
1000
0000
0100
0000
0010
0100
0010
0100
0010
0000
0100
0000
,  // measure 11
0010
0001
0000
0000
0010
0100
1000
0000
0100
0000
0010
0000
0100
0000
0000
0000
,  // measure 12
1000
0000
0000
0000
1000
0000
0000
0002
0000
0000
0000
0000
0000
0000
0003
0000
,  // measure 13
0100
0010
0001
0010
0200
0000
0010
0300
,  // measure 14
0001
0000
1000
0000
0010
0000
1000
0000
0001
1000
0001
1000
0001
0000
1000
0000
,  // measure 15
0001
0100
0000
0000
0001
1000
0010
0000
1000
0000
0001
0000
1000
0000
0000
0000
,  // measure 16
0010
0000
0010
0000
0200
0010
0010
0300
,  // measure 17
1000
0001
0100
0001
2000
0000
0001
3000
,  // measure 18
0100
0000
0010
0000
0001
0000
0010
0000
0100
0010
0100
0010
0100
0000
0010
0000
,  // measure 19
0100
1000
0000
0000
0100
0010
0001
0000
0010
0000
0100
0000
0010
0000
0000
0000
,  // measure 20
0001
0000
0000
0000
0001
0000
0000
2000
0000
0000
0000
0000
0000
0000
3000
0000
,  // measure 21
0010
0100
1000
0100
0020
0000
0100
0030
,  // measure 22
1000
0000
0001
0000
0100
0000
0001
0000
1000
0001
1000
0001
1000
0000
0001
0000
,  // measure 23
1000
0010
0000
0000
1000
0001
0100
0000
0001
0000
1000
0000
0001
0000
0000
0000
,  // measure 24
0100
0000
0100
0000
0020
0100
0100
0030
,  // measure 25
0001
1000
0010
1000
0002
0000
1000
0003
,  // measure 26
0020
0000
0000
0000
0000
0000
0000
0000
0130
0001
0100
0010
0100
0001
0100
0000
,  // measure 27
0200
0000
0000
0000
0000
0000
0000
0000
0310
1000
0010
0100
0010
1000
0010
0000
,  // measure 28
0002
0000
0000
0000
0000
0000
0000
0000
1003
0100
1000
0001
1000
0100
1000
0000
,  // measure 29
0010
0000
0010
0000
0100
0010
0100
0000
0010
0000
0000
0010
0100
0010
0100
0010
,  // measure 30
1100
0000
0001
0100
0001
0100
0000
0000
0101
0000
1000
0010
1000
0010
0000
0000
,  // measure 31
0110
0000
0010
0100
0010
0100
0000
0000
1010
0000
0110
0000
0101
0000
1001
0000
,  // measure 32
0001
0000
0000
0000
0000
0000
1000
0000
0000
0000
0000
0000
0001
0000
0000
1000
0000
0000
0001
0000
0000
1000
0000
0000
0001
0000
0000
0000
0010
0000
0000
0000
0100
0000
0000
0000
0010
0000
0000
0000
0100
0000
0000
0000
1000
0000
0000
0000
,  // measure 33
0020
0000
0000
0000
0130
0000
0000
0100
0000
0000
0100
0000
0000
0000
0000
0000
,  // measure 34
0010
0000
0010
0000
0100
0010
0001
0010
,  // measure 35
0100
0000
0100
0000
0010
0100
1000
0100
,  // measure 36
0001
0000
0001
0000
1000
0001
0100
0001
,  // measure 37
1000
0000
1000
0000
0001
1000
0010
1000
,  // measure 38
0010
0000
0010
0000
0100
0010
0001
0010
,  // measure 39
0100
0000
0100
0000
0010
0100
1000
0100
,  // measure 40
0001
0000
0001
0000
1000
0001
0100
0001
,  // measure 41
0010
0100
0000
0000
0100
0000
0000
0000
0100
0000
0000
0000
0110
0000
0000
0000
,  // measure 42
0020
0000
1000
1030
,  // measure 43
0200
0000
0001
0301
,  // measure 44
0002
0000
0010
0013
,  // measure 45
0200
0000
0000
0000
0300
0010
0010
0010
,  // measure 46
1000
0000
0001
0000
0001
0000
1000
0000
0100
0010
0100
0000
0100
0001
0100
0000
,  // measure 47
0001
0000
1000
0000
1000
0000
0001
0000
0010
0100
0010
0000
0010
1000
0010
0000
,  // measure 48
0100
0010
0000
0000
0010
0100
0000
0000
1000
0100
0010
0001
1000
0100
0010
0001
,  // measure 49
0100
0100
0100
0000
,  // measure 50
1000
0100
0001
0100
0010
0100
1000
0100
,  // measure 51
0010
0000
0010
0000
0010
0000
0010
0000
0001
1000
0001
1000
0010
1000
0010
1000
,  // measure 52
0001
0010
1000
0010
0100
0010
0001
0010
,  // measure 53
0100
0000
0100
0000
0100
0000
0100
0000
1000
0001
1000
0001
0100
0001
0100
0001
,  // measure 54
0010
1000
0100
1000
0001
1000
0010
1000
,  // measure 55
0001
0000
0001
0000
0001
0000
0001
0000
0100
0010
0100
0010
0001
0010
0001
0010
,  // measure 56
0200
0000
0000
0000
0010
0000
0000
0300
,  // measure 57
0001
0000
0000
1000
0000
0000
1000
0100
0001
1000
0100
0010
,  // measure 58
0001
0010
1000
0010
0100
0010
0001
0010
,  // measure 59
0100
0000
0100
0000
0100
0000
0100
0000
1000
0001
1000
0001
0100
0001
0100
0001
,  // measure 60
1000
0100
0001
0100
0010
0100
1000
0100
,  // measure 61
0010
0000
0010
0000
0010
0000
0010
0000
0001
1000
0001
1000
0010
1000
0010
1000
,  // measure 62
0100
0001
0010
0001
1000
0001
0100
0001
,  // measure 63
1000
0000
1000
0000
1000
0000
1000
0000
0010
0100
0010
0100
1000
0100
1000
0100
,  // measure 64
0020
0000
0000
0000
0100
0000
0000
0030
,  // measure 65
1000
0000
0000
0001
0000
0000
0001
0010
1000
0001
0010
0100
,  // measure 66
0001
0010
1000
0010
0100
1000
0100
1000
0100
0000
0100
0000
0010
0000
0010
0000
,  // measure 67
0001
0010
1000
0000
1000
0010
0001
0000
0010
0001
0010
0001
0100
0010
0100
0010
,  // measure 68
0100
0010
0001
0010
0100
1000
0100
1000
0001
0000
0010
0000
1000
0000
0010
0000
,  // measure 69
0100
0000
0000
0100
0000
0000
0010
0000
0000
0010
0000
0000
0001
0000
0010
0000
0001
0000
0010
0000
1000
0000
0100
0000
,  // measure 70
0010
1000
0100
1000
0001
0100
0001
0100
0001
0000
0001
0000
1000
0000
1000
0000
,  // measure 71
0010
1000
0100
0000
0100
1000
0010
0000
1000
0010
1000
0010
0001
1000
0001
1000
,  // measure 72
0001
1000
0010
1000
0001
0100
0001
0100
0010
0000
1000
0000
0100
0000
1000
0000
,  // measure 73
0001
0000
0000
0001
0000
0000
1000
0000
0000
1000
0000
0000
0010
0000
1000
0000
0010
0000
1000
0000
0100
0000
0001
0000
,  // measure 74
1000
0100
0001
0100
0010
0001
0010
0001
0010
0000
0010
0000
0100
0000
0100
0000
,  // measure 75
1000
0100
0001
0000
0001
0100
1000
0000
0100
1000
0100
1000
0010
0100
0010
0100
,  // measure 76
0010
0100
1000
0100
0010
0001
0010
0001
1000
0000
0100
0000
0001
0000
0100
0000
,  // measure 77
0010
0000
0000
0010
0000
0000
0100
0000
0000
0100
0000
0000
1000
0000
0100
0000
1000
0000
0100
0000
0001
0000
0010
0000
,  // measure 78
0100
0001
0010
0001
1000
0010
1000
0010
1000
0000
1000
0000
0001
0000
0001
0000
,  // measure 79
0100
0001
0010
0000
0010
0001
0100
0000
0001
0100
0001
0100
1000
0001
1000
0001
,  // measure 80
1000
0001
0100
0001
1000
0010
1000
0010
0100
0000
0001
0000
0010
0000
0001
0000
,  // measure 81
1000
0000
0000
1000
0000
0000
0001
0000
0000
0001
0000
0000
0100
0000
0001
0000
0100
0000
0001
0000
0010
0000
1000
0000
,  // measure 82
0220
0000
0000
0000
,  // measure 83
0000
0000
0000
0000
,  // measure 84
0000
0000
0000
0000
,  // measure 85
0000
0000
0000
0000
,  // measure 86
0330
0000
0000
0000
;

//---------------dance-single - ----------------
#NOTES:
     dance-single:
     :
     Beginner:
     14:
     0.669980,0.828320,0.066680,0.170406,0.551966,633.000000,624.000000,9.000000,23.000000,0.000000,0.000000,0.669980,0.828320,0.066680,0.170406,0.551966,633.000000,624.000000,9.000000,23.000000,0.000000,0.000000:
0000
0000
0000
0000
,
0000
0000
0000
0000
,
0010
0000
0000
0010
0000
0000
0010
0000
0010
0000
0010
0000
0000
0000
0000
0000
,
0020
0000
0000
0000
0000
0000
0000
0030
,
0100
0000
0000
0100
0000
0000
0100
0000
0100
0000
0100
0000
0000
0000
0000
0000
,
0002
0000
0000
0000
2000
0000
0000
3003
,
0010
0000
1000
0000
0010
0000
1000
0000
0010
1000
0000
0000
1000
0001
0000
0000
,
0100
0000
0001
0000
0100
0000
0001
0000
0100
0001
0000
0000
0001
1000
0000
0000
,
0100
0000
0000
0000
0010
0000
0000
0000
0100
0000
0010
0000
0100
0010
0100
0010
,
0100
0100
0100
0000
,
0010
0000
0100
0000
1000
0000
0100
0000
0010
0100
0000
0100
0010
0000
0100
0000
,
0010
0001
0000
0000
0010
0100
1000
0000
0100
0000
0010
0000
0100
0000
0000
0000
,
1000
0000
0000
0000
1000
0000
0000
0002
0000
0000
0000
0000
0000
0000
0003
0000
,
0100
0010
0001
0010
0200
0000
0010
0300
,
0001
0000
1000
0000
0010
0000
1000
0000
0001
1000
0000
1000
0001
0000
1000
0000
,
0001
0100
0000
0000
0001
1000
0010
0000
1000
0000
0001
0000
1000
0000
0000
0000
,
0010
0000
0010
0000
0200
0010
0010
0300
,
1000
0001
0100
0001
2000
0000
0001
3000
,
0100
0000
0010
0000
0001
0000
0010
0000
0100
0010
0000
0010
0100
0000
0010
0000
,
0100
1000
0000
0000
0100
0010
0001
0000
0010
0000
0100
0000
0010
0000
0000
0000
,
0001
0000
0000
0000
0001
0000
0000
2000
0000
0000
0000
0000
0000
0000
3000
0000
,
0010
0100
1000
0100
0020
0000
0100
0030
,
1000
0000
0001
0000
0100
0000
0001
0000
1000
0001
0000
0001
1000
0000
0001
0000
,
1000
0010
0000
0000
1000
0001
0100
0000
0001
0000
1000
0000
0001
0000
0000
0000
,
0100
0000
0100
0000
0020
0100
0100
0030
,
0001
1000
0010
1000
0002
0000
1000
0003
,
0020
0000
0000
0000
0000
0000
0000
0000
0130
0001
0100
0000
0100
0001
0100
0000
,
0200
0000
0000
0000
0000
0000
0000
0000
0310
1000
0010
0000
0010
1000
0010
0000
,
0002
0000
0000
0000
0000
0000
0000
0000
1003
0100
1000
0000
1000
0100
1000
0000
,
0010
0000
0010
0000
0100
0010
0100
0000
0010
0000
0000
0010
0100
0010
0100
0010
,
1100
0000
0000
0100
0001
0100
0000
0000
0101
0000
0000
0010
1000
0010
0000
0000
,
0110
0000
0000
0100
0010
0100
0000
0000
1010
0000
0110
0000
0101
0000
1001
0000
,
0001
0000
0000
0000
0000
0000
1000
0000
0000
0000
0000
0000
0001
0000
0000
1000
0000
0000
0001
0000
0000
1000
0000
0000
0001
0000
0000
0000
0010
0000
0000
0000
0100
0000
0000
0000
0010
0000
0000
0000
0100
0000
0000
0000
1000
0000
0000
0000
,
0020
0000
0000
0000
0130
0000
0000
0100
0000
0000
0100
0000
0000
0000
0000
0000
,
0010
0000
0010
0000
0100
0010
0001
0010
,
0100
0000
0100
0000
0010
0100
1000
0100
,
0001
0000
0001
0000
1000
0001
0100
0001
,
1000
0000
1000
0000
0001
1000
0010
1000
,
0010
0000
0010
0000
0100
0010
0001
0010
,
0100
0000
0100
0000
0010
0100
1000
0100
,
0001
0000
0001
0000
1000
0001
0100
0001
,
0010
0100
0000
0000
0100
0000
0000
0000
0100
0000
0000
0000
0110
0000
0000
0000
,
0020
0000
1000
1030
,
0200
0000
0001
0301
,
0002
0000
0010
0013
,
0200
0000
0000
0000
0300
0010
0010
0010
,
1000
0000
0001
0000
0001
0000
1000
0000
0100
0010
0100
0000
0100
0001
0100
0000
,
0001
0000
1000
0000
1000
0000
0001
0000
0010
0100
0010
0000
0010
1000
0010
0000
,
0100
0010
0000
0000
0010
0100
0000
0000
0100
0010
0000
0000
1000
0100
0010
0001
,
0100
0100
0100
0000
,
1000
0100
0001
0100
0010
0100
1000
0100
,
0010
0000
0010
0000
0010
0000
0010
0000
0001
1000
0001
1000
0010
1000
0010
0000
,
0001
0010
1000
0010
0100
0010
0001
0010
,
0100
0000
0100
0000
0100
0000
0100
0000
1000
0001
1000
0001
0100
0001
0100
0000
,
0010
1000
0100
1000
0001
1000
0010
1000
,
0001
0000
0001
0000
0001
0000
0001
0000
0100
0010
0100
0010
0001
0010
0001
0000
,
0200
0000
0000
0000
0010
0000
0000
0300
,
0001
0000
0000
1000
0000
0000
1000
0100
0001
1000
0100
0010
,
0001
0010
1000
0010
0100
0010
0001
0010
,
0100
0000
0100
0000
0100
0000
0100
0000
1000
0001
1000
0001
0100
0001
0100
0000
,
1000
0100
0001
0100
0010
0100
1000
0100
,
0010
0000
0010
0000
0010
0000
0010
0000
0001
1000
0001
1000
0010
1000
0010
0000
,
0100
0001
0010
0001
1000
0001
0100
0001
,
1000
0000
1000
0000
1000
0000
1000
0000
0010
0100
0010
0100
1000
0100
1000
0000
,
0020
0000
0000
0000
0100
0000
0000
0030
,
1000
0000
0000
0001
0000
0000
0001
0010
1000
0001
0010
0100
,
0001
0010
1000
0010
0100
1000
0100
0000
0100
0000
0100
0000
0010
0000
0010
0000
,
0001
0010
1000
0000
1000
0010
0001
0000
0010
0001
0010
0001
0100
0010
0100
0000
,
0100
0010
0001
0010
0100
1000
0100
1000
0001
0000
0010
0000
1000
0000
0010
0000
,
0100
0000
0000
0100
0000
0000
0010
0000
0000
0010
0000
0000
0001
0000
0010
0000
0001
0000
0010
0000
1000
0000
0100
0000
,
0010
1000
0100
1000
0001
0100
0001
0000
0001
0000
0001
0000
1000
0000
1000
0000
,
0010
1000
0100
0000
0100
1000
0010
0000
1000
0010
1000
0010
0001
1000
0001
0000
,
0001
1000
0010
1000
0001
0100
0001
0100
0010
0000
1000
0000
0100
0000
1000
0000
,
0001
0000
0000
0001
0000
0000
1000
0000
0000
1000
0000
0000
0010
0000
1000
0000
0010
0000
1000
0000
0100
0000
0001
0000
,
1000
0100
0001
0100
0010
0001
0010
0000
0010
0000
0010
0000
0100
0000
0100
0000
,
1000
0100
0001
0000
0001
0100
1000
0000
0100
1000
0100
1000
0010
0100
0010
0000
,
0010
0100
1000
0100
0010
0001
0010
0001
1000
0000
0100
0000
0001
0000
0100
0000
,
0010
0000
0000
0010
0000
0000
0100
0000
0000
0100
0000
0000
1000
0000
0100
0000
1000
0000
0100
0000
0001
0000
0010
0000
,
0100
0001
0010
0001
1000
0010
1000
0000
1000
0000
1000
0000
0001
0000
0001
0000
,
0100
0001
0010
0000
0010
0001
0100
0000
0001
0100
0001
0100
1000
0001
1000
0000
,
1000
0001
0100
0001
1000
0010
1000
0010
0100
0000
0001
0000
0010
0000
0001
0000
,
1000
0000
0000
1000
0000
0000
0001
0000
0000
0001
0000
0000
0100
0000
0001
0000
0100
0000
0001
0000
0010
0000
1000
0000
,
0220
0000
0000
0000
,
0000
0000
0000
0000
,
0000
0000
0000
0000
,
0000
0000
0000
0000
,
0330
0000
0000
0000
;

//---------------dance-single - ----------------
#NOTES:
     dance-single:
     :
     Medium:
     15:
     0.759946,0.987612,0.125952,0.170406,0.677918,718.000000,701.000000,17.000000,23.000000,0.000000,0.000000,0.759946,0.987612,0.125952,0.170406,0.677918,718.000000,701.000000,17.000000,23.000000,0.000000,0.000000:
0000
0000
0000
0000
,
0000
0000
0000
0000
,
0010
0000
0000
0010
0000
0000
0010
0000
0010
0000
0010
0000
0000
0000
0000
0000
,
0020
0000
0000
0000
0000
0000
0000
0030
,
0100
0000
0000
0100
0000
0000
0100
0000
0100
0000
0100
0000
0000
0000
0000
0000
,
0002
0000
1000
0000
2000
0000
0000
3003
,
0010
0000
1000
0000
0010
0000
1000
0000
0010
1000
0000
0000
1000
0001
0000
0000
,
0100
0000
0001
0000
0100
0000
0001
0000
0100
0001
0000
0000
0001
1000
0000
0000
,
0100
0000
0000
0000
0010
0000
0000
0000
0100
0000
0010
0000
0100
0010
0100
0010
,
0100
0100
0100
0100
,
0010
0000
0100
0000
1000
0000
0100
0000
0010
0100
0010
0100
0010
0000
0100
0000
,
0010
0001
0000
0000
0010
0100
1000
0000
0100
0000
0010
0000
0100
0000
0010
0000
,
1000
0000
0000
0000
1000
0000
0000
0002
0000
0000
0000
0000
0000
0000
0003
0000
,
0100
0010
0001
0010
0200
0000
0010
0300
,
0001
0000
1000
0000
0010
0000
1000
0000
0001
1000
0001
1000
0001
0000
1000
0000
,
0001
0100
0000
0000
0001
1000
0010
0000
1000
0000
0001
0000
1000
0000
0001
0000
,
0010
0000
0010
0000
0200
0010
0010
0310
,
1000
0001
0100
0001
2000
0000
0001
3000
,
0100
0000
0010
0000
0001
0000
0010
0000
0100
0010
0100
0010
0100
0000
0010
0000
,
0100
1000
0000
0000
0100
0010
0001
0000
0010
0000
0100
0000
0010
0000
0100
0000
,
0001
0000
0000
0000
0001
0000
0000
2000
0000
0000
0000
0000
0000
0000
3000
0000
,
0010
0100
1000
0100
0020
0000
0100
0030
,
1000
0000
0001
0000
0100
0000
0001
0000
1000
0001
1000
0001
1000
0000
0001
0000
,
1000
0010
0000
0000
1000
0001
0100
0000
0001
0000
1000
0000
0001
0000
1000
0000
,
0100
0000
0100
0000
0020
0100
0100
0130
,
0001
1000
0010
1000
0002
0000
1000
0003
,
0020
0000
0000
0000
0001
0000
0000
0000
0130
0001
0100
0010
0100
0001
0100
0000
,
0200
0000
0000
0000
1000
0000
0000
0000
0310
1000
0010
0100
0010
1000
0010
0000
,
0002
0000
0000
0000
0100
0000
0000
0000
1003
0100
1000
0001
1000
0100
1000
0000
,
0010
0000
0010
0000
0100
0010
0100
0000
0010
0000
0000
0010
0100
0010
0100
0010
,
1100
0000
0001
0100
0001
0100
0001
0000
0101
0000
1000
0010
1000
0010
1000
0000
,
0110
0000
0010
0100
0010
0100
0010
0000
1010
0000
0110
0000
0101
0000
1001
0000
,
0001
0000
0000
0000
0000
0000
1000
0000
0000
0000
0000
0000
0001
0000
0000
1000
0000
0000
0001
0000
0000
1000
0000
0000
0001
0000
0000
0000
0010
0000
0000
0000
0100
0000
0000
0000
0010
0000
0000
0000
0100
0000
0000
0000
1000
0000
0000
0000
,
0020
0000
0000
0000
0130
0000
0000
0100
0000
0000
0100
0000
0100
0000
0000
0000
,
0110
0000
0010
0000
0100
0010
0001
0010
,
0100
0000
0100
0000
0010
0100
1000
0100
,
1001
0000
0001
0000
1000
0001
0100
0001
,
1000
0000
1000
0000
0001
1000
0010
1000
,
0110
0000
0010
0000
0100
0010
0001
0010
,
0100
0000
0100
0000
0010
0100
1000
0100
,
1001
0000
0001
0000
1000
0001
0100
0001
,
0010
0100
0000
0000
0100
0000
0000
0000
0100
0000
0000
0000
0110
0000
0000
0000
,
0020
1000
1000
1030
,
0200
0001
0001
0301
,
0002
0010
0010
0013
,
0200
0000
1000
0000
1300
0010
0010
0010
,
1000
0010
0001
0000
0001
0000
1000
0000
0100
0010
0100
0000
0100
0001
0100
0000
,
0001
0100
1000
0000
1000
0000
0001
0000
0010
0100
0010
0000
0010
1000
0010
0000
,
0100
0010
0000
0000
0010
0100
0000
0000
1000
0100
0010
0001
1000
0100
0010
0001
,
0100
0100
0100
0100
,
1000
0000
0100
0000
0001
0010
0100
0000
0010
0000
0100
0000
1000
0000
0100
0000
,
0010
0000
0010
0000
0010
0000
0010
0000
0001
1000
0001
1000
0010
1000
0010
1000
,
0001
0000
0010
0000
1000
0100
0010
0000
0100
0000
0010
0000
0001
0000
0010
0000
,
0100
0000
0100
0000
0100
0000
0100
0000
1000
0001
1000
0001
0100
0001
0100
0001
,
0010
0000
1000
0000
0100
0001
1000
0000
0001
0000
1000
0000
0010
0000
1000
0000
,
0001
0000
0001
0000
0001
0000
0001
0000
0100
0010
0100
0010
0001
0010
0001
0010
,
0200
0000
0000
0000
0010
0000
0010
0300
,
0001
0000
0000
1000
0000
0000
0001
0000
0000
0000
0000
0000
1000
0000
0000
0001
0000
0000
1000
0000
0000
0000
0000
0000
1000
0000
0000
0000
0100
0000
0000
0000
0001
0000
0000
0000
1000
0000
0000
0000
0100
0000
0000
0000
0010
0000
0000
0000
,
0001
0000
0010
0000
1000
0100
0010
0000
0100
0000
0010
0000
0001
0000
0010
0000
,
0100
0000
0100
0000
0100
0000
0100
0000
1000
0001
1000
0001
0100
0001
0100
0001
,
1000
0000
0100
0000
0001
0010
0100
0000
0010
0000
0100
0000
1000
0000
0100
0000
,
0010
0000
0010
0000
0010
0000
0010
0000
0001
1000
0001
1000
0010
1000
0010
1000
,
0100
0000
0001
0000
0010
1000
0001
0000
1000
0000
0001
0000
0100
0000
0001
0000
,
1000
0000
1000
0000
1000
0000
1000
0000
0010
0100
0010
0100
1000
0100
1000
0100
,
0020
0000
0000
0000
0100
0000
0100
0030
,
1000
0000
0000
0001
0000
0000
1000
0000
0000
0000
0000
0000
0001
0000
0000
1000
0000
0000
0001
0000
0000
0000
0000
0000
0001
0000
0000
0000
0010
0000
0000
0000
1000
0000
0000
0000
0001
0000
0000
0000
0010
0000
0000
0000
0100
0000
0000
0000
,
0001
0010
1000
0010
0100
1000
0100
1000
0100
0000
0100
0000
0010
0000
1010
0000
,
0001
0010
1000
0000
1000
0010
0001
0000
0010
0001
0010
0001
0100
0010
0100
0010
,
0100
0010
0001
0010
0100
1000
0100
1000
0001
0000
0010
0000
1000
0001
0010
0000
,
0100
0000
0100
0000
0010
0000
0010
0000
0001
0010
0001
0010
1000
0100
1000
0100
,
0010
1000
0100
1000
0001
0100
0001
0100
0001
0000
0001
0000
1000
0000
1100
0000
,
0010
1000
0100
0000
0100
1000
0010
0000
1000
0010
1000
0010
0001
1000
0001
1000
,
0001
1000
0010
1000
0001
0100
0001
0100
0010
0000
1000
0000
0100
0010
1000
0000
,
0001
0000
0001
0000
1000
0000
1000
0000
0010
1000
0010
1000
0100
0001
0100
0001
,
1000
0100
0001
0100
0010
0001
0010
0001
0010
0000
0010
0000
0100
0000
0101
0000
,
1000
0100
0001
0000
0001
0100
1000
0000
0100
1000
0100
1000
0010
0100
0010
0100
,
0010
0100
1000
0100
0010
0001
0010
0001
1000
0000
0100
0000
0001
1000
0100
0000
,
0010
0000
0010
0000
0100
0000
0100
0000
1000
0100
1000
0100
0001
0010
0001
0010
,
0100
0001
0010
0001
1000
0010
1000
0010
1000
0000
1000
0000
0001
0000
0011
0000
,
0100
0001
0010
0000
0010
0001
0100
0000
0001
0100
0001
0100
1000
0001
1000
0001
,
1000
0001
0100
0001
1000
0010
1000
0010
0100
0000
0001
0000
0010
0100
0001
0000
,
1000
0000
1000
0000
0001
0000
0001
0000
0100
0001
0100
0001
0010
1000
0010
1000
,
0220
0000
0000
0000
,
0000
0000
0000
0000
,
0000
0000
0000
0000
,
0000
0000
0000
0000
,
0330
0000
0000
0000
;

//---------------dance-single - ----------------
#NOTES:
     dance-single:
     :
     Hard:
     16:
     0.799108,0.987612,0.148179,0.170406,0.759417,755.000000,735.000000,20.000000,23.000000,0.000000,0.000000,0.799108,0.987612,0.148179,0.170406,0.759417,755.000000,735.000000,20.000000,23.000000,0.000000,0.000000:
0000
0000
0000
0000
,
0000
0000
0000
0000
,
0010
0000
0000
0010
0000
0000
0010
0000
0010
0000
0010
0000
0000
0000
0000
0000
,
0020
0000
0000
0000
0000
0000
0000
0030
,
0100
0000
0000
0100
0000
0000
0100
0000
0100
0010
0100
0000
0000
0000
0000
0000
,
0002
0000
1000
0000
2000
0000
0000
3003
,
0010
1000
0010
0000
0010
0000
1000
0000
0010
1000
0000
0000
1000
0001
0000
0000
,
0100
0001
0100
0000
0100
0000
0001
0000
0100
0001
0000
0000
0001
1000
0000
0000
,
0100
0000
0000
0000
0010
0000
0000
0000
0100
0000
0010
0000
0100
0010
0100
0010
,
0100
0100
0100
0100
,
0010
0000
0100
0000
1000
0000
0100
0000
0010
0100
0010
0100
0010
0000
0100
0000
,
0010
0001
0000
0000
0010
0100
1000
0000
0100
0000
0010
0000
0100
0010
0100
0000
,
1000
0000
0001
0000
1000
0000
0000
0002
0000
0000
0000
0000
1000
0000
0003
0000
,
0100
0010
0001
0010
0200
0000
0010
0300
,
0001
0000
1000
0000
0010
0000
1000
0000
0001
1000
0001
1000
0001
0000
1000
0000
,
0001
0100
0000
0000
0001
1000
0010
0000
1000
0000
0001
0000
1000
0001
1000
0000
,
0010
0100
0010
0000
0200
0010
0010
0310
,
1000
0001
0100
0001
2000
0000
0001
3000
,
0100
0000
0010
0000
0001
0000
0010
0000
0100
0010
0100
0010
0100
0000
0010
0000
,
0100
1000
0000
0000
0100
0010
0001
0000
0010
0000
0100
0000
0010
0100
0010
0000
,
0001
0000
1000
0000
0001
0000
0000
2000
0000
0000
0000
0000
0001
0000
3000
0000
,
0010
0100
1000
0100
0020
0000
0100
0030
,
1000
0000
0001
0000
0100
0000
0001
0000
1000
0001
1000
0001
1000
0000
0001
0000
,
1000
0010
0000
0000
1000
0001
0100
0000
0001
0000
1000
0000
0001
1000
0001
0000
,
0100
0010
0100
0000
0020
0100
0100
0130
,
0001
1000
0010
1000
0002
0000
1000
0003
,
0020
0000
0000
0000
0001
0000
0000
0000
0130
0001
0100
0010
0100
0001
0100
0010
,
0200
0000
0000
0000
1000
0000
0000
0000
0310
1000
0010
0100
0010
1000
0010
0100
,
0002
0000
0000
0000
0100
0000
0000
0000
1003
0100
1000
0001
1000
0100
1000
0001
,
0010
0000
0010
0000
0100
0010
0100
0000
0010
0000
0000
0010
0100
0010
0100
0010
,
1100
0000
0001
0100
0001
0100
0001
0000
0101
0000
1000
0010
1000
0010
1000
0000
,
0110
0000
0010
0100
0010
0100
0010
0000
1010
0000
0110
0000
0101
0000
1001
0000
,
0001
0000
0000
0000
0000
0000
1000
0000
0000
0000
0000
0000
0001
0000
0000
1000
0000
0000
0001
0000
0000
1000
0000
0000
0001
0000
0000
0000
0010
0000
0000
0000
0100
0000
0000
0000
0010
0000
0000
0000
0100
0000
0000
0000
1000
0000
0000
0000
,
0020
0000
0000
0000
0130
0000
0000
0100
0000
0000
0100
0000
0100
0000
0100
0000
,
0110
0000
0010
0000
0100
0010
0001
0010
,
0101
0000
0100
0000
0010
0100
1000
0100
,
1001
0000
0001
0000
1000
0001
0100
0001
,
1100
0000
1000
0000
0001
1000
0010
1000
,
0110
0000
0010
0000
0100
0010
0001
0010
,
0110
0000
0100
0000
0010
0100
1000
0100
,
1001
0000
0001
0000
1000
0001
0100
0001
,
0010
0100
0000
0000
0100
0000
0000
0000
0100
0000
0000
0000
0110
0000
0000
0000
,
0020
0000
1000
0000
1000
1000
1030
0000
,
0200
0000
0001
0000
0001
0001
0301
0000
,
0002
0000
0010
0000
0010
0010
0013
0000
,
0200
0000
1000
0000
1300
0010
0010
0010
,
1000
0010
0001
0000
0001
0010
1000
0000
0100
0010
0100
0000
0100
0001
0100
0000
,
0001
0100
1000
0000
1000
0100
0001
0000
0010
0100
0010
0000
0010
1000
0010
0000
,
0100
0010
0000
0000
0010
0100
0000
0000
1000
0100
0010
0001
1000
0100
0010
0001
,
0100
0100
0100
0100
,
1000
0010
0100
0000
0001
0010
0100
0000
0010
0000
0100
0000
1000
0000
0100
0000
,
0010
0000
0010
0000
0010
0000
0010
0000
0001
1000
0001
1000
0010
1000
0010
1000
,
0001
0100
0010
0000
1000
0100
0010
0000
0100
0000
0010
0000
0001
0000
0010
0000
,
0100
0000
0100
0000
0100
0000
0100
0000
1000
0001
1000
0001
0100
0001
0100
0001
,
0010
0001
1000
0000
0100
0001
1000
0000
0001
0000
1000
0000
0010
0000
1000
0000
,
0001
0000
0001
0000
0001
0000
0001
0000
0100
0010
0100
0010
0001
0010
0001
0010
,
0200
0000
0010
0000
0010
0000
0010
0300
,
0001
0000
0000
1000
0000
0000
0001
0000
0000
0000
0000
0000
1000
0000
0000
0001
0000
0000
1000
0000
0000
0000
0000
0000
1000
0000
0000
0000
0100
0000
0000
0000
0001
0000
0000
0000
1000
0000
0000
0000
0100
0000
0000
0000
0010
0000
0000
0000
,
0001
0100
0010
0000
1000
0100
0010
0000
0100
0000
0010
0000
0001
0000
0010
0000
,
0100
0000
0100
0000
0100
0000
0100
0000
1000
0001
1000
0001
0100
0001
0100
0001
,
1000
0010
0100
0000
0001
0010
0100
0000
0010
0000
0100
0000
1000
0000
0100
0000
,
0010
0000
0010
0000
0010
0000
0010
0000
0001
1000
0001
1000
0010
1000
0010
1000
,
0100
1000
0001
0000
0010
1000
0001
0000
1000
0000
0001
0000
0100
0000
0001
0000
,
1000
0000
1000
0000
1000
0000
1000
0000
0010
0100
0010
0100
1000
0100
1000
0100
,
0020
0000
0100
0000
0100
0000
0100
0030
,
1000
0000
0000
0001
0000
0000
1000
0000
0000
0000
0000
0000
0001
0000
0000
1000
0000
0000
0001
0000
0000
0000
0000
0000
0001
0000
0000
0000
0010
0000
0000
0000
1000
0000
0000
0000
0001
0000
0000
0000
0010
0000
0000
0000
0100
0000
0000
0000
,
0001
0010
1000
0010
0100
1000
0100
1000
0100
0010
0100
0000
0010
0000
1010
0000
,
0001
0010
1000
0000
1000
0010
0001
0000
0010
0001
0010
0001
0100
0010
0100
0010
,
0100
0010
0001
0010
0100
1000
0100
1000
0001
0000
0010
0000
1000
0001
0010
0000
,
0100
0000
0100
0000
0010
0000
0010
0000
0001
0010
0001
0010
1000
0100
1000
0100
,
0010
1000
0100
1000
0001
0100
0001
0100
0001
1000
0001
0000
1000
0000
1100
0000
,
0010
1000
0100
0000
0100
1000
0010
0000
1000
0010
1000
0010
0001
1000
0001
1000
,
0001
1000
0010
1000
0001
0100
0001
0100
0010
0000
1000
0000
0100
0010
1000
0000
,
0001
0000
0001
0000
1000
0000
1000
0000
0010
1000
0010
1000
0100
0001
0100
0001
,
1000
0100
0001
0100
0010
0001
0010
0001
0010
0100
0010
0000
0100
0000
0101
0000
,
1000
0100
0001
0000
0001
0100
1000
0000
0100
1000
0100
1000
0010
0100
0010
0100
,
0010
0100
1000
0100
0010
0001
0010
0001
1000
0000
0100
0000
0001
1000
0100
0000
,
0010
0000
0010
0000
0100
0000
0100
0000
1000
0100
1000
0100
0001
0010
0001
0010
,
0100
0001
0010
0001
1000
0010
1000
0010
1000
0001
1000
0000
0001
0000
0011
0000
,
0100
0001
0010
0000
0010
0001
0100
0000
0001
0100
0001
0100
1000
0001
1000
0001
,
1000
0001
0100
0001
1000
0010
1000
0010
0100
0000
0001
0000
0010
0100
0001
0000
,
1000
0000
1000
0000
0001
0000
0001
0000
0100
0001
0100
0001
0010
1000
0010
1000
,
0220
0000
0000
0000
,
0000
0000
0000
0000
,
0000
0000
0000
0000
,
0000
0000
0000
0000
,
0330
0000
0000
0000
;

//---------------dance-single - ----------------
#NOTES:
     dance-single:
     :
     Challenge:
     17:
     0.849912,0.987612,0.214859,0.200041,0.859438,803.000000,774.000000,29.000000,27.000000,0.000000,0.000000,0.849912,0.987612,0.214859,0.200041,0.859438,803.000000,774.000000,29.000000,27.000000,0.000000,0.000000:
0000
0000
0000
0000
,
0000
0000
0000
0000
,
0010
0000
0000
0010
0000
0000
0010
0000
0010
0100
0010
0000
0000
0000
0000
0000
,
0020
0000
0000
0000
0000
0000
0000
0030
,
0100
0000
0000
0100
0000
0000
0100
0000
0100
0010
0100
0000
0000
0000
0000
0000
,
1002
0000
1000
0000
2000
0000
0000
3003
,
0010
1000
0010
1000
0010
0000
1000
0000
0010
1000
0000
0000
1000
0001
0000
0000
,
0100
0001
0100
0001
0100
0000
0001
0000
0100
0001
0000
0000
0001
1000
0000
0000
,
0100
0000
0010
0000
0100
0000
0010
0000
0100
0000
0010
0000
0100
0010
0100
0010
,
0100
0100
0100
0100
,
0010
0100
1000
0100
1000
0000
0100
0000
0010
0100
0010
0100
0010
0000
0100
0000
,
0010
0001
0000
0000
0010
0100
1000
0000
0100
0000
0010
0000
0100
0010
0100
0000
,
1000
0000
0001
0000
1000
0000
1000
0002
0000
0000
0000
0000
1000
0000
0003
0000
,
0100
0010
0001
0010
0200
0000
0010
0300
,
0001
1000
0010
1000
0010
0000
1000
0000
0001
1000
0001
1000
0001
0000
1000
0000
,
0001
0100
0000
0000
0001
1000
0010
0000
1000
0000
0001
0000
1000
0001
1000
0000
,
0010
0100
0010
0010
0200
0010
0010
0310
,
1000
0001
0100
0001
2000
0000
0001
3000
,
0100
0010
0001
0010
0001
0000
0010
0000
0100
0010
0100
0010
0100
0000
0010
0000
,
0100
1000
0000
0000
0100
0010
0001
0000
0010
0000
0100
0000
0010
0100
0010
0000
,
0001
0000
1000
0000
0001
0000
0001
2000
0000
0000
0000
0000
0001
0000
3000
0000
,
0010
0100
1000
0100
0020
0000
0100
0030
,
1000
0001
0100
0001
0100
0000
0001
0000
1000
0001
1000
0001
1000
0000
0001
0000
,
1000
0010
0000
0000
1000
0001
0100
0000
0001
0000
1000
0000
0001
1000
0001
0000
,
0100
0010
0100
0100
0020
0100
0100
0130
,
0001
1000
0010
1000
0002
1000
1000
0003
,
0020
0000
0000
0000
0001
0000
0001
0000
0130
0001
0100
0010
0100
0001
0100
0010
,
0200
0000
0000
0000
1000
0000
1000
0000
0310
1000
0010
0100
0010
1000
0010
0100
,
0002
0000
0000
0000
0100
0000
0100
0000
1003
0100
1000
0001
1000
0100
1000
0001
,
0010
0000
0010
0000
0100
0010
0100
0000
0010
0000
0000
0010
0100
0010
0100
0010
,
1100
0000
0001
0100
0001
0100
0001
0000
0101
0000
1000
0010
1000
0010
1000
0000
,
0110
0000
0010
0100
0010
0100
0010
0000
1010
0000
0110
0000
0101
0000
1001
0000
,
0001
0000
0000
1000
0000
0000
0001
0000
0000
1000
0000
0000
0001
0000
0000
1000
0000
0000
0001
0000
0000
1000
0000
0000
0001
0000
0000
0000
0010
0000
0000
0000
0100
0000
0000
0000
0010
0000
0000
0000
0100
0000
0000
0000
1000
0000
0000
0000
,
0020
0000
0000
0000
0130
0000
0000
0100
0000
0000
0100
0000
0100
0000
0100
0000
,
0210
0000
0310
0000
0100
0010
0001
0010
,
0101
0000
0100
0000
0010
0100
1000
0100
,
2001
0000
3001
0000
1000
0001
0100
0001
,
1100
0000
1000
0000
0001
1000
0010
1000
,
0210
0000
0310
0000
0100
0010
0001
0010
,
0110
0000
0100
0000
0010
0100
1000
0100
,
2001
0000
3001
0000
1000
0001
0100
0001
,
0010
0100
0000
0000
0100
0000
0000
0000
0100
0000
0000
0000
0110
0000
0000
0000
,
1020
0000
1000
0000
1000
1000
1030
0000
,
0201
0000
0001
0000
0001
0001
0301
0000
,
0012
0000
0010
0000
0010
0010
0013
0000
,
0210
0000
1000
0000
1300
0010
0010
0010
,
1000
0010
0001
0010
0001
0010
1000
0000
0100
0010
0100
1000
0100
0001
0100
0000
,
0001
0100
1000
0100
1000
0100
0001
0000
0010
0100
0010
0001
0010
1000
0010
0000
,
0100
0010
0000
0000
0010
0100
0000
0000
1000
0100
0010
0001
1000
0100
0010
0001
,
0100
0100
0100
0100
,
1000
0010
0100
0000
0001
0010
0100
0000
0010
0000
0100
0000
1000
0000
0100
0000
,
0010
0000
0010
0000
0010
0100
0010
0000
0001
1000
0001
1000
0010
1000
0010
1000
,
0001
0100
0010
0000
1000
0100
0010
0000
0100
0000
0010
0000
0001
0000
0010
0000
,
0100
0000
0100
0000
0100
0010
0100
0000
1000
0001
1000
0001
0100
0001
0100
0001
,
0010
0001
1000
0000
0100
0001
1000
0000
0001
0000
1000
0000
0010
0000
1000
0000
,
0001
0000
0001
0000
0001
1000
0001
0000
0100
0010
0100
0010
0001
0010
0001
0010
,
0200
0000
0010
0000
0010
0000
0010
0310
,
0001
0000
0000
1000
0000
0000
0001
0000
0000
0000
0000
0000
1000
0000
0000
0001
0000
0000
1000
0000
0000
0000
0000
0000
1000
0000
0000
0000
0100
0000
0000
0000
0001
0000
0000
0000
1000
0000
0000
0000
0100
0000
0000
0000
0010
0000
0000
0000
,
0001
0100
0010
0000
1000
0100
0010
0000
0100
0000
0010
0000
0001
0000
0010
0000
,
0100
0000
0100
0000
0100
0010
0100
0000
1000
0001
1000
0001
0100
0001
0100
0001
,
1000
0010
0100
0000
0001
0010
0100
0000
0010
0000
0100
0000
1000
0000
0100
0000
,
0010
0000
0010
0000
0010
0100
0010
0000
0001
1000
0001
1000
0010
1000
0010
1000
,
0100
1000
0001
0000
0010
1000
0001
0000
1000
0000
0001
0000
0100
0000
0001
0000
,
1000
0000
1000
0000
1000
0001
1000
0000
0010
0100
0010
0100
1000
0100
1000
0100
,
0020
0000
0100
0000
0100
0000
0100
0130
,
1000
0000
0000
0001
0000
0000
1000
0000
0000
0000
0000
0000
0001
0000
0000
1000
0000
0000
0001
0000
0000
0000
0000
0000
0001
0000
0000
0000
0010
0000
0000
0000
1000
0000
0000
0000
0001
0000
0000
0000
0010
0000
0000
0000
0100
0000
0000
0000
,
0001
0010
1000
0010
0100
1000
0100
1000
0100
0010
0100
0000
0010
0100
1010
0000
,
0001
0010
1000
0000
1000
0010
0001
0000
0010
0001
0010
0001
0100
0010
0100
0010
,
0100
0010
0001
0010
0100
1000
0100
1000
0001
0000
0010
0000
1000
0001
0010
0000
,
0100
0000
0100
0000
0010
0000
0110
0000
0001
0010
0001
0010
1000
0100
1000
0100
,
0010
1000
0100
1000
0001
0100
0001
0100
0001
1000
0001
0000
1000
0001
1100
0000
,
0010
1000
0100
0000
0100
1000
0010
0000
1000
0010
1000
0010
0001
1000
0001
1000
,
0001
1000
0010
1000
0001
0100
0001
0100
0010
0000
1000
0000
0100
0010
1000
0000
,
0001
0000
0001
0000
1000
0000
1001
0000
0010
1000
0010
1000
0100
0001
0100
0001
,
1000
0100
0001
0100
0010
0001
0010
0001
0010
0100
0010
0000
0100
0010
0101
0000
,
1000
0100
0001
0000
0001
0100
1000
0000
0100
1000
0100
1000
0010
0100
0010
0100
,
0010
0100
1000
0100
0010
0001
0010
0001
1000
0000
0100
0000
0001
1000
0100
0000
,
0010
0000
0010
0000
0100
0000
0110
0000
1000
0100
1000
0100
0001
0010
0001
0010
,
0100
0001
0010
0001
1000
0010
1000
0010
1000
0001
1000
0000
0001
1000
0011
0000
,
0100
0001
0010
0000
0010
0001
0100
0000
0001
0100
0001
0100
1000
0001
1000
0001
,
1000
0001
0100
0001
1000
0010
1000
0010
0100
0000
0001
0000
0010
0100
0001
0000
,
1000
0000
1000
0000
0001
0000
1001
0000
0100
0001
0100
0001
0010
1000
0010
1000
,
0220
0000
0000
0000
,
0000
0000
0000
0000
,
0000
0000
0000
0000
,
0000
0000
0000
0000
,
0330
0000
0000
0000
;

//---------------dance-single - Deluxe----------------
#NOTES:
     dance-single:
     :
     Edit:
     17:
     0.871080,1.019471,0.222268,0.222268,0.915005,823.000000,793.000000,30.000000,30.000000,0.000000,0.000000,0.871080,1.019471,0.222268,0.222268,0.915005,823.000000,793.000000,30.000000,30.000000,0.000000,0.000000:
0000
0000
0000
0000
,
0000
0000
0000
0000
,
0010
0000
0000
0010
0000
0000
0010
0000
0010
0100
0010
0000
0000
0000
0000
0000
,
0020
0000
0000
0000
0000
0000
0000
0030
,
0100
0000
0000
0100
0000
0000
0100
0000
0100
0010
0100
0000
0000
0000
0000
0000
,
1002
0000
1000
0000
2000
0000
0000
3003
,
0010
1000
0010
1000
0010
0000
1000
0000
0010
1000
0000
0000
1000
0001
0000
0000
,
0100
0001
0100
0001
0100
0000
0001
0000
0100
0001
0000
0000
0001
1000
0000
0000
,
0100
0000
0010
0000
0100
0000
0010
0000
0100
0000
0010
0000
0100
0010
0100
0010
,
0100
0100
0100
0100
,
0010
0100
1000
0100
1000
0000
0100
0000
0010
0100
0010
0100
0010
0000
0100
0000
,
0010
0001
0000
0000
0010
0100
1000
0000
0100
0000
0010
0000
0100
0010
0100
0000
,
1000
0000
0001
0000
1000
0000
1000
0002
0000
0000
0000
0000
1000
0000
0003
0000
,
0100
0010
0001
0010
0200
0000
0010
0310
,
0001
1000
0010
1000
0010
0000
1000
0000
0001
1000
0001
1000
0001
0000
1000
0000
,
0001
0100
0000
0000
0001
1000
0010
0000
1000
0000
0001
0000
1000
0001
1000
0000
,
0010
0100
0010
0010
0200
0010
0010
0310
,
1000
0001
0100
0001
2000
0000
0001
3001
,
0100
0010
0001
0010
0001
0000
0010
0000
0100
0010
0100
0010
0100
0000
0010
0000
,
0100
1000
0000
0000
0100
0010
0001
0000
0010
0000
0100
0000
0010
0100
0010
0000
,
0001
0000
1000
0000
0001
0000
0001
2000
0000
0000
0000
0000
0001
0000
3000
0000
,
0010
0100
1000
0100
0020
0000
0100
0130
,
1000
0001
0100
0001
0100
0000
0001
0000
1000
0001
1000
0001
1000
0000
0001
0000
,
1000
0010
0000
0000
1000
0001
0100
0000
0001
0000
1000
0000
0001
1000
0001
0000
,
0100
0010
0100
0100
0020
0100
0100
0130
,
0001
1000
0010
1000
0002
1000
1000
0003
,
0020
0000
0000
0000
0001
0000
0001
0000
0130
0001
0100
0010
0100
0001
0100
0010
,
0200
0000
0000
0000
1000
0000
1000
0000
0310
1000
0010
0100
0010
1000
0010
0100
,
0002
0000
0000
0000
0100
0000
0100
0000
1003
0100
1000
0001
1000
0100
1000
0001
,
0010
0000
0010
0000
0100
0010
0100
0000
0010
0000
0000
0010
0100
0010
0100
0010
,
1100
0000
0001
0100
0001
0100
0001
0000
0101
0000
1000
0010
1000
0010
1000
0000
,
0110
0000
0010
0100
0010
0100
0010
0000
1010
0000
0110
0000
0101
0000
1001
0000
,
0001
0000
0000
1000
0000
0000
0001
0000
0000
1000
0000
0000
0001
0000
0000
1000
0000
0000
0001
0000
0000
1000
0000
0000
0001
0000
0000
0000
0010
0000
0000
0000
0100
0000
0000
0000
0010
0000
0000
0000
0100
0000
0000
0000
1000
0000
0000
0000
,
0120
0000
0000
0000
0130
0000
0000
0100
0000
0000
0100
0000
0100
0000
0100
0000
,
0210
0000
0310
0000
0100
0010
0001
0010
,
0102
0000
0103
0000
0010
0100
1000
0100
,
2001
0000
3001
0000
1000
0001
0100
0001
,
1200
0000
1300
0000
0001
1000
0010
1000
,
0210
0000
0310
0000
0100
0010
0001
0010
,
0120
0000
0130
0000
0010
0100
1000
0100
,
2001
0000
3001
0000
1000
0001
0100
0001
,
0010
0100
0000
0000
0100
0010
0000
0000
0100
0000
0010
0000
0110
0000
0000
0000
,
1020
0000
1000
0000
1000
1000
1030
0000
,
0201
0000
0001
0000
0001
0001
0301
0000
,
0012
0000
0010
0000
0010
0010
0013
0000
,
0210
0000
1000
0000
1300
0010
0010
0010
,
1000
0010
0001
0010
0001
0010
1000
0000
0100
0010
0100
1000
0100
0001
0100
0000
,
0001
0100
1000
0100
1000
0100
0001
0000
0010
0100
0010
0001
0010
1000
0010
0000
,
0100
0010
0000
0000
0010
0100
0000
0000
1000
0100
0010
0001
1000
0100
0010
0001
,
0100
0100
0100
0100
,
1000
0010
0100
1000
0001
0010
0100
0000
0010
0000
0100
0000
1000
0100
0010
0000
,
0010
0000
0010
0000
0010
0100
0010
0000
0001
1000
0001
1000
0010
1000
0010
1000
,
0001
0100
0010
0000
1000
0100
0010
0000
0100
0000
0010
0000
0001
0010
0100
0000
,
0100
0000
0100
0000
0100
0010
0100
0000
1000
0001
1000
0001
0100
0001
0100
0001
,
0010
0001
1000
0010
0100
0001
1000
0000
0001
0000
1000
0000
0010
1000
0001
0000
,
0001
0000
0001
0000
0001
1000
0001
0000
0100
0010
0100
0010
0001
0010
0001
0010
,
0200
0000
0010
0000
0010
0000
0010
0310
,
0001
0000
0000
1000
0000
0000
0001
0000
0000
0000
0000
0000
1000
0000
0000
0001
0000
0000
1000
0000
0000
0000
0000
0000
1000
0000
0000
0000
0100
0000
0000
0000
0001
0000
0000
0000
1000
0000
0000
0000
0100
0000
0000
0000
0010
0000
0000
0000
,
0001
0100
0010
0001
1000
0100
0010
0000
0100
0000
0010
0000
0001
0010
0100
0000
,
0100
0000
0100
0000
0100
0010
0100
0000
1000
0001
1000
0001
0100
0001
0100
0001
,
1000
0010
0100
0000
0001
0010
0100
0000
0010
0000
0100
0000
1000
0100
0010
0000
,
0010
0000
0010
0000
0010
0100
0010
0000
0001
1000
0001
1000
0010
1000
0010
1000
,
0100
1000
0001
0100
0010
1000
0001
0000
1000
0000
0001
0000
0100
0001
1000
0000
,
1000
0000
1000
0000
1000
0001
1000
0000
0010
0100
0010
0100
1000
0100
1000
0100
,
0020
0000
0100
0000
0100
0000
0100
0130
,
1000
0000
0000
0001
0000
0000
1000
0000
0000
0000
0000
0000
0001
0000
0000
1000
0000
0000
0001
0000
0000
0000
0000
0000
0001
0000
0000
0000
0010
0000
0000
0000
1000
0000
0000
0000
0001
0000
0000
0000
0010
0000
0000
0000
0100
0000
0000
0000
,
0001
0010
1000
0010
0100
1000
0100
1000
0100
0010
0100
0000
0010
0100
1010
0000
,
0001
0010
1000
0001
1000
0010
0001
0000
0010
0001
0010
0001
0100
0010
0100
0010
,
0100
0010
0001
0010
0100
1000
0100
1000
0001
0000
0010
0000
1000
0001
0010
0000
,
0100
0000
0100
0000
0010
0000
0110
0000
0001
0010
0001
0010
1000
0100
1000
0100
,
0010
1000
0100
1000
0001
0100
0001
0100
0001
1000
0001
0000
1000
0001
1100
0000
,
0010
1000
0100
0010
0100
1000
0010
0000
1000
0010
1000
0010
0001
1000
0001
1000
,
0001
1000
0010
1000
0001
0100
0001
0100
0010
0000
1000
0000
0100
0010
1000
0000
,
0001
0000
0001
0000
1000
0000
1001
0000
0010
1000
0010
1000
0100
0001
0100
0001
,
1000
0100
0001
0100
0010
0001
0010
0001
0010
0100
0010
0000
0100
0010
0101
0000
,
1000
0100
0001
1000
0001
0100
1000
0000
0100
1000
0100
1000
0010
0100
0010
0100
,
0010
0100
1000
0100
0010
0001
0010
0001
1000
0000
0100
0000
0001
1000
0100
0000
,
0010
0000
0010
0000
0100
0000
0110
0000
1000
0100
1000
0100
0001
0010
0001
0010
,
0100
0001
0010
0001
1000
0010
1000
0010
1000
0001
1000
0000
0001
1000
0011
0000
,
0100
0001
0010
0100
0010
0001
0100
0000
0001
0100
0001
0100
1000
0001
1000
0001
,
1000
0001
0100
0001
1000
0010
1000
0010
0100
0000
0001
0000
0010
0100
0001
0000
,
1000
0000
1000
0000
0001
0000
1001
0000
0100
0001
0100
0001
0010
1000
0010
1000
,
0220
0000
0000
0000
,
0000
0000
0000
0000
,
0000
0000
0000
0000
,
0000
0000
0000
0000
,
0330
0000
0000
0000
;
