#VERSION:0.83;
#TITLE:CHERRY DOLL;
#SUBTITLE:;
#ARTIST:カラフル・サウンズ・ポート;
#TITLETRANSLIT:Cherry Doll;
#SUBTITLETRANSLIT:;
#ARTISTTRANSLIT:Colorful Sounds Port;
#GENRE:KAGAWA (BUBBLEGUM DANCE);
#ORIGIN:;
#CREDIT:;
#BANNER:;
#BACKGROUND:;
#PREVIEWVID:;
#JACKET:;
#CDIMAGE:;
#DISCIMAGE:;
#LYRICSPATH:;
#CDTITLE:;
#MUSIC:CHERRY DOLL.ogg;
#OFFSET:0.000000;
#SAMPLESTART:45.547447;
#SAMPLELENGTH:15.000000;
#SELECTABLE:YES;
#BPMS:0.000=137.000;
#STOPS:;
#DELAYS:;
#WARPS:;
#TIMESIGNATURES:0.000=4=4;
#TICKCOUNTS:0.000=4;
#COMBOS:0.000=1;
#SPEEDS:0.000=1.000=0.000=0;
#SCROLLS:0.000=1.000;
#FAKES:;
#LABELS:0.000=Song Start;
#BGCHANGES:;
#KEYSOUNDS:;
#ATTACKS:
;

//---------------dance-single - ----------------
#NOTEDATA:;
#CHARTNAME:;
#STEPSTYPE:dance-single;
#DESCRIPTION:;
#CHARTSTYLE:;
#DIFFICULTY:Easy;
#METER:3;
#RADARVALUES:0.109130,0.168732,0.016789,0.083946,0.000000,91.000000,89.000000,2.000000,10.000000,0.000000,0.000000,0.000000,0.000000,0.000000,0.109130,0.168732,0.016789,0.083946,0.000000,91.000000,89.000000,2.000000,10.000000,0.000000,0.000000,0.000000,0.000000,0.000000;
#CREDIT:;
#NOTES:
// measure 0
0000
0000
0000
0000
,  // measure 1
0000
0000
0000
0000
,  // measure 2
0000
0000
0000
0000
,  // measure 3
0000
0000
0000
0000
,  // measure 4
0000
0000
0000
0000
,  // measure 5
0000
0000
0000
0000
,  // measure 6
0010
0000
0010
0000
,  // measure 7
0100
0000
0100
0000
,  // measure 8
1000
0000
1000
0000
,  // measure 9
0001
0000
0001
0000
,  // measure 10
0010
0000
0000
0000
,  // measure 11
0010
0000
0010
0000
,  // measure 12
0010
0000
0000
0000
,  // measure 13
1000
0000
0000
0000
,  // measure 14
0100
0000
0000
0000
,  // measure 15
0100
0000
0100
0000
,  // measure 16
0100
0000
0000
0000
,  // measure 17
0001
0000
0000
0000
,  // measure 18
0001
0000
0000
0000
,  // measure 19
0001
0000
0001
0000
,  // measure 20
0001
0000
0000
0000
,  // measure 21
0010
0000
0000
0000
,  // measure 22
1000
0000
0000
0000
,  // measure 23
1000
0000
1000
0000
,  // measure 24
1000
0000
0000
0000
,  // measure 25
0100
0000
0000
0000
,  // measure 26
0010
0000
0001
0000
,  // measure 27
0010
0000
1000
0000
,  // measure 28
0010
0000
0010
0000
,  // measure 29
0020
0000
0000
0030
,  // measure 30
0100
0000
1000
0000
,  // measure 31
0100
0000
0001
0000
,  // measure 32
0100
0000
0100
0000
,  // measure 33
0200
0000
0000
0300
,  // measure 34
0001
0000
0100
0000
,  // measure 35
0001
0000
0010
0000
,  // measure 36
0001
0000
0001
0000
,  // measure 37
0002
0000
0000
0003
,  // measure 38
1000
0000
0010
0000
,  // measure 39
1000
0000
0100
0000
,  // measure 40
1000
0000
1000
0000
,  // measure 41
2000
0000
0000
3000
,  // measure 42
0020
0000
0000
0000
,  // measure 43
0000
0000
0000
0000
,  // measure 44
0000
0000
0000
0000
,  // measure 45
0000
0000
0000
0030
,  // measure 46
0200
0000
0000
0000
,  // measure 47
0000
0000
0000
0000
,  // measure 48
0000
0000
0000
0000
,  // measure 49
0000
0000
0000
0300
,  // measure 50
0010
0000
0010
0000
,  // measure 51
0020
0000
0000
0030
,  // measure 52
0100
0000
1000
0000
,  // measure 53
0100
0000
0001
0000
,  // measure 54
0100
0000
0100
0000
,  // measure 55
0200
0000
0000
0300
,  // measure 56
0010
0000
0010
0000
,  // measure 57
2002
0000
0000
3003
,  // measure 58
0010
0000
0010
0000
,  // measure 59
0100
0000
0100
0000
,  // measure 60
1000
0000
1000
0000
,  // measure 61
0001
0000
0001
0000
,  // measure 62
0100
0000
0100
0000
,  // measure 63
0010
0000
0010
0000
,  // measure 64
0001
0000
0001
0000
,  // measure 65
1000
0000
1000
0000
,  // measure 66
1001
0000
0000
0000
,  // measure 67
0010
0000
0000
0000
;

//---------------dance-single - ----------------
#NOTEDATA:;
#CHARTNAME:;
#STEPSTYPE:dance-single;
#DESCRIPTION:;
#CHARTSTYLE:;
#DIFFICULTY:Beginner;
#METER:3;
#RADARVALUES:0.094739,0.140610,0.008395,0.083946,0.000000,79.000000,78.000000,1.000000,10.000000,0.000000,0.000000,0.000000,0.000000,0.000000,0.094739,0.140610,0.008395,0.083946,0.000000,79.000000,78.000000,1.000000,10.000000,0.000000,0.000000,0.000000,0.000000,0.000000;
#CREDIT:;
#NOTES:
// measure 0
0000
0000
0000
0000
,  // measure 1
0000
0000
0000
0000
,  // measure 2
0000
0000
0000
0000
,  // measure 3
0000
0000
0000
0000
,  // measure 4
0000
0000
0000
0000
,  // measure 5
0000
0000
0000
0000
,  // measure 6
0010
0000
0010
0000
,  // measure 7
0100
0000
0100
0000
,  // measure 8
1000
0000
1000
0000
,  // measure 9
0001
0000
0001
0000
,  // measure 10
0010
0000
0000
0000
,  // measure 11
0010
0000
0000
0000
,  // measure 12
0010
0000
0000
0000
,  // measure 13
1000
0000
0000
0000
,  // measure 14
0100
0000
0000
0000
,  // measure 15
0100
0000
0000
0000
,  // measure 16
0100
0000
0000
0000
,  // measure 17
0001
0000
0000
0000
,  // measure 18
0001
0000
0000
0000
,  // measure 19
0001
0000
0000
0000
,  // measure 20
0001
0000
0000
0000
,  // measure 21
0010
0000
0000
0000
,  // measure 22
1000
0000
0000
0000
,  // measure 23
1000
0000
0000
0000
,  // measure 24
1000
0000
0000
0000
,  // measure 25
0100
0000
0000
0000
,  // measure 26
0010
0000
0001
0000
,  // measure 27
0010
0000
1000
0000
,  // measure 28
0010
0000
0000
0000
,  // measure 29
0020
0000
0000
0030
,  // measure 30
0100
0000
1000
0000
,  // measure 31
0100
0000
0001
0000
,  // measure 32
0100
0000
0000
0000
,  // measure 33
0200
0000
0000
0300
,  // measure 34
0001
0000
0100
0000
,  // measure 35
0001
0000
0010
0000
,  // measure 36
0001
0000
0000
0000
,  // measure 37
0002
0000
0000
0003
,  // measure 38
1000
0000
0010
0000
,  // measure 39
1000
0000
0100
0000
,  // measure 40
1000
0000
0000
0000
,  // measure 41
2000
0000
0000
3000
,  // measure 42
0020
0000
0000
0000
,  // measure 43
0000
0000
0000
0000
,  // measure 44
0000
0000
0000
0000
,  // measure 45
0000
0000
0000
0030
,  // measure 46
0200
0000
0000
0000
,  // measure 47
0000
0000
0000
0000
,  // measure 48
0000
0000
0000
0000
,  // measure 49
0000
0000
0000
0300
,  // measure 50
0010
0000
0000
0000
,  // measure 51
0020
0000
0000
0030
,  // measure 52
0100
0000
1000
0000
,  // measure 53
0100
0000
0001
0000
,  // measure 54
0100
0000
0000
0000
,  // measure 55
0200
0000
0000
0300
,  // measure 56
0010
0000
0000
0000
,  // measure 57
2002
0000
0000
3003
,  // measure 58
0010
0000
0010
0000
,  // measure 59
0100
0000
0100
0000
,  // measure 60
1000
0000
1000
0000
,  // measure 61
0001
0000
0001
0000
,  // measure 62
0100
0000
0100
0000
,  // measure 63
0010
0000
0010
0000
,  // measure 64
0001
0000
0001
0000
,  // measure 65
1000
0000
1000
0000
,  // measure 66
0100
0000
0000
0000
,  // measure 67
0010
0000
0000
0000
;

//---------------dance-single - ----------------
#NOTEDATA:;
#CHARTNAME:;
#STEPSTYPE:dance-single;
#DESCRIPTION:;
#CHARTSTYLE:;
#DIFFICULTY:Medium;
#METER:4;
#RADARVALUES:0.118724,0.196854,0.025184,0.083946,0.000000,99.000000,96.000000,3.000000,10.000000,0.000000,0.000000,0.000000,0.000000,0.000000,0.118724,0.196854,0.025184,0.083946,0.000000,99.000000,96.000000,3.000000,10.000000,0.000000,0.000000,0.000000,0.000000,0.000000;
#CREDIT:;
#NOTES:
// measure 0
0000
0000
0000
0000
,  // measure 1
0000
0000
0000
0000
,  // measure 2
0000
0000
0000
0000
,  // measure 3
0000
0000
0000
0000
,  // measure 4
0000
0000
0000
0000
,  // measure 5
0000
0000
0000
0000
,  // measure 6
0010
0000
0010
0000
,  // measure 7
0100
0000
0100
0000
,  // measure 8
1000
0000
1000
0000
,  // measure 9
0001
0000
0001
1000
,  // measure 10
0010
0000
0000
0000
,  // measure 11
0010
0000
0010
0000
,  // measure 12
0010
0000
1000
0000
,  // measure 13
1000
0000
0000
0000
,  // measure 14
0100
0000
0000
0000
,  // measure 15
0100
0000
0100
0000
,  // measure 16
0100
0000
0001
0000
,  // measure 17
0001
0000
0000
0000
,  // measure 18
0001
0000
0000
0000
,  // measure 19
0001
0000
0001
0000
,  // measure 20
0001
0000
0010
0000
,  // measure 21
0010
0000
0000
0000
,  // measure 22
1000
0000
0000
0000
,  // measure 23
1000
0000
1000
0000
,  // measure 24
1000
0000
0100
0000
,  // measure 25
0100
0000
0000
0000
,  // measure 26
0010
0000
0001
0000
,  // measure 27
0010
0000
1000
0000
,  // measure 28
0010
0000
0010
0000
,  // measure 29
0020
0000
0000
0030
,  // measure 30
0100
0000
1000
0000
,  // measure 31
0100
0000
0001
0000
,  // measure 32
0100
0000
0100
0000
,  // measure 33
0200
0000
0000
0300
,  // measure 34
0001
0000
0100
0000
,  // measure 35
0001
0000
0010
0000
,  // measure 36
0001
0000
0001
0000
,  // measure 37
0002
0000
0000
0003
,  // measure 38
1000
0000
0010
0000
,  // measure 39
1000
0000
0100
0000
,  // measure 40
1000
0000
1000
0000
,  // measure 41
2000
0000
0000
3000
,  // measure 42
0020
0000
0000
0000
,  // measure 43
0000
0000
0000
0000
,  // measure 44
0000
0000
0000
0000
,  // measure 45
0000
0000
0000
0030
,  // measure 46
0200
0000
0000
0000
,  // measure 47
0000
0000
0000
0000
,  // measure 48
0000
0000
0000
0000
,  // measure 49
0000
0000
0000
0300
,  // measure 50
0010
0000
0010
0000
,  // measure 51
0020
0000
0000
0030
,  // measure 52
0100
0000
1000
0000
,  // measure 53
0100
0000
0001
0000
,  // measure 54
0100
0000
0100
0000
,  // measure 55
0200
0000
0000
0300
,  // measure 56
0010
0000
0010
0000
,  // measure 57
2002
0000
0000
3003
,  // measure 58
0010
0000
0010
0000
,  // measure 59
0100
0000
0100
0000
,  // measure 60
1000
0000
1000
0000
,  // measure 61
0001
0000
0001
1000
,  // measure 62
0100
0000
0100
0000
,  // measure 63
0010
0000
0010
0000
,  // measure 64
0001
0000
0001
0000
,  // measure 65
1000
0000
1000
0001
,  // measure 66
1001
0000
0000
0000
,  // measure 67
0110
0000
0000
0000
;

//---------------dance-single - ----------------
#NOTEDATA:;
#CHARTNAME:;
#STEPSTYPE:dance-single;
#DESCRIPTION:;
#CHARTSTYLE:;
#DIFFICULTY:Hard;
#METER:4;
#RADARVALUES:0.130716,0.196854,0.025184,0.083946,0.000000,109.000000,106.000000,3.000000,10.000000,0.000000,0.000000,0.000000,0.000000,0.000000,0.130716,0.196854,0.025184,0.083946,0.000000,109.000000,106.000000,3.000000,10.000000,0.000000,0.000000,0.000000,0.000000,0.000000;
#CREDIT:;
#NOTES:
// measure 0
0000
0000
0000
0000
,  // measure 1
0000
0000
0000
0000
,  // measure 2
0000
0000
0000
0000
,  // measure 3
0000
0000
0000
0000
,  // measure 4
0000
0000
0000
0000
,  // measure 5
0000
0000
0000
0000
,  // measure 6
0010
0000
0010
0000
,  // measure 7
0100
0000
0100
0010
,  // measure 8
1000
0000
1000
0000
,  // measure 9
0001
0000
0001
1000
,  // measure 10
0010
0000
0001
0000
,  // measure 11
0010
0000
0010
0000
,  // measure 12
0010
0000
1000
0000
,  // measure 13
1000
0000
0000
0000
,  // measure 14
0100
0000
1000
0000
,  // measure 15
0100
0000
0100
0000
,  // measure 16
0100
0000
0001
0000
,  // measure 17
0001
0000
0000
0000
,  // measure 18
0001
0000
0100
0000
,  // measure 19
0001
0000
0001
0000
,  // measure 20
0001
0000
0010
0000
,  // measure 21
0010
0000
0000
0000
,  // measure 22
1000
0000
0010
0000
,  // measure 23
1000
0000
1000
0000
,  // measure 24
1000
0000
0100
0000
,  // measure 25
0100
0000
0000
0000
,  // measure 26
0010
0000
0001
0000
,  // measure 27
0010
0000
1000
0000
,  // measure 28
0010
0000
0010
0000
,  // measure 29
0020
0000
0000
0030
,  // measure 30
0100
0000
1000
0000
,  // measure 31
0100
0000
0001
0000
,  // measure 32
0100
0000
0100
0000
,  // measure 33
0200
0000
0010
0300
,  // measure 34
0001
0000
0100
0000
,  // measure 35
0001
0000
0010
0000
,  // measure 36
0001
0000
0001
0000
,  // measure 37
0002
0000
0000
0003
,  // measure 38
1000
0000
0010
0000
,  // measure 39
1000
0000
0100
0000
,  // measure 40
1000
0000
1000
0000
,  // measure 41
2000
0000
0001
3000
,  // measure 42
0020
0000
0000
0000
,  // measure 43
0000
0000
0000
0000
,  // measure 44
0000
0000
0000
0000
,  // measure 45
0000
0000
0000
0030
,  // measure 46
0200
0000
0000
0000
,  // measure 47
0000
0000
0000
0000
,  // measure 48
0000
0000
0000
0000
,  // measure 49
0000
0000
0000
0300
,  // measure 50
0010
0000
0010
0000
,  // measure 51
0020
0000
0000
0030
,  // measure 52
0100
0000
1000
0000
,  // measure 53
0100
0000
0001
0000
,  // measure 54
0100
0000
0100
0000
,  // measure 55
0200
0000
0010
0300
,  // measure 56
0010
0000
0010
0000
,  // measure 57
2002
0000
0000
3003
,  // measure 58
0010
0000
0010
0000
,  // measure 59
0100
0000
0100
0010
,  // measure 60
1000
0000
1000
0000
,  // measure 61
0001
0000
0001
1000
,  // measure 62
0100
0000
0100
0000
,  // measure 63
0010
0000
0010
0100
,  // measure 64
0001
0000
0001
0000
,  // measure 65
1000
0000
1000
0001
,  // measure 66
1001
0000
0000
0000
,  // measure 67
0110
0000
0000
0000
;

//---------------dance-single - ----------------
#NOTEDATA:;
#CHARTNAME:;
#STEPSTYPE:dance-single;
#DESCRIPTION:;
#CHARTSTYLE:;
#DIFFICULTY:Challenge;
#METER:4;
#RADARVALUES:0.147505,0.224976,0.025184,0.083946,0.000000,123.000000,120.000000,3.000000,10.000000,0.000000,0.000000,0.000000,0.000000,0.000000,0.147505,0.224976,0.025184,0.083946,0.000000,123.000000,120.000000,3.000000,10.000000,0.000000,0.000000,0.000000,0.000000,0.000000;
#CREDIT:;
#NOTES:
// measure 0
0000
0000
0000
0000
,  // measure 1
0000
0000
0000
0000
,  // measure 2
0000
0000
0000
0000
,  // measure 3
0000
0000
0000
0000
,  // measure 4
0000
0000
0000
0000
,  // measure 5
0000
0000
0000
0000
,  // measure 6
0010
0000
0010
0100
,  // measure 7
0100
0000
0100
0010
,  // measure 8
1000
0000
1000
0001
,  // measure 9
0001
0000
0001
1000
,  // measure 10
0010
0000
0001
0000
,  // measure 11
0010
0000
0010
0000
,  // measure 12
0010
0000
1000
0000
,  // measure 13
1000
0000
0001
0000
,  // measure 14
0100
0000
1000
0000
,  // measure 15
0100
0000
0100
0000
,  // measure 16
0100
0000
0001
0000
,  // measure 17
0001
0000
1000
0000
,  // measure 18
0001
0000
0100
0000
,  // measure 19
0001
0000
0001
0000
,  // measure 20
0001
0000
0010
0000
,  // measure 21
0010
0000
0100
0000
,  // measure 22
1000
0000
0010
0000
,  // measure 23
1000
0000
1000
0000
,  // measure 24
1000
0000
0100
0000
,  // measure 25
0100
0000
0010
0000
,  // measure 26
0010
0000
0001
0000
,  // measure 27
0010
0000
1000
0000
,  // measure 28
0010
0000
0010
0000
,  // measure 29
0020
0000
0100
0030
,  // measure 30
0100
0000
1000
0000
,  // measure 31
0100
0000
0001
0000
,  // measure 32
0100
0000
0100
0000
,  // measure 33
0200
0000
0010
0300
,  // measure 34
0001
0000
0100
0000
,  // measure 35
0001
0000
0010
0000
,  // measure 36
0001
0000
0001
0000
,  // measure 37
0002
0000
1000
0003
,  // measure 38
1000
0000
0010
0000
,  // measure 39
1000
0000
0100
0000
,  // measure 40
1000
0000
1000
0000
,  // measure 41
2000
0000
0001
3000
,  // measure 42
0020
0000
0000
0000
,  // measure 43
0000
0000
0000
0000
,  // measure 44
0000
0000
0000
0000
,  // measure 45
0000
0000
0000
0030
,  // measure 46
0200
0000
0000
0000
,  // measure 47
0000
0000
0000
0000
,  // measure 48
0000
0000
0000
0000
,  // measure 49
0000
0000
0000
0300
,  // measure 50
0010
0000
0010
0000
,  // measure 51
0020
0000
0100
0030
,  // measure 52
0100
0000
1000
0000
,  // measure 53
0100
0000
0001
0000
,  // measure 54
0100
0000
0100
0000
,  // measure 55
0200
0000
0010
0300
,  // measure 56
0010
0000
0010
0000
,  // measure 57
2002
0000
0000
3003
,  // measure 58
0010
0000
0010
0100
,  // measure 59
0100
0000
0100
0010
,  // measure 60
1000
0000
1000
0001
,  // measure 61
0001
0000
0001
1000
,  // measure 62
0100
0000
0100
0010
,  // measure 63
0010
0000
0010
0100
,  // measure 64
0001
0000
0001
1000
,  // measure 65
1000
0000
1000
0001
,  // measure 66
1001
0000
0010
0000
,  // measure 67
0110
0000
0000
0000
;

//---------------dance-single - Deluxe----------------
#NOTEDATA:;
#CHARTNAME:;
#STEPSTYPE:dance-single;
#DESCRIPTION:Deluxe;
#CHARTSTYLE:;
#DIFFICULTY:Edit;
#METER:4;
#RADARVALUES:0.158298,0.253098,0.075552,0.083946,0.000000,132.000000,123.000000,9.000000,10.000000,0.000000,0.000000,0.000000,0.000000,0.000000,0.158298,0.253098,0.075552,0.083946,0.000000,132.000000,123.000000,9.000000,10.000000,0.000000,0.000000,0.000000,0.000000,0.000000;
#CREDIT:;
#NOTES:
// measure 0
0000
0000
0000
0000
,  // measure 1
0000
0000
0000
0000
,  // measure 2
0000
0000
0000
0000
,  // measure 3
0000
0000
0000
0000
,  // measure 4
0000
0000
0000
0000
,  // measure 5
0000
0000
0000
0000
,  // measure 6
0110
0000
0010
0100
,  // measure 7
0100
0000
0100
0010
,  // measure 8
1001
0000
1000
0001
,  // measure 9
0001
0000
0001
1000
,  // measure 10
0010
0000
0001
0000
,  // measure 11
0010
0000
0010
0000
,  // measure 12
0010
0000
1000
0000
,  // measure 13
1000
0000
0001
0000
,  // measure 14
0100
0000
1000
0000
,  // measure 15
0100
0000
0100
0000
,  // measure 16
0100
0000
0001
0000
,  // measure 17
0001
0000
1000
0000
,  // measure 18
0001
0000
0100
0000
,  // measure 19
0001
0000
0001
0000
,  // measure 20
0001
0000
0010
0000
,  // measure 21
0010
0000
0100
0000
,  // measure 22
1000
0000
0010
0000
,  // measure 23
1000
0000
1000
0000
,  // measure 24
1000
0000
0100
0000
,  // measure 25
0100
0000
0010
0000
,  // measure 26
0010
0000
0001
0000
,  // measure 27
0010
0000
1000
0000
,  // measure 28
0010
0000
0010
0000
,  // measure 29
0020
0000
0100
0030
,  // measure 30
0100
0000
1000
0000
,  // measure 31
0100
0000
0001
0000
,  // measure 32
0100
0000
0100
0000
,  // measure 33
0200
0000
0010
0300
,  // measure 34
0001
0000
0100
0000
,  // measure 35
0001
0000
0010
0000
,  // measure 36
0001
0000
0001
0000
,  // measure 37
0002
0000
1000
0003
,  // measure 38
1000
0000
0010
0000
,  // measure 39
1000
0000
0100
0000
,  // measure 40
1000
0000
1000
0000
,  // measure 41
2000
0000
0001
3000
,  // measure 42
0020
0000
0000
0000
,  // measure 43
0000
0000
0000
0000
,  // measure 44
0100
0000
0000
0000
,  // measure 45
0000
0000
0000
0030
,  // measure 46
0200
0000
0000
0000
,  // measure 47
0000
0000
0000
0000
,  // measure 48
0010
0000
0000
0000
,  // measure 49
0000
0000
0000
0300
,  // measure 50
0010
0000
0010
0000
,  // measure 51
0020
0000
0100
0030
,  // measure 52
0100
0000
1000
0000
,  // measure 53
0100
0000
0001
0000
,  // measure 54
0100
0000
0100
0000
,  // measure 55
0200
0000
0010
0300
,  // measure 56
0010
0000
0010
0000
,  // measure 57
2002
0000
0000
3003
,  // measure 58
0110
0000
0010
0100
,  // measure 59
0100
0000
0100
0010
,  // measure 60
1001
0000
1000
0001
,  // measure 61
0001
0000
0001
1000
,  // measure 62
0110
0000
0100
0010
,  // measure 63
0010
0000
0010
0100
,  // measure 64
1001
0000
0001
1000
,  // measure 65
1000
0000
1000
0001
,  // measure 66
1001
0000
0010
0100
,  // measure 67
0110
0000
0000
0000
;

//---------------dance-single - Enjoy----------------
#NOTEDATA:;
#CHARTNAME:;
#STEPSTYPE:dance-single;
#DESCRIPTION:Enjoy;
#CHARTSTYLE:;
#DIFFICULTY:Edit;
#METER:1;
#RADARVALUES:0.021586,0.056244,0.016789,0.000000,0.000000,18.000000,16.000000,2.000000,0.000000,0.000000,0.000000,0.000000,0.000000,0.000000,0.021586,0.056244,0.016789,0.000000,0.000000,18.000000,16.000000,2.000000,0.000000,0.000000,0.000000,0.000000,0.000000,0.000000;
#CREDIT:;
#NOTES:
// measure 0
0000
0000
0000
0000
,  // measure 1
0000
0000
0000
0000
,  // measure 2
0000
0000
0000
0000
,  // measure 3
0000
0000
0000
0000
,  // measure 4
0000
0000
0000
0000
,  // measure 5
0000
0000
0000
0000
,  // measure 6
0010
0000
0000
0000
,  // measure 7
0000
0000
0000
0000
,  // measure 8
0100
0000
0000
0000
,  // measure 9
0000
0000
0000
0000
,  // measure 10
0001
0000
0000
0000
,  // measure 11
0000
0000
0000
0000
,  // measure 12
0000
0000
0000
0000
,  // measure 13
0000
0000
0000
0000
,  // measure 14
1000
0000
0000
0000
,  // measure 15
0000
0000
0000
0000
,  // measure 16
0000
0000
0000
0000
,  // measure 17
0000
0000
0000
0000
,  // measure 18
0001
0000
0000
0000
,  // measure 19
0000
0000
0000
0000
,  // measure 20
0000
0000
0000
0000
,  // measure 21
0000
0000
0000
0000
,  // measure 22
1000
0000
0000
0000
,  // measure 23
0000
0000
0000
0000
,  // measure 24
0000
0000
0000
0000
,  // measure 25
0000
0000
0000
0000
,  // measure 26
0010
0000
0000
0000
,  // measure 27
0000
0000
0000
0000
,  // measure 28
0000
0000
0000
0000
,  // measure 29
0000
0000
0000
0000
,  // measure 30
0100
0000
0000
0000
,  // measure 31
0000
0000
0000
0000
,  // measure 32
0000
0000
0000
0000
,  // measure 33
0000
0000
0000
0000
,  // measure 34
0010
0000
0000
0000
,  // measure 35
0000
0000
0000
0000
,  // measure 36
0000
0000
0000
0000
,  // measure 37
0000
0000
0000
0000
,  // measure 38
0100
0000
0000
0000
,  // measure 39
0000
0000
0000
0000
,  // measure 40
0000
0000
0000
0000
,  // measure 41
0000
0000
0000
0000
,  // measure 42
1001
0000
0000
0000
,  // measure 43
0000
0000
0000
0000
,  // measure 44
0000
0000
0000
0000
,  // measure 45
0000
0000
0000
0000
,  // measure 46
0000
0000
0000
0000
,  // measure 47
0000
0000
0000
0000
,  // measure 48
0000
0000
0000
0000
,  // measure 49
0000
0000
0000
0000
,  // measure 50
0100
0000
0000
0000
,  // measure 51
0000
0000
0000
0000
,  // measure 52
0000
0000
0000
0000
,  // measure 53
0000
0000
0000
0000
,  // measure 54
0010
0000
0000
0000
,  // measure 55
0000
0000
0000
0000
,  // measure 56
0000
0000
0000
0000
,  // measure 57
0000
0000
0000
0000
,  // measure 58
0010
0000
0000
0000
,  // measure 59
0000
0000
0000
0000
,  // measure 60
0000
0000
0000
0000
,  // measure 61
0000
0000
0000
0000
,  // measure 62
0100
0000
0000
0000
,  // measure 63
0000
0000
0000
0000
,  // measure 64
0000
0000
0000
0000
,  // measure 65
0000
0000
0000
0000
,  // measure 66
0000
0000
0000
0000
,  // measure 67
1001
0000
0000
0000
;

//---------------dance-single - Hell----------------
#NOTEDATA:;
#CHARTNAME:;
#STEPSTYPE:dance-single;
#DESCRIPTION:Hell;
#CHARTSTYLE:;
#DIFFICULTY:Edit;
#METER:16;
#RADARVALUES:0.873040,0.843659,0.537255,0.109130,0.860448,728.000000,664.000000,64.000000,13.000000,0.000000,0.000000,0.000000,0.000000,0.000000,0.873040,0.843659,0.537255,0.109130,0.860448,728.000000,664.000000,64.000000,13.000000,0.000000,0.000000,0.000000,0.000000,0.000000;
#CREDIT:;
#NOTES:
// measure 0
0000
0000
0000
0000
,  // measure 1
0000
0000
0000
0000
,  // measure 2
0000
0000
0000
0000
,  // measure 3
0000
0000
0000
0000
,  // measure 4
0000
0000
0000
0000
,  // measure 5
0000
0000
0000
0000
,  // measure 6
0010
0000
0010
0010
0001
0010
0001
0000
1000
0010
1000
0000
0100
0010
0100
0000
,  // measure 7
0001
0000
1000
1000
0100
0010
0001
0000
0001
0010
0100
0000
1000
0100
0010
0000
,  // measure 8
0100
0000
0100
0100
1000
0100
1000
0000
0001
0100
0001
0000
0010
0100
0010
0000
,  // measure 9
1000
0000
0001
0001
0010
0100
1000
0000
1000
0100
0010
0000
0001
0010
0100
0000
,  // measure 10
1010
0000
0100
0000
0010
0000
0001
0000
0010
0100
0010
0001
0010
0100
1000
0010
,  // measure 11
2100
0010
0000
0000
0001
0010
0000
0000
0100
0010
0000
0000
0010
0001
0000
3000
,  // measure 12
0101
0000
0010
0000
0100
0000
1000
0000
0100
0010
0100
1000
0100
0010
0001
0100
,  // measure 13
0010
0000
0000
0000
0000
0000
0100
0000
0000
0000
0000
0000
0010
0000
0000
0000
0000
0000
0100
0000
0000
0000
0000
0000
1000
0000
0000
0100
0000
0000
0010
0000
0000
0001
0000
0000
1000
0000
0100
0000
0010
0000
0001
0000
0010
0000
0100
0000
,  // measure 14
1010
0000
0100
0000
0010
0000
0001
0000
0010
0100
0010
0001
0010
0100
1000
0010
,  // measure 15
2100
0010
0000
0000
0001
0010
0000
0000
0100
0010
0000
0000
0010
0001
0000
3000
,  // measure 16
0101
0000
0010
0000
0100
0000
1000
0000
0100
0010
0100
1000
0100
0010
0001
0100
,  // measure 17
0010
0000
0000
0000
0000
0000
0100
0000
0000
0000
0000
0000
0010
0000
0000
0000
0000
0000
0100
0000
0000
0000
0000
0000
1000
0000
0000
0100
0000
0000
0010
0000
0000
0001
0000
0000
1000
0000
0100
0000
0010
0000
0001
0000
0010
0000
0100
0000
,  // measure 18
0011
0000
1000
0000
0001
0000
0100
0000
0001
1000
0001
0100
0001
1000
0010
0001
,  // measure 19
1020
0001
0000
0000
0100
0001
0000
0000
1000
0001
0000
0000
0001
0100
0000
0030
,  // measure 20
1100
0000
0001
0000
1000
0000
0010
0000
1000
0001
1000
0010
1000
0001
0100
1000
,  // measure 21
0001
0000
0000
0000
0000
0000
1000
0000
0000
0000
0000
0000
0001
0000
0000
0000
0000
0000
1000
0000
0000
0000
0000
0000
0010
0000
0000
1000
0000
0000
0001
0000
0000
0100
0000
0000
0010
0000
1000
0000
0001
0000
0100
0000
0001
0000
1000
0000
,  // measure 22
0011
0000
1000
0000
0001
0000
0100
0000
0001
1000
0001
0100
0001
1000
0010
0001
,  // measure 23
1020
0001
0000
0000
0100
0001
0000
0000
1000
0001
0000
0000
0001
0100
0000
0030
,  // measure 24
1100
0000
0001
0000
1000
0000
0010
0000
1000
0001
1000
0010
1000
0001
0100
1000
,  // measure 25
0001
0000
0000
0000
0000
0000
1000
0000
0000
0000
0000
0000
0001
0000
0000
0000
0000
0000
1000
0000
0000
0000
0000
0000
0010
0000
0000
1000
0000
0000
0001
0000
0000
0100
0000
0000
0010
0000
1000
0000
0001
0000
0100
0000
0001
0000
1000
0000
,  // measure 26
0100
0010
0100
0010
0100
0000
1010
0000
0100
0001
0100
0001
0100
0000
0101
0000
,  // measure 27
0100
0000
0100
0000
0010
0001
0010
0000
0100
1000
0100
0000
0100
0010
0100
0000
,  // measure 28
0100
0010
0100
0010
0100
0000
1010
0000
0100
0001
0100
0001
0100
0000
0101
0000
,  // measure 29
1010
0010
0101
0100
0110
0100
1001
0010
,  // measure 30
0010
0100
0010
0100
0010
0000
0101
0000
0010
1000
0010
1000
0010
0000
1010
0000
,  // measure 31
0010
0000
0010
0000
0100
1000
0100
0000
0010
0001
0010
0000
0010
0100
0010
0000
,  // measure 32
0010
0100
0010
0100
0010
0000
0101
0000
0010
1000
0010
1000
0010
0000
1010
0000
,  // measure 33
0101
0000
0100
0000
1010
0000
0010
0000
0100
0001
0100
0001
0010
1000
0010
1000
,  // measure 34
0100
0010
0100
0010
0100
0000
1010
0000
0100
0001
0100
0001
0100
0000
0101
0000
,  // measure 35
0100
0000
0100
0000
0010
0001
0010
0000
0100
1000
0100
0000
0100
0010
0100
0000
,  // measure 36
0100
0010
0100
0010
0100
0000
1010
0000
0100
0001
0100
0001
0100
0000
0101
0000
,  // measure 37
1010
0010
0101
0100
0110
0100
1001
0010
,  // measure 38
0010
0100
0010
0100
0010
0000
0101
0000
0010
1000
0010
1000
0010
0000
1010
0000
,  // measure 39
0010
0000
0010
0000
0100
1000
0100
0000
0010
0001
0010
0000
0010
0100
0010
0000
,  // measure 40
0010
0100
0010
0100
0010
0000
0101
0000
0010
1000
0010
1000
0010
0000
1010
0000
,  // measure 41
0101
0000
0100
0000
1010
0000
0010
0000
0100
1000
0010
0001
2002
0000
0000
3003
,  // measure 42
0120
0100
0100
0000
0001
0001
0001
0000
,  // measure 43
1000
0000
0000
1030
0000
0000
0001
0010
0000
1000
0000
0000
0201
0000
0000
0000
0000
0000
0001
0000
0000
0001
0000
0000
,  // measure 44
0010
0010
0010
0000
1000
1000
1000
0000
,  // measure 45
0001
0000
0000
0000
0000
0000
0301
0000
0000
0000
0010
0000
1000
0000
0100
0000
0000
0000
0001
0000
0000
0000
0000
0000
1020
0000
0000
0000
0000
0000
1000
0000
0000
0000
0000
0000
1000
0000
0000
0000
0000
0000
1000
0000
0000
0030
0000
0000
,  // measure 46
1002
1000
1000
0000
0100
0100
0100
0000
,  // measure 47
0020
0000
0000
0000
0000
0000
0000
0033
2100
0000
0100
0000
0100
0000
0100
0000
,  // measure 48
0001
0001
0001
0000
0010
0010
0010
0000
,  // measure 49
0100
0000
3100
0000
0011
0000
1100
0000
0012
0000
0010
0000
0010
0000
0000
0003
,  // measure 50
0100
0010
0100
0010
0100
0000
1010
0000
0100
0001
0100
0001
0100
0000
0101
0000
,  // measure 51
0100
0000
0100
0000
0010
0001
0010
0000
0100
1000
0100
0000
0100
0010
0100
0000
,  // measure 52
0100
0010
0100
0010
0100
0000
1010
0000
0100
0001
0100
0001
0100
0000
0101
0000
,  // measure 53
1010
0010
0101
0100
0110
0100
1001
0010
,  // measure 54
0010
0100
0010
0100
0010
0000
0101
0000
0010
1000
0010
1000
0010
0000
1010
0000
,  // measure 55
0010
0000
0010
0000
0100
1000
0100
0000
0010
0001
0010
0000
0010
0100
0010
0000
,  // measure 56
0010
0100
0010
0100
0010
0000
0101
0000
0010
1000
0010
1000
0010
0000
1010
0000
,  // measure 57
0101
0000
0100
0000
1010
0000
0010
0000
0100
0001
0100
0001
0010
1000
0010
1000
,  // measure 58
0010
0000
0010
0010
0001
0010
0001
0000
1000
0010
1000
0000
0100
0010
0100
0000
,  // measure 59
0001
0000
1000
1000
0100
0010
0001
0000
0001
0010
0100
0000
1000
0100
0010
0000
,  // measure 60
0100
0000
0100
0100
1000
0100
1000
0000
0001
0100
0001
0000
0010
0100
0010
0000
,  // measure 61
1000
0000
0001
0001
0010
0100
1000
0000
1000
0100
0010
0000
0001
0010
0100
0000
,  // measure 62
0001
0000
0001
0001
0100
0001
0100
0000
0010
0001
0010
0000
1000
0001
1000
0000
,  // measure 63
0100
0000
0010
0010
1000
0001
0100
0000
0100
0001
1000
0000
0010
1000
0001
0000
,  // measure 64
1000
0000
1000
1000
0010
1000
0010
0000
0100
1000
0100
0000
0001
1000
0001
0000
,  // measure 65
0010
0000
0100
0100
0001
1000
0010
0000
0010
1000
0001
0000
0100
0001
1000
0000
,  // measure 66
0010
0010
0010
0000
0100
0100
0100
0000
1000
0100
0010
0001
1000
0100
0010
0001
,  // measure 67
1001
0000
0000
0000
;

//---------------dance-single - Casual----------------
#NOTEDATA:;
#CHARTNAME:;
#STEPSTYPE:dance-single;
#DESCRIPTION:Casual;
#CHARTSTYLE:;
#DIFFICULTY:Edit;
#METER:2;
#RADARVALUES:0.076751,0.112488,0.008395,0.083946,0.000000,64.000000,63.000000,1.000000,10.000000,0.000000,0.000000,0.000000,0.000000,0.000000,0.076751,0.112488,0.008395,0.083946,0.000000,64.000000,63.000000,1.000000,10.000000,0.000000,0.000000,0.000000,0.000000,0.000000;
#CREDIT:;
#NOTES:
// measure 0
0000
0000
0000
0000
,  // measure 1
0000
0000
0000
0000
,  // measure 2
0000
0000
0000
0000
,  // measure 3
0000
0000
0000
0000
,  // measure 4
0000
0000
0000
0000
,  // measure 5
0000
0000
0000
0000
,  // measure 6
0010
0000
0000
0000
,  // measure 7
0100
0000
0100
0000
,  // measure 8
1000
0000
0000
0000
,  // measure 9
0001
0000
0001
0000
,  // measure 10
0010
0000
0000
0000
,  // measure 11
0000
0000
0000
0000
,  // measure 12
0010
0000
0000
0000
,  // measure 13
1000
0000
0000
0000
,  // measure 14
0100
0000
0000
0000
,  // measure 15
0000
0000
0000
0000
,  // measure 16
0100
0000
0000
0000
,  // measure 17
0001
0000
0000
0000
,  // measure 18
0001
0000
0000
0000
,  // measure 19
0000
0000
0000
0000
,  // measure 20
0001
0000
0000
0000
,  // measure 21
0010
0000
0000
0000
,  // measure 22
1000
0000
0000
0000
,  // measure 23
0000
0000
0000
0000
,  // measure 24
1000
0000
0000
0000
,  // measure 25
0100
0000
0000
0000
,  // measure 26
0001
0000
0000
0000
,  // measure 27
0010
0000
1000
0000
,  // measure 28
0010
0000
0000
0000
,  // measure 29
0020
0000
0000
0030
,  // measure 30
1000
0000
0000
0000
,  // measure 31
0100
0000
0001
0000
,  // measure 32
0100
0000
0000
0000
,  // measure 33
0200
0000
0000
0300
,  // measure 34
0100
0000
0000
0000
,  // measure 35
0001
0000
0010
0000
,  // measure 36
0001
0000
0000
0000
,  // measure 37
0002
0000
0000
0003
,  // measure 38
0010
0000
0000
0000
,  // measure 39
1000
0000
0100
0000
,  // measure 40
1000
0000
0000
0000
,  // measure 41
2000
0000
0000
3000
,  // measure 42
0020
0000
0000
0000
,  // measure 43
0000
0000
0000
0000
,  // measure 44
0000
0000
0000
0000
,  // measure 45
0000
0000
0000
0030
,  // measure 46
0200
0000
0000
0000
,  // measure 47
0000
0000
0000
0000
,  // measure 48
0000
0000
0000
0000
,  // measure 49
0000
0000
0000
0300
,  // measure 50
0010
0000
0000
0000
,  // measure 51
0020
0000
0000
0030
,  // measure 52
1000
0000
0000
0000
,  // measure 53
0100
0000
0001
0000
,  // measure 54
0100
0000
0000
0000
,  // measure 55
0200
0000
0000
0300
,  // measure 56
0010
0000
0000
0000
,  // measure 57
2002
0000
0000
3003
,  // measure 58
0010
0000
0000
0000
,  // measure 59
0100
0000
0100
0000
,  // measure 60
1000
0000
0000
0000
,  // measure 61
0001
0000
0001
0000
,  // measure 62
0100
0000
0000
0000
,  // measure 63
0010
0000
0010
0000
,  // measure 64
0001
0000
0000
0000
,  // measure 65
1000
0000
1000
0000
,  // measure 66
0100
0000
0000
0000
,  // measure 67
0010
0000
0000
0000
;
