#VERSION:0.83;
#TITLE:∦;
#SUBTITLE:;
#ARTIST:one fourteen;
#TITLETRANSLIT:Breakthrough;
#SUBTITLETRANSLIT:;
#ARTISTTRANSLIT:LUZE;
#GENRE:;
#ORIGIN:;
#CREDIT:;
#BANNER:;
#BACKGROUND:;
#PREVIEWVID:;
#JACKET:;
#CDIMAGE:;
#DISCIMAGE:;
#LYRICSPATH:;
#CDTITLE:;
#MUSIC:breakthrough.ogg;
#OFFSET:-0.338000;
#SAMPLESTART:82.898003;
#SAMPLELENGTH:15.000000;
#SELECTABLE:YES;
#DISPLAYBPM:*;
#BPMS:0.000=500.000,
448.000=250.000,
480.000=1000.000,
544.000=125.000,
580.000=500.000,
700.000=250.000,
704.000=1000.000,
832.000=500.000;
#STOPS:;
#DELAYS:;
#WARPS:;
#TIMESIGNATURES:0.000=4=4;
#TICKCOUNTS:0.000=4;
#COMBOS:0.000=1;
#SPEEDS:0.000=1.000=0.000=0;
#SCROLLS:0.000=1.000;
#FAKES:;
#LABELS:0.000=Song Start;
#BGCHANGES:;
#KEYSOUNDS:;
#ATTACKS:
;

//---------------dance-single - ----------------
#NOTEDATA:;
#CHARTNAME:;
#STEPSTYPE:dance-single;
#DESCRIPTION:;
#CHARTSTYLE:;
#DIFFICULTY:Easy;
#METER:31;
#RADARVALUES:1.826975,4.059807,1.596457,0.394823,0.467779,1490.000000,1304.000000,186.000000,46.000000,0.000000,0.000000,0.000000,0.000000,0.000000,1.826975,4.059807,1.596457,0.394823,0.467779,1490.000000,1304.000000,186.000000,46.000000,0.000000,0.000000,0.000000,0.000000,0.000000;
#CREDIT:;
#DISPLAYBPM:*;
#NOTES:
// measure 0
0000
0000
0000
0000
,  // measure 1
0000
0000
0000
0000
,  // measure 2
0000
0000
0000
0000
,  // measure 3
0000
0000
0000
0000
,  // measure 4
0000
0000
0000
0000
,  // measure 5
0000
0000
0000
0000
,  // measure 6
0000
0000
0000
0000
,  // measure 7
0000
0000
0000
0000
,  // measure 8
1000
0100
0001
0100
1000
0010
0100
0010
,  // measure 9
1100
0100
0101
0100
,  // measure 10
0001
0010
1000
0010
0001
0100
0010
0100
,  // measure 11
0011
0010
1010
0010
,  // measure 12
1001
1000
0001
1000
0101
0001
0100
0001
,  // measure 13
1001
0001
1000
0001
1010
1000
0010
1000
,  // measure 14
0001
0000
1000
0000
0001
0000
1000
0000
0001
1000
0001
1000
0001
1000
0001
1000
,  // measure 15
0110
1010
0110
0101
,  // measure 16
1000
1000
0010
0100
0001
0010
0100
0010
,  // measure 17
0100
0001
0010
0010
0001
0010
1000
1000
,  // measure 18
0010
0100
0010
0100
1000
1000
0001
0001
,  // measure 19
1000
0100
0010
0001
1000
0100
0001
0010
,  // measure 20
0001
0001
0100
0010
1000
0100
0010
0100
,  // measure 21
0010
1000
0100
0100
1000
0100
0001
0001
,  // measure 22
0100
0010
0100
0010
0001
0001
1000
1000
,  // measure 23
0001
0010
0100
1000
0001
0010
1000
0100
,  // measure 24
0010
0010
0001
1000
0100
0001
1000
0001
,  // measure 25
1000
0100
0001
0001
0100
0001
0010
0010
,  // measure 26
0001
1000
0001
1000
0010
0010
0100
0100
,  // measure 27
0010
1000
0001
0100
0010
1000
0100
0001
,  // measure 28
0100
0100
1000
0001
0010
1000
0001
1000
,  // measure 29
0001
0010
1000
1000
0010
1000
0100
0100
,  // measure 30
1010
1000
0000
0101
0100
0000
1001
0001
,  // measure 31
0100
0001
1000
0010
0100
0001
0010
1000
,  // measure 32
0010
0100
0010
0100
0010
0000
1000
0001
,  // measure 33
1000
0001
0100
0000
0001
0010
0100
0010
,  // measure 34
1000
0000
1000
0100
1000
0001
1000
0000
,  // measure 35
0100
0010
1000
0001
0100
0000
0100
0010
,  // measure 36
0100
0010
0100
0000
0001
1000
0001
1000
,  // measure 37
0010
0000
1000
0100
0010
0100
0001
0000
,  // measure 38
0001
0010
0001
1000
0001
0000
0010
0100
,  // measure 39
0001
1000
0010
0100
0010
0100
0010
0100
,  // measure 40
1000
1000
0010
0100
0001
0010
0100
0010
,  // measure 41
0001
0001
0100
0010
1000
0100
0010
0100
,  // measure 42
1000
0100
1000
0001
1000
0100
0001
0010
0001
1000
0001
0010
,  // measure 43
0100
0001
0100
0010
0100
0001
0010
1000
0010
0100
0010
1000
,  // measure 44
0210
0010
0010
0010
,  // measure 45
0010
0010
0010
0010
,  // measure 46
0010
0010
0010
0010
,  // measure 47
0010
0010
0010
0310
,  // measure 48
0120
0001
0100
0000
0000
0000
0000
0100
,  // measure 49
1000
0100
0000
0000
0000
0000
0001
0100
,  // measure 50
0001
0000
0000
0000
0000
1000
0130
0001
,  // measure 51
0100
0001
0100
1000
0100
0001
0100
0010
,  // measure 52
0210
1000
0010
0000
0000
0000
0000
0010
,  // measure 53
0001
0010
0000
0000
0000
0000
1000
0010
,  // measure 54
1000
0000
0000
0000
0000
0001
0310
1000
,  // measure 55
0010
1000
0010
0001
0010
1000
0010
0100
,  // measure 56
1002
0100
1000
0000
0000
0000
0000
1000
,  // measure 57
0010
1000
0000
0000
0000
0000
0100
1000
,  // measure 58
0100
0000
0000
0000
0000
0010
1003
0100
,  // measure 59
1000
0100
1000
0010
1000
0100
1000
0001
,  // measure 60
2001
0010
0001
0000
0000
0000
0000
0001
,  // measure 61
0100
0001
0000
0000
0000
0000
0010
0001
,  // measure 62
0010
0000
0000
0000
0000
0100
3001
0010
,  // measure 63
0001
0010
0001
0100
0001
0010
0001
1000
,  // measure 64
0120
0001
0100
0000
0000
0000
0000
0100
,  // measure 65
1000
0100
0000
0000
0000
0000
0001
0100
,  // measure 66
0001
0000
0000
0000
0000
1000
0130
0001
,  // measure 67
0100
0001
0100
1000
0100
0001
0100
0010
,  // measure 68
0210
1000
0010
0000
0000
0000
0000
0010
,  // measure 69
0001
0010
0000
0000
0000
0000
1000
0010
,  // measure 70
1000
0000
0000
0000
0000
0001
0310
1000
,  // measure 71
0010
1000
0010
0001
0010
1000
0010
0100
,  // measure 72
1002
0100
1000
0000
0000
0000
0000
1000
,  // measure 73
0010
1000
0000
0000
0000
0000
0100
1000
,  // measure 74
0100
0000
0000
0000
0000
0010
1003
0100
,  // measure 75
1000
0100
1000
0010
1000
0100
1000
0001
,  // measure 76
2001
0010
0001
0000
0000
0000
0000
0001
,  // measure 77
0100
0001
0000
0000
0000
0000
0010
0001
,  // measure 78
0010
0000
0000
0000
0000
0100
0001
0010
,  // measure 79
0001
0000
0100
0010
0002
0000
0000
3003
,  // measure 80
0110
0010
1100
0010
,  // measure 81
0011
0110
1100
0101
,  // measure 82
1010
0010
0011
0110
,  // measure 83
1001
0010
0101
0010
,  // measure 84
0011
0010
0101
0010
,  // measure 85
1001
0100
0100
0100
,  // measure 86
1001
0110
0011
1001
,  // measure 87
0110
0000
0000
1001
0000
0000
0110
0000
,  // measure 88
2100
0100
0010
0001
,  // measure 89
0010
0001
0010
0100
,  // measure 90
0100
0100
0001
3010
,  // measure 91
1000
0100
0001
0100
0001
0010
1000
0010
,  // measure 92
0201
0010
1000
0010
,  // measure 93
0001
0010
1000
1300
,  // measure 94
0010
0010
1000
0010
1000
0001
0001
0100
,  // measure 95
0001
0100
1000
0100
0001
0010
0010
0010
,  // measure 96
0110
0100
0011
0100
,  // measure 97
1100
0110
0011
1010
,  // measure 98
0101
0100
1100
0110
,  // measure 99
1001
0100
1010
0100
,  // measure 100
1100
0100
1010
0100
,  // measure 101
1001
0010
0010
0010
,  // measure 102
1001
0110
1100
1001
,  // measure 103
0110
0000
0000
1001
0000
0000
0110
0000
,  // measure 104
0012
0010
0100
1000
,  // measure 105
0100
1000
0100
0010
,  // measure 106
0010
0010
1000
0103
,  // measure 107
0001
0010
1000
0010
1000
0100
0001
0100
,  // measure 108
1020
0100
0001
0100
,  // measure 109
1000
0100
0001
0031
,  // measure 110
0100
0100
0001
0100
0001
1000
1000
0010
,  // measure 111
1000
0010
0001
0010
1000
0100
0100
0100
,  // measure 112
1010
0010
0000
0110
0010
0000
0101
0100
,  // measure 113
1100
0010
0110
0001
0011
0100
0110
0010
,  // measure 114
0101
0100
0000
0110
0100
0000
1010
0010
,  // measure 115
0011
0100
0110
1000
1100
0010
0110
0100
,  // measure 116
0011
0001
0000
1001
0001
0000
1100
1000
,  // measure 117
1010
0001
1001
0100
0101
1000
1001
0001
,  // measure 118
1100
1000
0000
1001
1000
0000
0011
0001
,  // measure 119
0101
1000
1001
0010
1010
0001
1001
1000
,  // measure 120
0001
1000
0001
1000
,  // measure 121
0001
1000
0001
1000
,  // measure 122
0001
1000
0001
1000
,  // measure 123
0001
1000
0001
1000
,  // measure 124
0001
1000
0001
1000
,  // measure 125
0001
1000
0001
1000
,  // measure 126
0001
1000
0001
1000
,  // measure 127
0001
1000
0001
1000
,  // measure 128
0001
1000
0001
1000
,  // measure 129
0001
1000
0001
1000
,  // measure 130
0001
1000
0001
1000
,  // measure 131
0001
1000
0001
1000
,  // measure 132
0001
1000
0001
1000
,  // measure 133
0001
1000
0001
1000
,  // measure 134
0001
1000
0001
1000
0001
1000
0001
1000
,  // measure 135
0001
1000
0001
1000
0001
1000
0001
1000
,  // measure 136
0200
0320
2030
3002
,  // measure 137
0023
0230
2300
3200
,  // measure 138
0302
2003
3200
0302
,  // measure 139
0013
0000
1000
0000
0010
0000
0001
0000
0100
0000
0001
0000
0100
0000
1000
0000
0010
0000
0100
0000
0010
0000
0100
0000
0010
0100
0010
0100
0010
0100
0010
0100
,  // measure 140
2000
3002
0023
0230
,  // measure 141
0302
2003
3020
2030
,  // measure 142
3200
0320
2030
3200
,  // measure 143
0301
0000
0010
0000
0001
0000
0100
0000
1000
0000
0100
0000
1000
0000
0010
0000
0001
0000
1000
0000
0001
0000
1000
0000
0001
1000
0001
1000
0001
1000
0001
1000
,  // measure 144
2002
0000
0000
0000
0000
0000
0000
0000
0000
0000
0000
0000
0000
0000
0000
0000
0000
0000
0000
0000
0000
0000
0000
0000
3003
0000
0000
0000
0000
0000
0000
0000
1000
0000
0001
0000
1000
0000
0001
0000
1000
0000
0001
0000
1000
0000
0001
0000
1000
0000
0001
0000
1000
0000
0001
0000
1000
0001
1000
0001
1000
0001
1000
0001
,  // measure 145
0010
0000
1000
0000
0010
0000
1000
0000
0010
0000
1000
0000
0010
1000
0010
0000
,  // measure 146
0100
0000
0001
0000
0010
0000
0001
0000
1000
0000
0100
0000
0010
0001
0010
0000
,  // measure 147
1100
0010
0001
0010
0101
0010
1000
0100
,  // measure 148
0011
0000
0100
0000
0010
0000
0100
0000
1010
0000
0100
0000
0010
0100
0010
0000
,  // measure 149
0100
0000
0001
0000
0100
0000
0001
0000
0100
0000
0001
0000
0100
0001
0100
0000
,  // measure 150
0010
0000
1000
0000
0100
0000
1000
0000
0001
0000
0010
0000
0100
1000
0100
0000
,  // measure 151
0011
0100
1000
0100
1010
0100
0001
0010
,  // measure 152
1100
0000
0010
0000
0100
0000
0010
0000
0101
0000
0010
0000
0100
0010
0100
0000
,  // measure 153
0001
0000
0010
0000
0001
0000
0010
0000
0001
0000
0010
0000
0001
0010
0001
0000
,  // measure 154
1000
0000
0100
0000
0001
0000
0100
0000
0010
0000
1000
0000
0001
0100
0001
0000
,  // measure 155
1010
0001
0100
0001
1100
0001
0010
1000
,  // measure 156
0101
0000
1000
0000
0001
0000
1000
0000
0011
0000
1000
0000
0001
1000
0001
0000
,  // measure 157
1000
0000
0100
0000
1000
0000
0100
0000
1000
0000
0100
0000
1000
0100
1000
0000
,  // measure 158
0001
0000
0010
0000
1000
0000
0010
0000
0100
0000
0001
0000
1000
0010
1000
0000
,  // measure 159
0101
1000
0010
1000
0011
1000
0100
0001
,  // measure 160
1010
0000
0001
0000
1000
0000
0001
0000
1100
0000
0001
0000
1000
0001
1000
0000
,  // measure 161
0010
0000
1000
0000
0010
0000
1000
0000
0010
0000
1000
0000
0010
1000
0010
0000
,  // measure 162
0100
0000
0001
0000
0010
0000
0001
0000
1000
0000
0100
0000
0010
0001
0010
0000
,  // measure 163
1100
0010
0001
0010
0101
0010
1000
0100
,  // measure 164
0011
0000
0100
0000
0010
0000
0100
0000
1010
0000
0100
0000
0010
0100
0010
0000
,  // measure 165
0100
0000
0001
0000
0100
0000
0001
0000
0100
0000
0001
0000
0100
0001
0100
0000
,  // measure 166
0010
0000
1000
0000
0100
0000
1000
0000
0001
0000
0010
0000
0100
1000
0100
0000
,  // measure 167
0011
0100
1000
0100
1010
0100
0001
0010
,  // measure 168
1100
0000
0010
0000
0100
0000
0010
0000
0101
0000
0010
0000
0100
0010
0100
0000
,  // measure 169
0001
0000
0010
0000
0001
0000
0010
0000
0001
0000
0010
0000
0001
0010
0001
0000
,  // measure 170
1000
0000
0100
0000
0001
0000
0100
0000
0010
0000
1000
0000
0001
0100
0001
0000
,  // measure 171
1010
0001
0100
0001
1100
0001
0010
1000
,  // measure 172
0101
0000
1000
0000
0001
0000
1000
0000
0011
0000
1000
0000
0001
1000
0001
0000
,  // measure 173
0010
0001
0100
1000
0010
0001
0100
1000
,  // measure 174
0010
0000
0001
0000
0100
0000
1000
0000
0010
0001
0100
1000
0010
0001
0100
1000
,  // measure 175
0220
0000
0000
0330
2002
0000
0000
3003
,  // measure 176
0110
0001
0110
0001
,  // measure 177
1100
0010
1100
0010
,  // measure 178
0101
0010
0101
0010
,  // measure 179
1000
0010
1000
0010
1000
0010
1000
0010
,  // measure 180
0110
1000
0110
1000
,  // measure 181
0011
0100
0011
0100
,  // measure 182
1010
0100
1010
0100
,  // measure 183
0001
0100
0001
0100
0001
0100
0001
0100
,  // measure 184
1001
0100
1001
0100
,  // measure 185
1010
0001
1010
0001
,  // measure 186
1100
0001
1100
0001
,  // measure 187
0010
0001
0010
0001
0010
0001
0010
0001
,  // measure 188
1001
0010
1001
0010
,  // measure 189
0101
1000
0101
1000
,  // measure 190
0011
1000
0011
1000
,  // measure 191
0100
1000
0100
1000
0100
1000
0100
1000
,  // measure 192
0110
0001
0110
0001
,  // measure 193
1100
0010
1100
0010
,  // measure 194
0101
0010
0101
0010
,  // measure 195
1000
0010
1000
0010
1000
0010
1000
0010
,  // measure 196
0110
1000
0110
1000
,  // measure 197
0011
0100
0011
0100
,  // measure 198
1010
0100
1010
0100
,  // measure 199
0001
0100
0001
0100
0001
0100
0001
0100
,  // measure 200
1001
0100
1001
0100
,  // measure 201
1010
0001
1010
0001
,  // measure 202
1100
0001
1100
0001
,  // measure 203
0010
0001
0010
0001
0010
0001
0010
0001
,  // measure 204
1001
0010
1001
0010
,  // measure 205
0101
1000
0101
1000
,  // measure 206
0011
1000
0011
1000
,  // measure 207
0100
1000
0100
1000
0100
1000
0100
1000
,  // measure 208
0010
0000
0100
0000
0010
0000
0100
0000
0010
0000
0100
0000
,  // measure 209
0010
0000
0100
0000
0010
0000
0100
0000
0010
0000
0100
0000
,  // measure 210
0010
0000
0100
0000
0010
0000
0100
0000
0010
0000
0100
0000
,  // measure 211
0010
0000
0100
0000
0010
0000
0100
0000
0010
0000
0100
0000
,  // measure 212
1100
0010
0101
0010
1100
0010
0101
0010
,  // measure 213
0011
0100
1010
0100
0011
0100
1010
0100
,  // measure 214
1000
0001
1000
0001
1000
0001
1000
0001
,  // measure 215
1000
0001
1000
0001
1000
0001
1000
0001
1000
0001
1000
0001
1000
0001
1000
0001
,  // measure 216
2002
0000
0000
0000
,  // measure 217
0000
0000
0000
0000
,  // measure 218
0000
0000
0000
0000
,  // measure 219
0000
0000
0000
0000
,  // measure 220
3003
0000
0000
0000
;

//---------------dance-single - ----------------
#NOTEDATA:;
#CHARTNAME:;
#STEPSTYPE:dance-single;
#DESCRIPTION:;
#CHARTSTYLE:;
#DIFFICULTY:Beginner;
#METER:29;
#RADARVALUES:1.744822,3.870979,1.424795,0.394823,0.566485,1423.000000,1257.000000,166.000000,46.000000,0.000000,0.000000,0.000000,0.000000,0.000000,1.744822,3.870979,1.424795,0.394823,0.566485,1423.000000,1257.000000,166.000000,46.000000,0.000000,0.000000,0.000000,0.000000,0.000000;
#CREDIT:;
#DISPLAYBPM:*;
#NOTES:
// measure 0
0000
0000
0000
0000
,  // measure 1
0000
0000
0000
0000
,  // measure 2
0000
0000
0000
0000
,  // measure 3
0000
0000
0000
0000
,  // measure 4
0000
0000
0000
0000
,  // measure 5
0000
0000
0000
0000
,  // measure 6
0000
0000
0000
0000
,  // measure 7
0000
0000
0000
0000
,  // measure 8
1000
0100
0001
0100
1000
0010
0100
0000
,  // measure 9
1100
0100
0101
0100
,  // measure 10
0001
0010
1000
0010
0001
0100
0010
0000
,  // measure 11
0011
0010
1010
0010
,  // measure 12
1001
1000
0001
1000
0101
0001
0100
0001
,  // measure 13
1001
0001
1000
0001
1010
1000
0010
1000
,  // measure 14
0001
0000
1000
0000
0001
0000
1000
0000
0001
1000
0001
1000
0001
1000
0001
1000
,  // measure 15
0110
1010
0110
0101
,  // measure 16
1000
1000
0010
0100
0001
0000
0100
0010
,  // measure 17
0100
0001
0010
0010
0001
0010
1000
1000
,  // measure 18
0010
0100
0010
0100
1000
1000
0001
0001
,  // measure 19
1000
0100
0010
0001
1000
0100
0001
0010
,  // measure 20
0001
0001
0100
0010
1000
0000
0010
0100
,  // measure 21
0010
1000
0100
0100
1000
0100
0001
0001
,  // measure 22
0100
0010
0100
0010
0001
0001
1000
1000
,  // measure 23
0001
0010
0100
1000
0001
0010
1000
0100
,  // measure 24
0010
0010
0001
1000
0100
0000
1000
0001
,  // measure 25
1000
0100
0001
0001
0100
0001
0010
0010
,  // measure 26
0001
1000
0001
1000
0010
0010
0100
0100
,  // measure 27
0010
1000
0001
0100
0010
1000
0100
0001
,  // measure 28
0100
0100
1000
0001
0010
0000
0001
1000
,  // measure 29
0001
0010
1000
1000
0010
1000
0100
0100
,  // measure 30
1010
1000
0000
0101
0100
0000
1001
0001
,  // measure 31
0100
0001
1000
0010
0100
0001
0010
1000
,  // measure 32
0010
0100
0010
0100
0010
0000
1000
0001
,  // measure 33
1000
0001
1000
0000
0001
0010
0100
0010
,  // measure 34
1000
0000
1000
0100
1000
0001
1000
0000
,  // measure 35
0100
0010
1000
0001
0100
0000
0100
0010
,  // measure 36
0100
0010
0100
0000
0001
1000
0001
1000
,  // measure 37
0001
0000
1000
0100
0010
0100
0001
0000
,  // measure 38
0001
0010
0001
0010
0001
0000
0010
0100
,  // measure 39
0001
1000
0010
0100
0010
0100
0010
0100
,  // measure 40
1000
1000
0010
0100
0001
0000
0100
0010
,  // measure 41
0001
0001
0100
0010
1000
0000
0010
0100
,  // measure 42
1000
0100
1000
0001
1000
0100
0001
0010
0001
1000
0001
0010
,  // measure 43
0100
0001
0100
0010
0100
0001
0010
1000
0010
0100
0010
1000
,  // measure 44
0210
0010
0010
0010
,  // measure 45
0010
0010
0010
0010
,  // measure 46
0010
0010
0010
0010
,  // measure 47
0010
0010
0010
0310
,  // measure 48
0120
0001
0100
0000
0000
0000
0000
0100
,  // measure 49
1000
0100
0000
0000
0000
0000
0001
0100
,  // measure 50
0001
0000
0000
0000
0000
1000
0130
0001
,  // measure 51
0100
0000
0100
1000
0100
0001
0100
0010
,  // measure 52
0210
1000
0010
0000
0000
0000
0000
0010
,  // measure 53
0001
0010
0000
0000
0000
0000
1000
0010
,  // measure 54
1000
0000
0000
0000
0000
0001
0310
1000
,  // measure 55
0010
0000
0010
0001
0010
1000
0010
0100
,  // measure 56
1002
0100
1000
0000
0000
0000
0000
1000
,  // measure 57
0010
1000
0000
0000
0000
0000
0100
1000
,  // measure 58
0100
0000
0000
0000
0000
0010
1003
0100
,  // measure 59
1000
0000
1000
0010
1000
0100
1000
0001
,  // measure 60
2001
0010
0001
0000
0000
0000
0000
0001
,  // measure 61
0100
0001
0000
0000
0000
0000
0010
0001
,  // measure 62
0010
0000
0000
0000
0000
0100
3001
0010
,  // measure 63
0001
0000
0001
0100
0001
0010
0001
1000
,  // measure 64
0120
0001
0100
0000
0000
0000
0000
0100
,  // measure 65
1000
0100
0000
0000
0000
0000
0001
0100
,  // measure 66
0001
0000
0000
0000
0000
1000
0130
0001
,  // measure 67
0100
0000
0100
1000
0100
0001
0100
0010
,  // measure 68
0210
1000
0010
0000
0000
0000
0000
0010
,  // measure 69
0001
0010
0000
0000
0000
0000
1000
0010
,  // measure 70
1000
0000
0000
0000
0000
0001
0310
1000
,  // measure 71
0010
0000
0010
0001
0010
1000
0010
0100
,  // measure 72
1002
0100
1000
0000
0000
0000
0000
1000
,  // measure 73
0010
1000
0000
0000
0000
0000
0100
1000
,  // measure 74
0100
0000
0000
0000
0000
0010
1003
0100
,  // measure 75
1000
0000
1000
0010
1000
0100
1000
0001
,  // measure 76
2001
0010
0001
0000
0000
0000
0000
0001
,  // measure 77
0100
0001
0000
0000
0000
0000
0010
0001
,  // measure 78
0010
0000
0000
0000
0000
0100
0001
0010
,  // measure 79
0001
0000
0100
0000
0002
0000
0000
3003
,  // measure 80
0110
0010
1100
0010
,  // measure 81
0011
0110
1100
0101
,  // measure 82
1010
0010
0011
0110
,  // measure 83
1001
0010
0101
0010
,  // measure 84
0011
0010
0101
0010
,  // measure 85
1001
0100
0100
0100
,  // measure 86
1001
0110
0011
1001
,  // measure 87
0110
0000
0000
1001
0000
0000
0110
0000
,  // measure 88
2100
0100
0010
0001
,  // measure 89
0010
0001
0010
0100
,  // measure 90
0100
0100
0001
3010
,  // measure 91
1000
0100
0001
0100
0001
0010
1000
0010
,  // measure 92
0201
0010
1000
0010
,  // measure 93
0001
0010
1000
1300
,  // measure 94
0010
0010
1000
0010
1000
0001
0001
0100
,  // measure 95
0001
0100
1000
0100
0001
0010
0100
0010
,  // measure 96
0110
0100
0011
0100
,  // measure 97
1100
0110
0011
1010
,  // measure 98
0101
0100
1100
0110
,  // measure 99
1001
0100
1010
0100
,  // measure 100
1100
0100
1010
0100
,  // measure 101
1001
0010
0010
0010
,  // measure 102
1001
0110
1100
1001
,  // measure 103
0110
0000
0000
1001
0000
0000
0110
0000
,  // measure 104
0012
0010
0100
1000
,  // measure 105
0100
1000
0100
0010
,  // measure 106
0010
0010
1000
0103
,  // measure 107
0001
0010
1000
0010
1000
0100
0001
0100
,  // measure 108
1020
0100
0001
0100
,  // measure 109
1000
0100
0001
0031
,  // measure 110
0100
0100
0001
0100
0001
1000
1000
0010
,  // measure 111
1000
0010
0001
0010
1000
0100
0010
0100
,  // measure 112
1010
0010
0000
0110
0010
0000
0101
0100
,  // measure 113
1100
0010
0110
0001
0011
0100
0110
0010
,  // measure 114
0101
0100
0000
0110
0100
0000
1010
0010
,  // measure 115
0011
0100
0110
1000
1100
0010
0110
0100
,  // measure 116
0011
0001
0000
1001
0001
0000
1100
1000
,  // measure 117
1010
0001
1001
0100
0101
1000
1001
0001
,  // measure 118
1100
1000
0000
1001
1000
0000
0011
0001
,  // measure 119
0101
1000
1001
0010
1010
0001
1001
1000
,  // measure 120
0001
1000
0001
1000
,  // measure 121
0001
1000
0001
1000
,  // measure 122
0001
1000
0001
1000
,  // measure 123
0001
1000
0001
1000
,  // measure 124
0001
1000
0001
1000
,  // measure 125
0001
1000
0001
1000
,  // measure 126
0001
1000
0001
1000
,  // measure 127
0001
1000
0001
1000
,  // measure 128
0001
1000
0001
1000
,  // measure 129
0001
1000
0001
1000
,  // measure 130
0001
1000
0001
1000
,  // measure 131
0001
1000
0001
1000
,  // measure 132
0001
1000
0001
1000
,  // measure 133
0001
1000
0001
1000
,  // measure 134
0001
1000
0001
1000
,  // measure 135
0001
1000
0001
1000
0001
1000
0001
1000
,  // measure 136
0200
0320
2030
3002
,  // measure 137
0023
0230
2300
3200
,  // measure 138
0302
2003
3200
0302
,  // measure 139
0013
0000
1000
0000
0010
0000
0001
0000
0100
0000
0001
0000
0100
0000
1000
0000
0010
0000
0100
0000
0010
0000
0100
0000
0010
0100
0010
0100
0010
0100
0010
0100
,  // measure 140
2000
3002
0023
0230
,  // measure 141
0302
2003
3020
2030
,  // measure 142
3200
0320
2030
3200
,  // measure 143
0301
0000
0010
0000
0001
0000
0100
0000
1000
0000
0100
0000
1000
0000
0010
0000
0001
0000
1000
0000
0001
0000
1000
0000
0001
1000
0001
1000
0001
1000
0001
1000
,  // measure 144
2002
0000
0000
0000
0000
0000
0000
0000
0000
0000
0000
0000
0000
0000
0000
0000
0000
0000
0000
0000
0000
0000
0000
0000
3003
0000
0000
0000
0000
0000
0000
0000
1000
0000
0001
0000
1000
0000
0001
0000
1000
0000
0001
0000
1000
0000
0001
0000
1000
0000
0001
0000
1000
0000
0001
0000
1000
0000
0001
0000
1000
0001
1000
0001
,  // measure 145
0010
0000
1000
0000
0010
0000
1000
0000
0010
0000
1000
0000
0010
1000
0010
0000
,  // measure 146
0100
0000
0001
0000
0010
0000
0001
0000
1000
0000
0100
0000
0010
0001
0010
0000
,  // measure 147
1100
0010
0001
0010
0101
0010
1000
0100
,  // measure 148
0011
0100
0010
0100
1010
0100
0010
0001
,  // measure 149
0100
0000
0001
0000
0100
0000
0001
0000
0100
0000
0001
0000
0100
0001
0100
0000
,  // measure 150
0010
0000
1000
0000
0100
0000
1000
0000
0001
0000
0010
0000
0100
1000
0100
0000
,  // measure 151
0011
0100
1000
0100
1010
0100
0001
0010
,  // measure 152
1100
0010
0100
0010
0101
0010
0100
1000
,  // measure 153
0001
0000
0010
0000
0001
0000
0010
0000
0001
0000
0010
0000
0001
0010
0001
0000
,  // measure 154
1000
0000
0100
0000
0001
0000
0100
0000
0010
0000
1000
0000
0001
0100
0001
0000
,  // measure 155
1010
0001
0100
0001
1100
0001
0010
1000
,  // measure 156
0101
1000
0001
1000
0011
1000
0001
0100
,  // measure 157
1000
0000
0100
0000
1000
0000
0100
0000
1000
0000
0100
0000
1000
0100
1000
0000
,  // measure 158
0001
0000
0010
0000
1000
0000
0010
0000
0100
0000
0001
0000
1000
0010
1000
0000
,  // measure 159
0101
1000
0010
1000
0011
1000
0100
0001
,  // measure 160
1010
0001
1000
0001
1100
0001
1000
0010
,  // measure 161
0010
0000
1000
0000
0010
0000
1000
0000
0010
0000
1000
0000
0010
1000
0010
0000
,  // measure 162
0100
0000
0001
0000
0010
0000
0001
0000
1000
0000
0100
0000
0010
0001
0010
0000
,  // measure 163
1100
0010
0001
0010
0101
0010
1000
0100
,  // measure 164
0011
0100
0010
0100
1010
0100
0010
0001
,  // measure 165
0100
0000
0001
0000
0100
0000
0001
0000
0100
0000
0001
0000
0100
0001
0100
0000
,  // measure 166
0010
0000
1000
0000
0100
0000
1000
0000
0001
0000
0010
0000
0100
1000
0100
0000
,  // measure 167
0011
0100
1000
0100
1010
0100
0001
0010
,  // measure 168
1100
0010
0100
0010
0101
0010
0100
1000
,  // measure 169
0001
0000
0010
0000
0001
0000
0010
0000
0001
0000
0010
0000
0001
0010
0001
0000
,  // measure 170
1000
0000
0100
0000
0001
0000
0100
0000
0010
0000
1000
0000
0001
0100
0001
0000
,  // measure 171
1010
0001
0100
0001
1100
0001
0010
1000
,  // measure 172
0101
1000
0001
1000
0011
1000
0001
0100
,  // measure 173
0010
0001
0100
1000
0010
0001
0100
1000
,  // measure 174
0010
0000
0001
0000
0100
0000
1000
0000
0010
0001
0100
1000
0010
0001
0100
1000
,  // measure 175
0220
0000
0000
0330
2002
0000
0000
3003
,  // measure 176
0100
0001
0100
0001
,  // measure 177
1100
0010
1100
0010
,  // measure 178
0101
0010
0101
0010
,  // measure 179
1000
0000
0010
0000
1000
0000
0010
0000
1000
0000
0010
0000
,  // measure 180
0010
1000
0010
1000
,  // measure 181
0011
0100
0011
0100
,  // measure 182
1010
0100
1010
0100
,  // measure 183
0001
0000
0100
0000
0001
0000
0100
0000
0001
0000
0100
0000
,  // measure 184
1000
0100
1000
0100
,  // measure 185
1010
0001
1010
0001
,  // measure 186
1100
0001
1100
0001
,  // measure 187
0010
0000
0001
0000
0010
0000
0001
0000
0010
0000
0001
0000
,  // measure 188
0001
0010
0001
0010
,  // measure 189
0101
1000
0101
1000
,  // measure 190
0011
1000
0011
1000
,  // measure 191
0100
0000
1000
0000
0100
0000
1000
0000
0100
0000
1000
0000
,  // measure 192
0100
0001
0100
0001
,  // measure 193
1100
0010
1100
0010
,  // measure 194
0101
0010
0101
0010
,  // measure 195
1000
0000
0010
0000
1000
0000
0010
0000
1000
0000
0010
0000
,  // measure 196
0010
1000
0010
1000
,  // measure 197
0011
0100
0011
0100
,  // measure 198
1010
0100
1010
0100
,  // measure 199
0001
0000
0100
0000
0001
0000
0100
0000
0001
0000
0100
0000
,  // measure 200
1000
0100
1000
0100
,  // measure 201
1010
0001
1010
0001
,  // measure 202
1100
0001
1100
0001
,  // measure 203
0010
0000
0001
0000
0010
0000
0001
0000
0010
0000
0001
0000
,  // measure 204
0001
0010
0001
0010
,  // measure 205
0101
1000
0101
1000
,  // measure 206
0011
1000
0011
1000
,  // measure 207
0100
0000
1000
0000
0100
0000
1000
0000
0100
0000
1000
0000
,  // measure 208
0010
0000
0100
0000
0010
0000
0100
0000
0010
0000
0100
0000
,  // measure 209
0010
0000
0100
0000
0010
0000
0100
0000
0010
0000
0100
0000
,  // measure 210
0010
0000
0100
0000
0010
0000
0100
0000
0010
0000
0100
0000
,  // measure 211
0010
0000
0100
0000
0010
0000
0100
0000
0010
0000
0100
0000
,  // measure 212
1000
0010
0001
0010
1100
0010
0101
0010
,  // measure 213
0001
0100
1000
0100
0011
0100
1010
0100
,  // measure 214
1000
0001
1000
0001
1000
0001
1000
0001
,  // measure 215
1000
0000
0000
0000
0001
0000
0000
0000
1000
0000
0000
0000
0001
0000
0000
0000
1000
0000
0000
0000
0001
0000
0000
0000
1000
0000
0000
0001
0000
0000
1000
0000
0000
0001
0000
0000
1000
0000
0000
0001
0000
0000
1000
0000
0000
0001
0000
0000
,  // measure 216
2002
0000
0000
0000
,  // measure 217
0000
0000
0000
0000
,  // measure 218
0000
0000
0000
0000
,  // measure 219
0000
0000
0000
0000
,  // measure 220
3003
0000
0000
0000
;

//---------------dance-single - ----------------
#NOTEDATA:;
#CHARTNAME:;
#STEPSTYPE:dance-single;
#DESCRIPTION:;
#CHARTSTYLE:;
#DIFFICULTY:Medium;
#METER:32;
#RADARVALUES:1.944686,4.059807,1.853950,0.394823,0.622275,1586.000000,1370.000000,216.000000,46.000000,0.000000,0.000000,0.000000,0.000000,0.000000,1.944686,4.059807,1.853950,0.394823,0.622275,1586.000000,1370.000000,216.000000,46.000000,0.000000,0.000000,0.000000,0.000000,0.000000;
#CREDIT:;
#DISPLAYBPM:*;
#NOTES:
// measure 0
0000
0000
0000
0000
,  // measure 1
0000
0000
0000
0000
,  // measure 2
0000
0000
0000
0000
,  // measure 3
0000
0000
0000
0000
,  // measure 4
0000
0000
0000
0000
,  // measure 5
0000
0000
0000
0000
,  // measure 6
0000
0000
0000
0000
,  // measure 7
0000
0000
0000
0000
,  // measure 8
1000
0100
0001
0100
1000
0010
0100
0010
,  // measure 9
1100
0000
0100
0000
0101
1000
0100
0000
,  // measure 10
0001
0010
1000
0010
0001
0100
0010
0100
,  // measure 11
0011
0000
0010
0000
1010
0001
0010
0000
,  // measure 12
1001
1000
0001
1000
0101
0001
0100
0001
,  // measure 13
1001
0001
1000
0001
1010
1000
0010
1000
,  // measure 14
0001
0000
1000
0000
0001
0000
1000
0000
0001
1000
0001
1000
0001
1000
0001
1000
,  // measure 15
0110
1010
0110
0101
,  // measure 16
1000
1000
0010
0100
0001
0010
0100
0010
,  // measure 17
0100
0001
0010
0010
0001
0010
1000
1000
,  // measure 18
0010
0100
0010
0100
1000
1000
0001
0001
,  // measure 19
1000
0100
0010
0001
1000
0100
0001
0010
,  // measure 20
0001
0001
0100
0010
1000
0100
0010
0100
,  // measure 21
0010
1000
0100
0100
1000
0100
0001
0001
,  // measure 22
0100
0010
0100
0010
0001
0001
1000
1000
,  // measure 23
0001
0010
0100
1000
0001
0010
1000
0100
,  // measure 24
0010
0010
0001
1000
0100
0001
1000
0001
,  // measure 25
1000
0100
0001
0001
0100
0001
0010
0010
,  // measure 26
0001
1000
0001
1000
0010
0010
0100
0100
,  // measure 27
0010
1000
0001
0100
0010
1000
0100
0001
,  // measure 28
0100
0100
1000
0001
0010
1000
0001
1000
,  // measure 29
0001
0010
1000
1000
0010
1000
0100
0100
,  // measure 30
1010
1000
0000
0101
0100
0000
1001
0001
,  // measure 31
0100
0001
1000
0010
0100
0001
0010
1000
,  // measure 32
0010
0100
0010
0100
0010
0000
1000
0001
,  // measure 33
1000
0001
0100
0000
0001
0010
0100
0010
,  // measure 34
1000
0000
1000
0100
1000
0001
1000
0000
,  // measure 35
0100
0010
1000
0001
0100
0000
0100
0010
,  // measure 36
0100
0010
0100
0000
0001
1000
0001
1000
,  // measure 37
0010
0000
1000
0100
0010
0100
0001
0000
,  // measure 38
0001
0010
0001
1000
0001
0000
0010
0100
,  // measure 39
0001
0000
1000
0000
0010
0000
0100
0000
0010
0000
0100
0000
0010
0100
0010
0100
,  // measure 40
1000
1000
0010
0100
0001
0010
0100
0010
,  // measure 41
0001
0001
0100
0010
1000
0100
0010
0100
,  // measure 42
1000
0100
1000
0001
1000
0100
0001
0010
0001
1000
0001
0010
,  // measure 43
0100
0001
0100
0010
0100
0001
0010
1000
0010
0100
0010
1000
,  // measure 44
0210
0010
0010
0010
,  // measure 45
0010
0010
0010
0010
,  // measure 46
0010
0010
0010
0010
,  // measure 47
0010
0010
0010
0310
,  // measure 48
0120
0001
0100
0000
0001
0000
0000
0100
,  // measure 49
1000
0100
0000
0000
1000
0000
0001
0100
,  // measure 50
0001
0000
0100
0000
0000
1000
0130
0001
,  // measure 51
0100
0001
0100
1000
0100
0001
0100
0010
,  // measure 52
0210
1000
0010
0000
1000
0000
0000
0010
,  // measure 53
0001
0010
0000
0000
0001
0000
1000
0010
,  // measure 54
1000
0000
0010
0000
0000
0001
0310
1000
,  // measure 55
0010
1000
0010
0001
0010
1000
0010
0100
,  // measure 56
1002
0100
1000
0000
0100
0000
0000
1000
,  // measure 57
0010
1000
0000
0000
0010
0000
0100
1000
,  // measure 58
0100
0000
1000
0000
0000
0010
1003
0100
,  // measure 59
1000
0100
1000
0010
1000
0100
1000
0001
,  // measure 60
2001
0010
0001
0000
0010
0000
0000
0001
,  // measure 61
0100
0001
0000
0000
0100
0000
0010
0001
,  // measure 62
0010
0000
0001
0000
0000
0100
3001
0010
,  // measure 63
0001
0010
0001
0100
0001
0010
0001
1000
,  // measure 64
0120
0001
0100
0000
0001
0000
0000
0100
,  // measure 65
1000
0100
0000
0000
1000
0000
0001
0100
,  // measure 66
0001
0000
0100
0000
0000
1000
0130
0001
,  // measure 67
0100
0001
0100
1000
0100
0001
0100
0010
,  // measure 68
0210
1000
0010
0000
1000
0000
0000
0010
,  // measure 69
0001
0010
0000
0000
0001
0000
1000
0010
,  // measure 70
1000
0000
0010
0000
0000
0001
0310
1000
,  // measure 71
0010
1000
0010
0001
0010
1000
0010
0100
,  // measure 72
1002
0100
1000
0000
0100
0000
0000
1000
,  // measure 73
0010
1000
0000
0000
0010
0000
0100
1000
,  // measure 74
0100
0000
1000
0000
0000
0010
1003
0100
,  // measure 75
1000
0100
1000
0010
1000
0100
1000
0001
,  // measure 76
2001
0010
0001
0000
0010
0000
0000
0001
,  // measure 77
0100
0001
0000
0000
0100
0000
0010
0001
,  // measure 78
0010
0000
0001
0000
0000
0100
0001
0010
,  // measure 79
0001
0000
0100
0010
0002
0000
0000
3003
,  // measure 80
0110
0011
1100
0110
,  // measure 81
0011
0110
1100
0101
,  // measure 82
1010
0010
0011
0110
,  // measure 83
1001
0010
0101
0010
,  // measure 84
0011
0010
0101
0010
,  // measure 85
1001
0100
0110
0100
,  // measure 86
1001
0110
0011
1001
,  // measure 87
0110
0000
0000
1001
0000
0000
0110
0000
,  // measure 88
2100
0100
0010
0001
,  // measure 89
0010
0001
0010
0100
,  // measure 90
0100
0100
0001
3010
,  // measure 91
1000
0100
0001
0100
0001
0010
1000
0010
,  // measure 92
0201
0010
1000
0010
,  // measure 93
0001
0010
1000
1300
,  // measure 94
0010
0010
1000
0010
1000
0001
0001
0100
,  // measure 95
0001
0000
0100
0000
1000
0000
0100
0000
0001
0000
0010
0000
0010
0100
0010
0000
,  // measure 96
0110
1100
0011
0110
,  // measure 97
1100
0110
0011
1010
,  // measure 98
0101
0100
1100
0110
,  // measure 99
1001
0100
1010
0100
,  // measure 100
1100
0100
1010
0100
,  // measure 101
1001
0010
0110
0010
,  // measure 102
1001
0110
1100
1001
,  // measure 103
0110
0000
0000
1001
0000
0000
0110
0000
,  // measure 104
0012
0010
0100
1000
,  // measure 105
0100
1000
0100
0010
,  // measure 106
0010
0010
1000
0103
,  // measure 107
0001
0010
1000
0010
1000
0100
0001
0100
,  // measure 108
1020
0100
0001
0100
,  // measure 109
1000
0100
0001
0031
,  // measure 110
0100
0100
0001
0100
0001
1000
1000
0010
,  // measure 111
1000
0000
0010
0000
0001
0000
0010
0000
1000
0000
0100
0000
0100
0010
0100
0000
,  // measure 112
1010
0010
0010
0110
0010
0010
0101
0100
,  // measure 113
1100
0010
0110
0001
0011
0100
0110
0010
,  // measure 114
0101
0100
0100
0110
0100
0100
1010
0010
,  // measure 115
0011
0100
0110
1000
1100
0010
0110
0100
,  // measure 116
0011
0001
0001
1001
0001
0001
1100
1000
,  // measure 117
1010
0001
1001
0100
0101
1000
1001
0001
,  // measure 118
1100
1000
1000
1001
1000
1000
0011
0001
,  // measure 119
0101
1000
1001
0010
1010
0001
1001
1000
,  // measure 120
0001
1000
0001
1000
,  // measure 121
0001
1000
0001
1000
,  // measure 122
0001
1000
0001
1000
,  // measure 123
0001
1000
0001
1000
,  // measure 124
0001
1000
0001
1000
,  // measure 125
0001
1000
0001
1000
,  // measure 126
0001
1000
0001
1000
,  // measure 127
0001
1000
0001
1000
,  // measure 128
0001
0000
1000
0000
0001
0000
1000
0000
0001
0000
1000
0000
,  // measure 129
0001
0000
1000
0000
0001
0000
1000
0000
0001
0000
1000
0000
,  // measure 130
0001
0000
1000
0000
0001
0000
1000
0000
0001
0000
1000
0000
,  // measure 131
0001
0000
1000
0000
0001
0000
1000
0000
0001
0000
1000
0000
,  // measure 132
0001
0000
1000
0000
0001
0000
1000
0000
0001
0000
1000
0000
,  // measure 133
0001
0000
1000
0000
0001
0000
1000
0000
0001
0000
1000
0000
,  // measure 134
0001
1000
0001
1000
0001
1000
0001
1000
,  // measure 135
0001
1000
0001
1000
0001
1000
0001
1000
,  // measure 136
0200
0000
0320
0000
2030
0100
3002
0010
,  // measure 137
0023
0000
0230
0000
2300
0001
3200
0001
,  // measure 138
0302
0000
2003
0000
3200
1000
0302
1000
,  // measure 139
0013
0000
1000
0000
0010
0000
0001
0000
0100
0000
0001
0000
0100
0000
1000
0000
0010
0000
0100
0000
0010
0000
0100
0000
0010
0100
0010
0100
0010
0100
0010
0100
,  // measure 140
2000
0000
3002
0000
0023
1000
0230
0001
,  // measure 141
0302
0000
2003
0000
3020
0100
2030
0100
,  // measure 142
3200
0000
0320
0000
2030
0010
3200
0010
,  // measure 143
0301
0000
0010
0000
0001
0000
0100
0000
1000
0000
0100
0000
1000
0000
0010
0000
0001
0000
1000
0000
0001
0000
1000
0000
0001
1000
0001
1000
0001
1000
0001
1000
,  // measure 144
2002
0000
0000
0000
0000
0000
0000
0000
0000
0000
0000
0000
0000
0000
0000
0000
0000
0000
0000
0000
0000
0000
0000
0000
3003
0000
0000
0000
0000
0000
0000
0000
1000
0000
0001
0000
1000
0000
0001
0000
1000
0000
0001
0000
1000
0000
0001
0000
1000
0000
0001
0000
1000
0000
0001
0000
1000
0001
1000
0001
1000
0001
1000
0001
,  // measure 145
0010
0000
1000
0000
0010
0000
1000
0000
0010
0000
1000
0000
0010
1000
0010
0000
,  // measure 146
0100
0000
0001
0000
0010
0000
0001
0000
1000
0000
0100
0000
0010
0001
0010
0000
,  // measure 147
1100
0010
0001
0010
0101
0010
1000
0100
,  // measure 148
0011
0000
0100
0000
0010
0000
0100
0000
1010
0000
0100
0000
0010
0100
0010
0000
,  // measure 149
0100
0000
0001
0000
0100
0000
0001
0000
0100
0000
0001
0000
0100
0001
0100
0000
,  // measure 150
0010
0000
1000
0000
0100
0000
1000
0000
0001
0000
0010
0000
0100
1000
0100
0000
,  // measure 151
0011
0100
1000
0100
1010
0100
0001
0010
,  // measure 152
1100
0000
0010
0000
0100
0000
0010
0000
0101
0000
0010
0000
0100
0010
0100
0000
,  // measure 153
0001
0000
0010
0000
0001
0000
0010
0000
0001
0000
0010
0000
0001
0010
0001
0000
,  // measure 154
1000
0000
0100
0000
0001
0000
0100
0000
0010
0000
1000
0000
0001
0100
0001
0000
,  // measure 155
1010
0001
0100
0001
1100
0001
0010
1000
,  // measure 156
0101
0000
1000
0000
0001
0000
1000
0000
0011
0000
1000
0000
0001
1000
0001
0000
,  // measure 157
1000
0000
0100
0000
1000
0000
0100
0000
1000
0000
0100
0000
1000
0100
1000
0000
,  // measure 158
0001
0000
0010
0000
1000
0000
0010
0000
0100
0000
0001
0000
1000
0010
1000
0000
,  // measure 159
0101
1000
0010
1000
0011
1000
0100
0001
,  // measure 160
1010
0000
0001
0000
1000
0000
0001
0000
1100
0000
0001
0000
1000
0001
1000
0000
,  // measure 161
0011
0000
1000
0000
0011
0000
1000
0000
0010
0000
1000
0000
0010
1000
0010
0000
,  // measure 162
0100
0000
0001
0000
0010
0000
0001
0000
1000
0000
0100
0000
0010
0001
0010
0000
,  // measure 163
1100
0010
0001
0010
0101
0010
1000
0100
,  // measure 164
0011
0000
0100
0000
0010
0000
0100
0000
1010
0000
0100
0000
0010
0100
0010
0000
,  // measure 165
1100
0000
0001
0000
1100
0000
0001
0000
0100
0000
0001
0000
0100
0001
0100
0000
,  // measure 166
0010
0000
1000
0000
0100
0000
1000
0000
0001
0000
0010
0000
0100
1000
0100
0000
,  // measure 167
0011
0100
1000
0100
1010
0100
0001
0010
,  // measure 168
1100
0000
0010
0000
0100
0000
0010
0000
0101
0000
0010
0000
0100
0010
0100
0000
,  // measure 169
0101
0000
0010
0000
0101
0000
0010
0000
0001
0000
0010
0000
0001
0010
0001
0000
,  // measure 170
1000
0000
0100
0000
0001
0000
0100
0000
0010
0000
1000
0000
0001
0100
0001
0000
,  // measure 171
1010
0001
0100
0001
1100
0001
0010
1000
,  // measure 172
0101
0000
1000
0000
0001
0000
1000
0000
0011
0000
1000
0000
0001
1000
0001
0000
,  // measure 173
0010
0001
0100
1000
0010
0001
0100
1000
,  // measure 174
0010
0000
0001
0000
0100
0000
1000
0000
0010
0001
0100
1000
0010
0001
0100
1000
,  // measure 175
0220
0000
0000
0330
2002
0000
0000
3003
,  // measure 176
0110
0001
0110
0001
,  // measure 177
1100
0010
1100
0010
,  // measure 178
0101
1010
0101
1010
,  // measure 179
1000
0010
1000
0010
1000
0010
1000
0010
,  // measure 180
0110
1000
0110
1000
,  // measure 181
0011
0100
0011
0100
,  // measure 182
1010
0101
1010
0101
,  // measure 183
0001
0100
0001
0100
0001
0100
0001
0100
,  // measure 184
1001
0100
1001
0100
,  // measure 185
1010
0001
1010
0001
,  // measure 186
1100
0011
1100
0011
,  // measure 187
0010
0001
0010
0001
0010
0001
0010
0001
,  // measure 188
1001
0010
1001
0010
,  // measure 189
0101
1000
0101
1000
,  // measure 190
0011
1100
0011
1100
,  // measure 191
0100
1000
0100
1000
0100
1000
0100
1000
,  // measure 192
0110
0001
0110
0001
,  // measure 193
1100
0010
1100
0010
,  // measure 194
0101
1010
0101
1010
,  // measure 195
1000
0010
1000
0010
1000
0010
1000
0010
,  // measure 196
0110
1000
0110
1000
,  // measure 197
0011
0100
0011
0100
,  // measure 198
1010
0101
1010
0101
,  // measure 199
0001
0100
0001
0100
0001
0100
0001
0100
,  // measure 200
1001
0100
1001
0100
,  // measure 201
1010
0001
1010
0001
,  // measure 202
1100
0011
1100
0011
,  // measure 203
0010
0001
0010
0001
0010
0001
0010
0001
,  // measure 204
1001
0010
1001
0010
,  // measure 205
0101
1000
0101
1000
,  // measure 206
0011
1100
0011
1100
,  // measure 207
0100
1000
0100
1000
0100
1000
0100
1000
,  // measure 208
0010
0000
0100
0000
0010
0000
0100
0000
0010
0000
0100
0000
,  // measure 209
0010
0000
0100
0000
0010
0000
0100
0000
0010
0000
0100
0000
,  // measure 210
0010
0000
0100
0000
0010
0000
0100
0000
0010
0000
0100
0000
,  // measure 211
0010
0000
0100
0000
0010
0000
0100
0000
0010
0000
0100
0000
,  // measure 212
1100
0010
0101
0010
1100
0010
0101
1010
,  // measure 213
0011
0100
1010
0100
0011
0100
1010
0101
,  // measure 214
1000
0001
1000
0001
1000
0001
1000
0001
1000
0001
1000
0001
,  // measure 215
1000
0001
1000
0001
1000
0001
1000
0001
1000
0001
1000
0001
1000
0001
1000
0001
,  // measure 216
2002
0000
0000
0000
,  // measure 217
0000
0000
0000
0000
,  // measure 218
0000
0000
0000
0000
,  // measure 219
0000
0000
0000
0000
,  // measure 220
3003
0000
0000
0000
;

//---------------dance-single - ----------------
#NOTEDATA:;
#CHARTNAME:;
#STEPSTYPE:dance-single;
#DESCRIPTION:;
#CHARTSTYLE:;
#DIFFICULTY:Hard;
#METER:33;
#RADARVALUES:2.053813,4.531878,2.283105,0.394823,0.720981,1675.000000,1409.000000,266.000000,46.000000,0.000000,0.000000,0.000000,0.000000,0.000000,2.053813,4.531878,2.283105,0.394823,0.720981,1675.000000,1409.000000,266.000000,46.000000,0.000000,0.000000,0.000000,0.000000,0.000000;
#CREDIT:;
#DISPLAYBPM:*;
#NOTES:
// measure 0
0000
0000
0000
0000
,  // measure 1
0000
0000
0000
0000
,  // measure 2
0000
0000
0000
0000
,  // measure 3
0000
0000
0000
0000
,  // measure 4
0000
0000
0000
0000
,  // measure 5
0000
0000
0000
0000
,  // measure 6
0000
0000
0000
0000
,  // measure 7
0000
0000
0000
0000
,  // measure 8
1000
0100
0001
0100
1000
0010
0100
0010
,  // measure 9
1100
0001
0100
0000
0101
1000
0100
0000
,  // measure 10
0001
0010
1000
0010
0001
0100
0010
0100
,  // measure 11
0011
1000
0010
0000
1010
0001
0010
0000
,  // measure 12
1001
1000
0001
1000
0101
0001
0100
0001
,  // measure 13
1001
0001
1000
0001
1010
1000
0010
1000
,  // measure 14
0001
0000
1000
0000
0001
0000
1000
0000
0001
1000
0001
1000
0001
1000
0001
1000
,  // measure 15
0110
0001
1010
0000
0110
1000
0101
0000
,  // measure 16
1000
0001
1000
0000
0010
0000
0100
0000
0001
0000
0010
0000
0100
0000
0010
0000
,  // measure 17
0100
0001
0010
0010
0001
0010
1000
1000
,  // measure 18
0010
0100
0010
0100
1000
1000
0001
0001
,  // measure 19
1000
0100
0010
0001
1000
0100
0001
0010
,  // measure 20
0001
1000
0001
0000
0100
0000
0010
0000
1000
0000
0100
0000
0010
0000
0100
0000
,  // measure 21
0010
1000
0100
0100
1000
0100
0001
0001
,  // measure 22
0100
0010
0100
0010
0001
0001
1000
1000
,  // measure 23
0001
0010
0100
1000
0001
0010
1000
0100
,  // measure 24
0010
0100
0010
0000
0001
0000
1000
0000
0100
0000
0001
0000
1000
0000
0001
0000
,  // measure 25
1000
0100
0001
0001
0100
0001
0010
0010
,  // measure 26
0001
1000
0001
1000
0010
0010
0100
0100
,  // measure 27
0010
1000
0001
0100
0010
1000
0100
0001
,  // measure 28
0100
0010
0100
0000
1000
0000
0001
0000
0010
0000
1000
0000
0001
0000
1000
0000
,  // measure 29
0001
0010
1000
1000
0010
1000
0100
0100
,  // measure 30
1010
1000
0000
0101
0100
0000
1001
0001
,  // measure 31
0100
0001
1000
0010
0100
0001
0010
1000
,  // measure 32
0011
0100
0010
0100
0010
0000
1001
0001
,  // measure 33
1000
0001
0100
0000
0101
0010
0100
0010
,  // measure 34
1000
0000
1010
0100
1000
0001
1000
0000
,  // measure 35
0110
0010
1000
0001
0100
0000
1100
0010
,  // measure 36
0100
0010
0100
0000
1001
1000
0001
1000
,  // measure 37
0010
0000
1010
0100
0010
0100
0001
0000
,  // measure 38
0101
0010
0001
1000
0001
0000
0110
0100
,  // measure 39
0001
0000
1000
0000
0010
0000
0100
0000
0010
0000
0100
0000
0010
0100
0010
0100
,  // measure 40
1000
0001
1000
0000
0010
0000
0100
0000
0001
0000
0010
0000
0100
0000
0010
0000
,  // measure 41
0001
1000
0001
0000
0100
0000
0010
0000
1000
0000
0100
0000
0010
0000
0100
0000
,  // measure 42
1001
0100
1000
0001
1000
0100
1001
0010
0001
1000
0001
0010
,  // measure 43
0110
0001
0100
0010
0100
0001
0110
1000
0010
0100
0010
1000
,  // measure 44
0210
0010
0010
0010
,  // measure 45
0010
0010
0010
0010
,  // measure 46
0010
0010
0010
0010
,  // measure 47
0010
0010
0010
0310
,  // measure 48
0120
0001
0100
0000
0001
0000
0000
0100
,  // measure 49
1000
0100
0000
0000
1000
0000
0001
0100
,  // measure 50
0001
0000
0100
0000
0000
1000
0130
0001
,  // measure 51
0100
0000
0001
0000
0100
0000
1000
0000
0100
0000
0001
0000
0100
0010
0100
0000
,  // measure 52
0210
1000
0010
0000
1000
0000
0000
0010
,  // measure 53
0001
0010
0000
0000
0001
0000
1000
0010
,  // measure 54
1000
0000
0010
0000
0000
0001
0310
1000
,  // measure 55
0010
0000
1000
0000
0010
0000
0001
0000
0010
0000
1000
0000
0010
0100
0010
0000
,  // measure 56
1002
0100
1000
0000
0100
0000
0000
1000
,  // measure 57
0010
1000
0000
0000
0010
0000
0100
1000
,  // measure 58
0100
0000
1000
0000
0000
0010
1003
0100
,  // measure 59
1000
0000
0100
0000
1000
0000
0010
0000
1000
0000
0100
0000
1000
0001
1000
0000
,  // measure 60
2001
0010
0001
0000
0010
0000
0000
0001
,  // measure 61
0100
0001
0000
0000
0100
0000
0010
0001
,  // measure 62
0010
0000
0001
0000
0000
0100
3001
0010
,  // measure 63
0001
0000
0010
0000
0001
0000
0100
0000
0001
0000
0010
0000
0001
1000
0001
0000
,  // measure 64
0120
0001
0100
0000
0001
0000
0000
0100
,  // measure 65
1000
0100
0000
0000
1000
0000
0001
0100
,  // measure 66
0001
0000
0100
0000
0000
1000
0130
0001
,  // measure 67
0100
0000
0001
0000
0100
0000
1000
0000
0100
0000
0001
0000
0100
0010
0100
0000
,  // measure 68
0210
1000
0010
0000
1000
0000
0000
0010
,  // measure 69
0001
0010
0000
0000
0001
0000
1000
0010
,  // measure 70
1000
0000
0010
0000
0000
0001
0310
1000
,  // measure 71
0010
0000
1000
0000
0010
0000
0001
0000
0010
0000
1000
0000
0010
0100
0010
0000
,  // measure 72
1002
0100
1000
0000
0100
0000
0000
1000
,  // measure 73
0010
1000
0000
0000
0010
0000
0100
1000
,  // measure 74
0100
0000
1000
0000
0000
0010
1003
0100
,  // measure 75
1000
0000
0100
0000
1000
0000
0010
0000
1000
0000
0100
0000
1000
0001
1000
0000
,  // measure 76
2001
0010
0001
0000
0010
0000
0000
0001
,  // measure 77
0100
0001
0000
0000
0100
0000
0010
0001
,  // measure 78
0010
0000
0001
0000
0000
0100
0001
0010
,  // measure 79
0001
0000
0100
0010
0002
0000
0000
3003
,  // measure 80
0110
0011
1100
0110
,  // measure 81
0011
0110
1100
0101
,  // measure 82
1010
0010
0011
0110
,  // measure 83
1001
0010
0101
0010
,  // measure 84
0011
0110
0101
0011
,  // measure 85
1001
1100
0110
1100
,  // measure 86
1001
0110
0011
1001
,  // measure 87
0110
0000
0000
0010
0000
0000
1001
0000
0000
0100
0000
0000
0110
0000
0000
0000
,  // measure 88
2100
0100
0010
0001
,  // measure 89
0010
0001
0010
0100
,  // measure 90
0100
0100
0001
3010
,  // measure 91
1000
0100
0001
0100
0001
0010
1000
0010
,  // measure 92
0201
0010
1000
0010
,  // measure 93
0001
0010
1000
1300
,  // measure 94
0010
0010
1000
0010
1000
0001
0001
0100
,  // measure 95
0001
0000
0100
0000
1000
0000
0100
0000
0001
0000
0010
0000
0010
0100
0010
0000
,  // measure 96
0110
1100
0011
0110
,  // measure 97
1100
0110
0011
1010
,  // measure 98
0101
0100
1100
0110
,  // measure 99
1001
0100
1010
0100
,  // measure 100
1100
0110
1010
1100
,  // measure 101
1001
0011
0110
0011
,  // measure 102
1001
0110
1100
1001
,  // measure 103
0110
0000
0000
0100
0000
0000
1001
0000
0000
0010
0000
0000
0110
0000
0000
0000
,  // measure 104
0012
0010
0100
1000
,  // measure 105
0100
1000
0100
0010
,  // measure 106
0010
0010
1000
0103
,  // measure 107
0001
0010
1000
0010
1000
0100
0001
0100
,  // measure 108
1020
0100
0001
0100
,  // measure 109
1000
0100
0001
0031
,  // measure 110
0100
0001
0100
0000
0001
0000
0100
0000
0001
0000
1000
0010
1000
0000
0010
0000
,  // measure 111
1000
0000
0010
0000
0001
0000
0010
0000
1000
0000
0100
0000
0100
0010
0100
0000
,  // measure 112
1010
0110
0010
0110
0010
0010
0101
0100
,  // measure 113
1100
0010
0110
0001
0011
0100
0110
0010
,  // measure 114
0101
0110
0100
0110
0100
0100
1010
0010
,  // measure 115
0011
0100
0110
1000
1100
0010
0110
0100
,  // measure 116
0011
1001
0001
1001
0001
0001
1100
1000
,  // measure 117
1010
0001
1001
0100
0101
1000
1001
0001
,  // measure 118
1100
1001
1000
1001
1000
1000
0011
0001
,  // measure 119
0101
1000
1001
0010
1010
0001
1001
1000
,  // measure 120
0001
1000
0001
1000
,  // measure 121
0001
1000
0001
1000
,  // measure 122
0001
1000
0001
1000
,  // measure 123
0001
1000
0001
1000
,  // measure 124
0001
1000
0001
1000
,  // measure 125
0001
1000
0001
1000
,  // measure 126
0001
1000
0001
1000
,  // measure 127
0001
1000
0001
1000
,  // measure 128
0001
0000
1000
0000
0001
0000
1000
0000
0001
0000
1000
0000
,  // measure 129
0001
0000
1000
0000
0001
0000
1000
0000
0001
0000
1000
0000
,  // measure 130
0001
0000
1000
0000
0001
0000
1000
0000
0001
0000
1000
0000
,  // measure 131
0001
0000
1000
0000
0001
0000
1000
0000
0001
0000
1000
0000
,  // measure 132
0001
0000
1000
0000
0001
0000
1000
0000
0001
0000
1000
0000
,  // measure 133
0001
0000
1000
0000
0001
0000
1000
0000
0001
0000
1000
0000
,  // measure 134
0001
1000
0001
1000
0001
1000
0001
1000
,  // measure 135
0001
1000
0001
1000
0001
1000
0001
1000
,  // measure 136
0200
1000
0320
0001
2030
0100
3002
0010
,  // measure 137
0023
1000
0230
0001
2300
0001
3200
0001
,  // measure 138
0302
0010
2003
0100
3200
1000
0302
1000
,  // measure 139
0013
0000
1000
0000
0010
0000
0001
0000
0100
0000
0001
0000
0100
0000
1000
0000
0010
0000
0100
0000
0010
0000
0100
0000
0010
0100
0010
0100
0010
0100
0010
0100
,  // measure 140
2000
0010
3002
0100
0023
1000
0230
0001
,  // measure 141
0302
0010
2003
0100
3020
0100
2030
0100
,  // measure 142
3200
0001
0320
1000
2030
0010
3200
0010
,  // measure 143
0301
0000
0010
0000
0001
0000
0100
0000
1000
0000
0100
0000
1000
0000
0010
0000
0001
0000
1000
0000
0001
0000
1000
0000
0001
1000
0001
1000
0001
1000
0001
1000
,  // measure 144
2002
0000
0000
0000
0000
0000
0000
0000
0000
0000
0000
0000
0000
0000
0000
0000
0000
0000
0000
0000
0000
0000
0000
0000
3003
0000
0000
0000
0000
0000
0000
0000
1000
0000
0001
0000
1000
0000
0001
0000
1000
0000
0001
0000
1000
0000
0001
0000
1000
0001
1000
0001
1000
0001
1000
0001
1000
0001
1000
0001
1000
0001
1000
0001
,  // measure 145
0011
0000
1000
0000
0011
0000
1000
0000
0010
0000
1000
0000
0010
1000
0010
0000
,  // measure 146
0100
0000
0001
0000
0010
0000
0001
0000
1000
0000
0100
0000
0010
0001
0010
0000
,  // measure 147
1100
0010
0001
0010
0101
0010
1000
0100
,  // measure 148
0011
0000
0100
0000
0010
0000
0100
0000
1010
0000
0100
0000
0010
0100
0010
0000
,  // measure 149
1100
0000
0001
0000
1100
0000
0001
0000
0100
0000
0001
0000
0100
0001
0100
0000
,  // measure 150
0010
0000
1000
0000
0100
0000
1000
0000
0001
0000
0010
0000
0100
1000
0100
0000
,  // measure 151
0011
0100
1000
0100
1010
0100
0001
0010
,  // measure 152
1100
0000
0010
0000
0100
0000
0010
0000
0101
0000
0010
0000
0100
0010
0100
0000
,  // measure 153
0101
0000
0010
0000
0101
0000
0010
0000
0001
0000
0010
0000
0001
0010
0001
0000
,  // measure 154
1000
0000
0100
0000
0001
0000
0100
0000
0010
0000
1000
0000
0001
0100
0001
0000
,  // measure 155
1010
0001
0100
0001
1100
0001
0010
1000
,  // measure 156
0101
0000
1000
0000
0001
0000
1000
0000
0011
0000
1000
0000
0001
1000
0001
0000
,  // measure 157
1010
0000
0100
0000
1010
0000
0100
0000
1000
0000
0100
0000
1000
0100
1000
0000
,  // measure 158
0001
0000
0010
0000
1000
0000
0010
0000
0100
0000
0001
0000
1000
0010
1000
0000
,  // measure 159
0101
1000
0010
1000
0011
1000
0100
0001
,  // measure 160
1010
0000
0001
0000
1000
0000
0001
0000
1100
0000
0001
0000
1000
0001
1000
0000
,  // measure 161
0011
0000
1000
0000
0011
0000
1000
0000
0010
0000
1000
0000
0010
1000
0010
0000
,  // measure 162
0100
0000
0001
0000
0010
0000
0001
0000
1000
0000
0100
0000
0010
0001
0010
0000
,  // measure 163
1100
0010
0001
0010
0101
0010
1000
0100
,  // measure 164
0011
0000
0100
0000
0010
0000
0100
0000
1010
0000
0100
0000
0010
0100
0010
0000
,  // measure 165
1100
0000
0001
0000
1100
0000
0001
0000
0100
0000
0001
0000
0100
0001
0100
0000
,  // measure 166
0010
0000
1000
0000
0100
0000
1000
0000
0001
0000
0010
0000
0100
1000
0100
0000
,  // measure 167
0011
0100
1000
0100
1010
0100
0001
0010
,  // measure 168
1100
0000
0010
0000
0100
0000
0010
0000
0101
0000
0010
0000
0100
0010
0100
0000
,  // measure 169
0101
0000
0010
0000
0101
0000
0010
0000
0001
0000
0010
0000
0001
0010
0001
0000
,  // measure 170
1000
0000
0100
0000
0001
0000
0100
0000
0010
0000
1000
0000
0001
0100
0001
0000
,  // measure 171
1010
0001
0100
0001
1100
0001
0010
1000
,  // measure 172
0101
0000
1000
0000
0001
0000
1000
0000
0011
0000
1000
0000
0001
1000
0001
0000
,  // measure 173
0010
0001
0100
1000
0010
0001
0100
1000
,  // measure 174
0010
0000
0001
0000
0100
0000
1000
0000
0010
0001
0100
1000
0010
0001
0100
1000
,  // measure 175
0220
0000
0000
0330
2002
0000
0000
3003
,  // measure 176
0110
0101
0110
0101
,  // measure 177
1100
0010
1100
0010
,  // measure 178
0101
1010
0101
1010
,  // measure 179
1000
0010
1000
0010
1000
0010
1000
0010
,  // measure 180
0110
1010
0110
1010
,  // measure 181
0011
0100
0011
0100
,  // measure 182
1010
0101
1010
0101
,  // measure 183
0001
0100
0001
0100
0001
0100
0001
0100
,  // measure 184
1001
0101
1001
0101
,  // measure 185
1010
0001
1010
0001
,  // measure 186
1100
0011
1100
0011
,  // measure 187
0010
0001
0010
0001
0010
0001
0010
0001
,  // measure 188
1001
1010
1001
1010
,  // measure 189
0101
1000
0101
1000
,  // measure 190
0011
1100
0011
1100
,  // measure 191
0100
1000
0100
1000
0100
1000
0100
1000
,  // measure 192
0110
0011
0110
0011
,  // measure 193
1100
0010
1100
0010
,  // measure 194
0101
1010
0101
1010
,  // measure 195
1000
0010
1000
0010
1000
0010
1000
0010
,  // measure 196
0110
1100
0110
1100
,  // measure 197
0011
0100
0011
0100
,  // measure 198
1010
0101
1010
0101
,  // measure 199
0001
0100
0001
0100
0001
0100
0001
0100
,  // measure 200
1001
0101
1001
0101
,  // measure 201
1010
0001
1010
0001
,  // measure 202
1100
0011
1100
0011
,  // measure 203
0010
0001
0010
0001
0010
0001
0010
0001
,  // measure 204
1001
1010
1001
1010
,  // measure 205
0101
1000
0101
1000
,  // measure 206
0011
1100
0011
1100
,  // measure 207
0100
1000
0100
1000
0100
1000
0100
1000
,  // measure 208
0010
0000
0100
0000
0010
0000
0100
0000
0010
0000
0100
0000
,  // measure 209
0010
0000
0100
0000
0010
0000
0100
0000
0010
0000
0100
0000
,  // measure 210
0010
0000
0100
0000
0010
0000
0100
0000
0010
0000
0100
0000
,  // measure 211
0010
0000
0100
0000
0010
0000
0100
0000
0010
0000
0100
0000
,  // measure 212
1100
0010
0101
0010
1100
0010
0101
1010
,  // measure 213
0011
0100
1010
0100
0011
0100
1010
0101
,  // measure 214
1000
0001
1000
0001
1000
0001
1000
0001
1000
0001
1000
0001
,  // measure 215
1000
0001
1000
0001
1000
0001
1000
0001
1000
0001
1000
0001
1000
0001
1000
0001
,  // measure 216
2002
0000
0000
0000
,  // measure 217
0000
0000
0000
0000
,  // measure 218
0000
0000
0000
0000
,  // measure 219
0000
0000
0000
0000
,  // measure 220
3003
0000
0000
0000
;

//---------------dance-single - ----------------
#NOTEDATA:;
#CHARTNAME:;
#STEPSTYPE:dance-single;
#DESCRIPTION:;
#CHARTSTYLE:;
#DIFFICULTY:Challenge;
#METER:34;
#RADARVALUES:2.156811,4.531878,2.780925,0.394823,0.785354,1759.000000,1435.000000,324.000000,46.000000,0.000000,0.000000,0.000000,0.000000,0.000000,2.156811,4.531878,2.780925,0.394823,0.785354,1759.000000,1435.000000,324.000000,46.000000,0.000000,0.000000,0.000000,0.000000,0.000000;
#CREDIT:;
#DISPLAYBPM:*;
#NOTES:
// measure 0
0000
0000
0000
0000
,  // measure 1
0000
0000
0000
0000
,  // measure 2
0000
0000
0000
0000
,  // measure 3
0000
0000
0000
0000
,  // measure 4
0000
0000
0000
0000
,  // measure 5
0000
0000
0000
0000
,  // measure 6
0000
0000
0000
0000
,  // measure 7
0000
0000
0000
0000
,  // measure 8
1000
0100
0001
0100
1000
0010
0100
0010
,  // measure 9
1100
0001
0100
0010
0101
1000
0100
0010
,  // measure 10
0001
0010
1000
0010
0001
0100
0010
0100
,  // measure 11
0011
1000
0010
0100
1010
0001
0010
0100
,  // measure 12
1001
1000
0001
1000
0101
0001
0100
0001
,  // measure 13
1001
0001
1000
0001
1010
1000
0010
1000
,  // measure 14
0001
0000
1000
0000
0001
0000
1000
0000
0001
1000
0001
1000
0001
1000
0001
1000
,  // measure 15
0110
0001
1010
0000
0110
1000
0101
0000
,  // measure 16
1000
0001
1000
0000
0010
0000
0100
0000
0001
0000
0010
0000
0100
0000
0010
0000
,  // measure 17
0100
0000
0001
0000
0010
0000
0010
0000
0001
1000
0010
0000
1000
0000
1000
0000
,  // measure 18
0010
0100
0010
0100
1000
1000
0001
0001
,  // measure 19
1000
0100
0010
0001
1000
0100
0001
0010
,  // measure 20
0001
1000
0001
0000
0100
0000
0010
0000
1000
0000
0100
0000
0010
0000
0100
0000
,  // measure 21
0010
0000
1000
0000
0100
0000
0100
0000
1000
0001
0100
0000
0001
0000
0001
0000
,  // measure 22
0100
0010
0100
0010
0001
0001
1000
1000
,  // measure 23
0001
0010
0100
1000
0001
0010
1000
0100
,  // measure 24
0010
0100
0010
0000
0001
0000
1000
0000
0100
0000
0001
0000
1000
0000
0001
0000
,  // measure 25
1000
0000
0100
0000
0001
0000
0001
0000
0100
0010
0001
0000
0010
0000
0010
0000
,  // measure 26
0001
1000
0001
1000
0010
0010
0100
0100
,  // measure 27
0010
1000
0001
0100
0010
1000
0100
0001
,  // measure 28
0100
0010
0100
0000
1000
0000
0001
0000
0010
0000
1000
0000
0001
0000
1000
0000
,  // measure 29
0001
0000
0010
0000
1000
0000
1000
0000
0010
0100
1000
0000
0100
0000
0100
0000
,  // measure 30
1010
1000
0000
0101
0100
0000
1001
0001
,  // measure 31
0100
0001
1000
0010
0100
0001
0010
1000
,  // measure 32
0011
0100
0010
0100
0010
0000
1001
0001
,  // measure 33
1000
0001
0100
0000
0101
0010
0100
0010
,  // measure 34
1000
0000
1010
0100
1000
0001
1000
0000
,  // measure 35
0110
0010
1000
0001
0100
0000
1100
0010
,  // measure 36
0100
0010
0100
0000
1001
1000
0001
1000
,  // measure 37
0010
0000
1010
0100
0010
0100
0001
0000
,  // measure 38
0101
0010
0001
1000
0001
0000
0110
0100
,  // measure 39
0001
0000
1000
0000
0010
0000
0100
0000
0010
0000
0100
0000
0010
0100
0010
0100
,  // measure 40
1000
0001
1000
0000
0010
0000
0100
0000
0001
0000
0010
0000
0100
0000
0010
0000
,  // measure 41
0001
1000
0001
0000
0100
0000
0010
0000
1000
0000
0100
0000
0010
0000
0100
0000
,  // measure 42
1001
0100
1000
0001
1000
0100
1001
0010
0001
1000
0001
0010
,  // measure 43
0110
0001
0100
0010
0100
0001
0110
1000
0010
0100
0010
1000
,  // measure 44
0210
0010
0010
0010
,  // measure 45
0010
0010
0010
0010
,  // measure 46
0010
0010
0010
0010
,  // measure 47
0010
0000
0010
0000
0010
0010
0310
0000
,  // measure 48
0120
0001
0100
0000
0001
0000
0000
0100
,  // measure 49
1000
0100
0000
0000
1000
0000
0001
0100
,  // measure 50
0001
0000
0100
0000
0000
1000
0130
0001
,  // measure 51
0100
0000
0001
0000
0100
0000
1000
0000
0100
0000
0001
0000
0100
0010
0100
0000
,  // measure 52
0210
1000
0010
0000
1000
0000
0000
0010
,  // measure 53
0001
0010
0000
0000
0001
0000
1000
0010
,  // measure 54
1000
0000
0010
0000
0000
0001
0310
1000
,  // measure 55
0010
0000
1000
0000
0010
0000
0001
0000
0010
0000
1000
0000
0010
0100
0010
0000
,  // measure 56
1002
0100
1000
0000
0100
0000
0000
1000
,  // measure 57
0010
1000
0000
0000
0010
0000
0100
1000
,  // measure 58
0100
0000
1000
0000
0000
0010
1003
0100
,  // measure 59
1000
0000
0100
0000
1000
0000
0010
0000
1000
0000
0100
0000
1000
0001
1000
0000
,  // measure 60
2001
0010
0001
0000
0010
0000
0000
0001
,  // measure 61
0100
0001
0000
0000
0100
0000
0010
0001
,  // measure 62
0010
0000
0001
0000
0000
0100
3001
0010
,  // measure 63
0001
0000
0010
0000
0001
0000
0100
0000
0001
0000
0010
0000
0001
1000
0001
0000
,  // measure 64
0120
0001
0100
0000
0001
0000
0000
0100
,  // measure 65
1000
0100
0000
0000
1000
0000
0001
0100
,  // measure 66
0001
0000
0100
0000
0000
1000
0130
0001
,  // measure 67
0100
0000
0001
0000
0100
0000
1000
0000
0100
0000
0001
0000
0100
0010
0100
0000
,  // measure 68
0210
1000
0010
0000
1000
0000
0000
0010
,  // measure 69
0001
0010
0000
0000
0001
0000
1000
0010
,  // measure 70
1000
0000
0010
0000
0000
0001
0310
1000
,  // measure 71
0010
0000
1000
0000
0010
0000
0001
0000
0010
0000
1000
0000
0010
0100
0010
0000
,  // measure 72
1002
0100
1000
0000
0100
0000
0000
1000
,  // measure 73
0010
1000
0000
0000
0010
0000
0100
1000
,  // measure 74
0100
0000
1000
0000
0000
0010
1003
0100
,  // measure 75
1000
0000
0100
0000
1000
0000
0010
0000
1000
0000
0100
0000
1000
0001
1000
0000
,  // measure 76
2001
0010
0001
0000
0010
0000
0000
0001
,  // measure 77
0100
0001
0000
0000
0100
0000
0010
0001
,  // measure 78
0010
0000
0001
0000
0000
0100
0001
0010
,  // measure 79
0001
0000
0100
0010
0002
0000
0000
3003
,  // measure 80
0110
0011
1100
0110
,  // measure 81
0011
0110
1100
0101
,  // measure 82
1010
0110
0011
0110
,  // measure 83
1001
0110
0101
0110
,  // measure 84
0011
0110
0101
0011
,  // measure 85
1001
1100
0110
1100
,  // measure 86
1001
0110
0011
1001
,  // measure 87
0110
0000
0000
1010
0000
0000
1001
0000
0000
0101
0000
0000
0110
0000
0000
0000
,  // measure 88
2100
0100
0010
0001
,  // measure 89
0010
0001
0010
0100
,  // measure 90
0100
0100
0001
3010
,  // measure 91
1000
0000
0100
0000
0001
0000
0100
0000
0001
0000
0010
0000
1000
0010
1000
0000
,  // measure 92
0201
0010
1000
0010
,  // measure 93
0001
0010
1000
1300
,  // measure 94
0010
0100
0010
0000
1000
0000
0010
0000
1000
0000
0001
0000
0001
0000
0100
0000
,  // measure 95
0001
0000
0100
0000
1000
0000
0100
0000
0001
0000
0010
0100
0010
0100
0010
0000
,  // measure 96
0110
1100
0011
0110
,  // measure 97
1100
0110
0011
1010
,  // measure 98
0101
0110
1100
0110
,  // measure 99
1001
0110
1010
0110
,  // measure 100
1100
0110
1010
1100
,  // measure 101
1001
0011
0110
0011
,  // measure 102
1001
0110
1100
1001
,  // measure 103
0110
0000
0000
0101
0000
0000
1001
0000
0000
1010
0000
0000
0110
0000
0000
0000
,  // measure 104
0012
0010
0100
1000
,  // measure 105
0100
1000
0100
0010
,  // measure 106
0010
0010
1000
0103
,  // measure 107
0001
0000
0010
0000
1000
0000
0010
0000
1000
0000
0100
0000
0001
0100
0001
0000
,  // measure 108
1020
0100
0001
0100
,  // measure 109
1000
0100
0001
0031
,  // measure 110
0100
0010
0100
0000
0001
0000
0100
0000
0001
0000
1000
0000
1000
0000
0010
0000
,  // measure 111
1000
0000
0010
0000
0001
0000
0010
0000
1000
0000
0100
0010
0100
0010
0100
0000
,  // measure 112
1010
0110
0011
0110
1010
0110
0101
0110
,  // measure 113
1100
0011
0110
0101
0011
1100
0110
1010
,  // measure 114
0101
0110
1100
0110
0101
0110
1010
0110
,  // measure 115
0011
1100
0110
1010
1100
0011
0110
0101
,  // measure 116
0011
1001
0101
1001
0011
1001
1100
1001
,  // measure 117
1010
0101
1001
1100
0101
1010
1001
0011
,  // measure 118
1100
1001
1010
1001
1100
1001
0011
1001
,  // measure 119
0101
1010
1001
0011
1010
0101
1001
1100
,  // measure 120
0001
1000
0001
1000
,  // measure 121
0001
1000
0001
1000
,  // measure 122
0001
1000
0001
1000
,  // measure 123
0001
1000
0001
1000
,  // measure 124
0001
1000
0001
1000
,  // measure 125
0001
1000
0001
1000
,  // measure 126
0001
1000
0001
1000
,  // measure 127
0001
1000
0001
1000
,  // measure 128
0001
0000
1000
0000
0001
0000
1000
0000
0001
0000
1000
0000
,  // measure 129
0001
0000
1000
0000
0001
0000
1000
0000
0001
0000
1000
0000
,  // measure 130
0001
0000
1000
0000
0001
0000
1000
0000
0001
0000
1000
0000
,  // measure 131
0001
0000
1000
0000
0001
0000
1000
0000
0001
0000
1000
0000
,  // measure 132
0001
0000
1000
0000
0001
0000
1000
0000
0001
0000
1000
0000
,  // measure 133
0001
0000
1000
0000
0001
0000
1000
0000
0001
0000
1000
0000
,  // measure 134
0001
1000
0001
1000
0001
1000
0001
1000
,  // measure 135
0001
1000
0001
1000
0001
1000
0001
1000
,  // measure 136
0200
1000
0320
0001
2030
0100
3002
0010
,  // measure 137
0023
1000
0230
0001
2300
0001
3200
0001
,  // measure 138
0302
0010
2003
0100
3200
1000
0302
1000
,  // measure 139
0013
0000
1000
0000
0010
0000
0001
0000
0100
0000
0001
0000
0100
0000
1000
0000
0010
0000
0100
0000
0010
0000
0100
0000
0010
0100
0010
0100
0010
0100
0010
0100
,  // measure 140
2000
0010
3002
0100
0023
1000
0230
0001
,  // measure 141
0302
0010
2003
0100
3020
0100
2030
0100
,  // measure 142
3200
0001
0320
1000
2030
0010
3200
0010
,  // measure 143
0301
0000
0010
0000
0001
0000
0100
0000
1000
0000
0100
0000
1000
0000
0010
0000
0001
0000
1000
0000
0001
0000
1000
0000
0001
1000
0001
1000
0001
1000
0001
1000
,  // measure 144
2002
0000
0000
0000
0000
0000
0000
0000
0000
0000
0000
0000
0000
0000
0000
0000
0000
0000
0000
0000
0000
0000
0000
0000
3003
0000
0000
0000
0000
0000
0000
0000
1000
0000
0001
0000
1000
0000
0001
0000
1000
0000
0001
0000
1000
0000
0001
0000
1000
0001
1000
0001
1000
0001
1000
0001
1000
0001
1000
0001
1000
0001
1000
0001
,  // measure 145
0011
0000
1000
0000
0011
0000
1000
0000
0010
0000
1000
0000
0010
1000
0010
1000
,  // measure 146
0100
0000
0001
0000
0010
0000
0001
0000
1000
0000
0100
0000
0010
0001
0010
0000
,  // measure 147
1100
0010
0001
0010
0101
0010
1000
0100
,  // measure 148
0011
0000
0100
0000
0010
0000
0100
0000
1010
0000
0100
0000
0010
0100
0010
0000
,  // measure 149
1100
0000
0001
0000
1100
0000
0001
0000
0100
0000
0001
0000
0100
0001
0100
0001
,  // measure 150
0010
0000
1000
0000
0100
0000
1000
0000
0001
0000
0010
0000
0100
1000
0100
0000
,  // measure 151
0011
0100
1000
0100
1010
0100
0001
0010
,  // measure 152
1100
0000
0010
0000
0100
0000
0010
0000
0101
0000
0010
0000
0100
0010
0100
0000
,  // measure 153
0101
0000
0010
0000
0101
0000
0010
0000
0001
0000
0010
0000
0001
0010
0001
0010
,  // measure 154
1000
0000
0100
0000
0001
0000
0100
0000
0010
0000
1000
0000
0001
0100
0001
0000
,  // measure 155
1010
0001
0100
0001
1100
0001
0010
1000
,  // measure 156
0101
0000
1000
0000
0001
0000
1000
0000
0011
0000
1000
0000
0001
1000
0001
0000
,  // measure 157
1010
0000
0100
0000
1010
0000
0100
0000
1000
0000
0100
0000
1000
0100
1000
0100
,  // measure 158
0001
0000
0010
0000
1000
0000
0010
0000
0100
0000
0001
0000
1000
0010
1000
0000
,  // measure 159
0101
1000
0010
1000
0011
1000
0100
0001
,  // measure 160
1010
0000
0001
0000
1000
0000
0001
0000
1100
0000
0001
0000
1000
0001
1000
0000
,  // measure 161
0011
0000
1000
0000
0011
0000
1000
0000
0010
0000
1000
0000
0010
1000
0010
1000
,  // measure 162
0100
0000
0001
0000
0010
0000
0001
0000
1000
0000
0100
0000
0010
0001
0010
0000
,  // measure 163
1100
0010
0001
0010
0101
0010
1000
0100
,  // measure 164
0011
0000
0100
0000
0010
0000
0100
0000
1010
0000
0100
0000
0010
0100
0010
0000
,  // measure 165
1100
0000
0001
0000
1100
0000
0001
0000
0100
0000
0001
0000
0100
0001
0100
0001
,  // measure 166
0010
0000
1000
0000
0100
0000
1000
0000
0001
0000
0010
0000
0100
1000
0100
0000
,  // measure 167
0011
0100
1000
0100
1010
0100
0001
0010
,  // measure 168
1100
0000
0010
0000
0100
0000
0010
0000
0101
0000
0010
0000
0100
0010
0100
0000
,  // measure 169
0101
0000
0010
0000
0101
0000
0010
0000
0001
0000
0010
0000
0001
0010
0001
0010
,  // measure 170
1000
0000
0100
0000
0001
0000
0100
0000
0010
0000
1000
0000
0001
0100
0001
0000
,  // measure 171
1010
0001
0100
0001
1100
0001
0010
1000
,  // measure 172
0101
0000
1000
0000
0001
0000
1000
0000
0011
0000
1000
0000
0001
1000
0001
0000
,  // measure 173
0010
0001
0100
1000
0010
0001
0100
1000
,  // measure 174
0010
0001
0100
1000
0010
0001
0100
1000
0010
0001
0100
1000
0010
0001
0100
1000
,  // measure 175
0220
0000
0000
0330
2002
0000
0000
3003
,  // measure 176
0110
0101
0110
0101
,  // measure 177
1100
0011
1100
0011
,  // measure 178
0101
1010
0101
1010
,  // measure 179
1000
0010
1000
0010
1000
0010
1000
0010
,  // measure 180
0110
1010
0110
1010
,  // measure 181
0011
1100
0011
1100
,  // measure 182
1010
0101
1010
0101
,  // measure 183
0001
0100
0001
0100
0001
0100
0001
0100
,  // measure 184
1001
0101
1001
0101
,  // measure 185
1010
0101
1010
0101
,  // measure 186
1100
0011
1100
0011
,  // measure 187
0010
0001
0010
0001
0010
0001
0010
0001
,  // measure 188
1001
1010
1001
1010
,  // measure 189
0101
1010
0101
1010
,  // measure 190
0011
1100
0011
1100
,  // measure 191
0100
1000
0100
1000
0100
1000
0100
1000
,  // measure 192
0110
0011
0110
0011
,  // measure 193
1100
0011
1100
0011
,  // measure 194
0101
1010
0101
1010
,  // measure 195
1000
0010
1000
0010
1000
0010
1000
0010
,  // measure 196
0110
1100
0110
1100
,  // measure 197
0011
1100
0011
1100
,  // measure 198
1010
0101
1010
0101
,  // measure 199
0001
0100
0001
0100
0001
0100
0001
0100
,  // measure 200
1001
0101
1001
0101
,  // measure 201
1010
0101
1010
0101
,  // measure 202
1100
0011
1100
0011
,  // measure 203
0010
0001
0010
0001
0010
0001
0010
0001
,  // measure 204
1001
1010
1001
1010
,  // measure 205
0101
1010
0101
1010
,  // measure 206
0011
1100
0011
1100
,  // measure 207
0100
1000
0100
1000
0100
1000
0100
1000
,  // measure 208
0010
0000
0100
0000
0010
0000
0100
0000
0010
0000
0100
0000
,  // measure 209
0010
0000
0100
0000
0010
0000
0100
0000
0010
0000
0100
0000
,  // measure 210
0010
0000
0100
0000
0010
0000
0100
0000
0010
0000
0100
0000
,  // measure 211
0010
0100
0010
0100
0010
0100
0010
0100
,  // measure 212
1100
0010
0101
0010
1100
0010
0101
1010
,  // measure 213
0011
0100
1010
0100
0011
0100
1010
0101
,  // measure 214
1000
0001
1000
0001
1000
0001
1000
0001
1000
0001
1000
0001
,  // measure 215
1000
0001
1000
0001
1000
0001
1000
0001
1000
0001
1000
0001
1000
0001
1000
0001
,  // measure 216
2002
0000
0000
0000
,  // measure 217
0000
0000
0000
0000
,  // measure 218
0000
0000
0000
0000
,  // measure 219
0000
0000
0000
0000
,  // measure 220
3003
0000
0000
0000
;

//---------------dance-single - Deluxe----------------
#NOTEDATA:;
#CHARTNAME:Deluxe;
#STEPSTYPE:dance-single;
#DESCRIPTION:Deluxe;
#CHARTSTYLE:;
#DIFFICULTY:Edit;
#METER:34;
#RADARVALUES:2.230380,4.909534,3.038418,0.394823,0.939850,1819.000000,1465.000000,354.000000,46.000000,0.000000,0.000000,0.000000,0.000000,0.000000,2.230380,4.909534,3.038418,0.394823,0.939850,1819.000000,1465.000000,354.000000,46.000000,0.000000,0.000000,0.000000,0.000000,0.000000;
#CREDIT:;
#DISPLAYBPM:*;
#NOTES:
// measure 0
0000
0000
0000
0000
,  // measure 1
0000
0000
0000
0000
,  // measure 2
0000
0000
0000
0000
,  // measure 3
0000
0000
0000
0000
,  // measure 4
0000
0000
0000
0000
,  // measure 5
0000
0000
0000
0000
,  // measure 6
0000
0000
0000
0000
,  // measure 7
0000
0000
0000
0000
,  // measure 8
1010
0100
0001
0100
1000
0010
0100
0010
,  // measure 9
1100
0001
0100
0010
0101
1000
0100
0010
,  // measure 10
0101
0010
1000
0010
0001
0100
0010
0100
,  // measure 11
0011
1000
0010
0100
1010
0001
0010
0100
,  // measure 12
1001
1000
0001
1000
0101
0001
0100
0001
,  // measure 13
1001
0001
1000
0001
1010
1000
0010
1000
,  // measure 14
0001
0000
0000
0000
1000
0000
0000
0000
0001
0000
0000
0000
1000
0000
0000
0000
0001
0000
0000
0000
1000
0000
0000
0000
0001
0000
0000
1000
0000
0000
0001
0000
0000
1000
0000
0000
0001
0000
0000
1000
0000
0000
0001
0000
0000
1000
0000
0000
,  // measure 15
0110
0001
1010
0000
0110
1000
0101
0000
,  // measure 16
1010
0001
1000
0000
0010
0000
0100
0000
0001
0000
0010
0000
0100
0000
0010
0000
,  // measure 17
0100
0000
0001
0000
0010
0000
0010
0000
0001
1000
0010
0000
1000
0000
1000
0000
,  // measure 18
0010
0100
0010
0100
1000
1000
0001
0001
,  // measure 19
1000
0100
0010
0001
1000
0100
0001
0010
,  // measure 20
0101
1000
0001
0000
0100
0000
0010
0000
1000
0000
0100
0000
0010
0000
0100
0000
,  // measure 21
0010
0000
1000
0000
0100
0000
0100
0000
1000
0001
0100
0000
0001
0000
0001
0000
,  // measure 22
0100
0010
0100
0010
0001
0001
1000
1000
,  // measure 23
0001
0010
0100
1000
0001
0010
1000
0100
,  // measure 24
0011
0100
0010
0000
0001
0000
1000
0000
0100
0000
0001
0000
1000
0000
0001
0000
,  // measure 25
1000
0000
0100
0000
0001
0000
0001
0000
0100
0010
0001
0000
0010
0000
0010
0000
,  // measure 26
0001
1000
0001
1000
0010
0010
0100
0100
,  // measure 27
0010
1000
0001
0100
0010
1000
0100
0001
,  // measure 28
1100
0010
0100
0000
1000
0000
0001
0000
0010
0000
1000
0000
0001
0000
1000
0000
,  // measure 29
0001
0000
0010
0000
1000
0000
1000
0000
0010
0100
1000
0000
0100
0000
0100
0000
,  // measure 30
1010
1000
0000
0101
0100
0000
1001
0001
,  // measure 31
0100
0001
1000
0010
0100
0001
0010
1000
,  // measure 32
0011
0100
0010
0100
0010
0000
1001
0001
,  // measure 33
1000
0001
0100
0000
0101
0010
0100
0010
,  // measure 34
1000
0000
1010
0100
1000
0001
1000
0000
,  // measure 35
0110
0010
1000
0001
0100
0000
1100
0010
,  // measure 36
0100
0010
0100
0000
1001
1000
0001
1000
,  // measure 37
0010
0000
1010
0100
0010
0100
0001
0000
,  // measure 38
0101
0010
0001
1000
0001
0000
0110
0100
,  // measure 39
0001
0000
1000
0000
0010
0000
0100
0000
0010
0000
0100
0000
0010
0100
0010
0100
,  // measure 40
1000
0001
1000
0000
0010
0000
0100
0000
0001
0000
0010
0000
0100
0000
0010
0000
,  // measure 41
0001
1000
0001
0000
0100
0000
0010
0000
1000
0000
0100
0000
0010
0000
0100
0000
,  // measure 42
1001
0100
1000
0001
1000
0100
1001
0010
0001
1000
0001
0010
,  // measure 43
0110
0001
0100
0010
0100
0001
0110
1000
0010
0100
0010
1000
,  // measure 44
0210
0010
0010
0010
,  // measure 45
0010
0010
0010
0010
,  // measure 46
0010
0010
0010
0010
,  // measure 47
0010
0010
0010
0010
0010
0010
0310
0000
,  // measure 48
0120
0001
0100
0000
0001
0000
0000
0100
,  // measure 49
1000
0100
0000
0000
1000
0000
0001
0100
,  // measure 50
0001
0000
0100
0000
0000
1000
0130
0001
,  // measure 51
0100
0000
0001
0000
0100
0000
1000
0000
0100
0000
0001
0000
0100
0010
0100
0000
,  // measure 52
0210
1000
0010
0000
1000
0000
0000
0010
,  // measure 53
0001
0010
0000
0000
0001
0000
1000
0010
,  // measure 54
1000
0000
0010
0000
0000
0001
0310
1000
,  // measure 55
0010
0000
1000
0000
0010
0000
0001
0000
0010
0000
1000
0000
0010
0100
0010
0000
,  // measure 56
1002
0100
1000
0000
0100
0000
0000
1000
,  // measure 57
0010
1000
0000
0000
0010
0000
0100
1000
,  // measure 58
0100
0000
1000
0000
0000
0010
1003
0100
,  // measure 59
1000
0000
0100
0000
1000
0000
0010
0000
1000
0000
0100
0000
1000
0001
1000
0000
,  // measure 60
2001
0010
0001
0000
0010
0000
0000
0001
,  // measure 61
0100
0001
0000
0000
0100
0000
0010
0001
,  // measure 62
0010
0000
0001
0000
0000
0100
3001
0010
,  // measure 63
0001
0000
0010
0000
0001
0000
0100
0000
0001
0000
0010
0000
0001
1000
0001
0000
,  // measure 64
0120
0001
0100
0000
0001
0000
0000
0100
,  // measure 65
1000
0100
0000
0000
1000
0000
0001
0100
,  // measure 66
0001
0000
0100
0000
0000
1000
0130
0001
,  // measure 67
0100
0000
0001
0000
0100
0000
1000
0000
0100
0000
0001
0000
0100
0010
0100
0000
,  // measure 68
0210
1000
0010
0000
1000
0000
0000
0010
,  // measure 69
0001
0010
0000
0000
0001
0000
1000
0010
,  // measure 70
1000
0000
0010
0000
0000
0001
0310
1000
,  // measure 71
0010
0000
1000
0000
0010
0000
0001
0000
0010
0000
1000
0000
0010
0100
0010
0000
,  // measure 72
1002
0100
1000
0000
0100
0000
0000
1000
,  // measure 73
0010
1000
0000
0000
0010
0000
0100
1000
,  // measure 74
0100
0000
1000
0000
0000
0010
1003
0100
,  // measure 75
1000
0000
0100
0000
1000
0000
0010
0000
1000
0000
0100
0000
1000
0001
1000
0000
,  // measure 76
2001
0010
0001
0000
0010
0000
0000
0001
,  // measure 77
0100
0001
0000
0000
0100
0000
0010
0001
,  // measure 78
0010
0000
0001
0000
0000
0100
0001
0010
,  // measure 79
0001
0000
0100
0010
0002
0000
0000
3003
,  // measure 80
0110
0011
1100
0110
,  // measure 81
0011
0110
1100
0101
,  // measure 82
1010
0110
0011
0110
,  // measure 83
1001
0110
0101
0110
,  // measure 84
0011
0110
0101
0011
,  // measure 85
1001
1100
0110
1100
,  // measure 86
1001
0110
0011
1001
,  // measure 87
0110
0000
0000
1010
0000
0000
1001
0000
0000
0101
0000
0000
0110
0000
0000
0000
,  // measure 88
2100
0100
0010
0001
,  // measure 89
0010
0001
0010
0100
,  // measure 90
0100
0100
0001
3010
,  // measure 91
1000
0000
0100
0000
0001
0000
0100
0000
0001
0000
0010
0000
1000
0010
1000
0010
,  // measure 92
0201
0010
1000
0010
,  // measure 93
0001
0010
1000
1300
,  // measure 94
0010
0100
0010
0000
1000
0000
0010
0000
1000
0000
0001
0000
0001
0000
0100
0000
,  // measure 95
0001
0000
0100
0000
1000
0000
0100
0000
0001
0000
0010
0100
0010
0100
0010
0000
,  // measure 96
0110
1100
0011
0110
,  // measure 97
1100
0110
0011
1010
,  // measure 98
0101
0110
1100
0110
,  // measure 99
1001
0110
1010
0110
,  // measure 100
1100
0110
1010
1100
,  // measure 101
1001
0011
0110
0011
,  // measure 102
1001
0110
1100
1001
,  // measure 103
0110
0000
0000
0101
0000
0000
1001
0000
0000
1010
0000
0000
0110
0000
0000
0000
,  // measure 104
0012
0010
0100
1000
,  // measure 105
0100
1000
0100
0010
,  // measure 106
0010
0010
1000
0103
,  // measure 107
0001
0000
0010
0000
1000
0000
0010
0000
1000
0000
0100
0000
0001
0100
0001
0100
,  // measure 108
1020
0100
0001
0100
,  // measure 109
1000
0100
0001
0031
,  // measure 110
0100
0010
0100
0000
0001
0000
0100
0000
0001
0000
1000
0000
1000
0000
0010
0000
,  // measure 111
1000
0000
0010
0000
0001
0000
0010
0000
1000
0000
0100
0010
0100
0010
0100
0000
,  // measure 112
1010
0110
0011
0110
1010
0110
0101
0110
,  // measure 113
1100
0011
0110
0101
0011
1100
0110
1010
,  // measure 114
0101
0110
1100
0110
0101
0110
1010
0110
,  // measure 115
0011
1100
0110
1010
1100
0011
0110
0101
,  // measure 116
0011
1001
0101
1001
0011
1001
1100
1001
,  // measure 117
1010
0101
1001
1100
0101
1010
1001
0011
,  // measure 118
1100
1001
1010
1001
1100
1001
0011
1001
,  // measure 119
0101
1010
1001
0011
1010
0101
1001
1100
,  // measure 120
0001
1000
0001
1000
,  // measure 121
0001
1000
0001
1000
,  // measure 122
0001
1000
0001
1000
,  // measure 123
0001
1000
0001
1000
,  // measure 124
0001
1000
0001
1000
,  // measure 125
0001
1000
0001
1000
,  // measure 126
0001
1000
0001
1000
,  // measure 127
0001
1000
0001
1000
,  // measure 128
0001
0000
1000
0000
0001
0000
1000
0000
0001
0000
1000
0000
,  // measure 129
0001
0000
1000
0000
0001
0000
1000
0000
0001
0000
1000
0000
,  // measure 130
0001
0000
1000
0000
0001
0000
1000
0000
0001
0000
1000
0000
,  // measure 131
0001
0000
1000
0000
0001
0000
1000
0000
0001
0000
1000
0000
,  // measure 132
0001
0000
1000
0000
0001
0000
1000
0000
0001
0000
1000
0000
,  // measure 133
0001
0000
1000
0000
0001
0000
1000
0000
0001
0000
1000
0000
,  // measure 134
0001
1000
0001
1000
0001
1000
0001
1000
,  // measure 135
0001
1000
0001
1000
0001
1000
0001
1000
,  // measure 136
0200
1000
0320
0001
2030
0100
3002
0010
,  // measure 137
0023
1000
0230
0001
2300
0001
3200
0001
,  // measure 138
0302
0010
2003
0100
3200
1000
0302
1000
,  // measure 139
0013
0000
1000
0000
0010
0000
0001
0000
0100
0000
0001
0000
0100
0000
1000
0000
0010
0000
0100
0000
0010
0000
0100
0000
0010
0100
0010
0100
0010
0100
0010
0100
,  // measure 140
2000
0010
3002
0100
0023
1000
0230
0001
,  // measure 141
0302
0010
2003
0100
3020
0100
2030
0100
,  // measure 142
3200
0001
0320
1000
2030
0010
3200
0010
,  // measure 143
0301
0000
0010
0000
0001
0000
0100
0000
1000
0000
0100
0000
1000
0000
0010
0000
0001
0000
1000
0000
0001
0000
1000
0000
0001
1000
0001
1000
0001
1000
0001
1000
,  // measure 144
2002
0000
0000
0000
0000
0000
0000
0000
0000
0000
0000
0000
0000
0000
0000
0000
0000
0000
0000
0000
0000
0000
0000
0000
0000
0000
0000
0000
0000
0000
0000
0000
0000
0000
0000
0000
0000
0000
0000
0000
0000
0000
0000
0000
0000
0000
0000
0000
0000
0000
0000
0000
0000
0000
0000
0000
0000
0000
0000
0000
0000
0000
0000
0000
0000
0000
0000
0000
0000
0000
0000
0000
3003
0000
0000
0000
0000
0000
0000
0000
0000
0000
0000
0000
0000
0000
0000
0000
0000
0000
0000
0000
0000
0000
0000
0000
1000
0000
0000
0000
0001
0000
0000
0000
1000
0000
0000
0000
0001
0000
0000
0000
1000
0000
0000
0000
0001
0000
0000
0000
1000
0000
0000
0000
0001
0000
0000
0000
1000
0000
0000
0000
0001
0000
0000
0000
1000
0000
0000
0000
0001
0000
0000
0000
1000
0000
0000
0001
0000
0000
1000
0000
0000
0001
0000
0000
1000
0000
0000
0001
0000
0000
1000
0000
0000
0001
0000
0000
1000
0000
0000
0001
0000
0000
1000
0000
0000
0001
0000
0000
1000
0000
0000
0001
0000
0000
1000
0000
0000
0001
0000
0000
,  // measure 145
0011
0000
1000
0000
0011
0000
1000
0000
0011
0000
1000
0000
0011
1000
0010
1000
,  // measure 146
0100
0000
0001
0000
0010
0000
0001
0000
1000
0000
0100
0000
0010
0001
0010
0001
,  // measure 147
1100
0010
0001
0010
0101
0010
1000
0100
,  // measure 148
0011
0000
0100
0000
0010
0000
0100
0000
1010
0000
0100
0000
0010
0100
0010
0100
,  // measure 149
1100
0000
0001
0000
1100
0000
0001
0000
1100
0000
0001
0000
1100
0001
0100
0001
,  // measure 150
0010
0000
1000
0000
0100
0000
1000
0000
0001
0000
0010
0000
0100
1000
0100
1000
,  // measure 151
0011
0100
1000
0100
1010
0100
0001
0010
,  // measure 152
1100
0000
0010
0000
0100
0000
0010
0000
0101
0000
0010
0000
0100
0010
0100
0010
,  // measure 153
0101
0000
0010
0000
0101
0000
0010
0000
0101
0000
0010
0000
0101
0010
0001
0010
,  // measure 154
1000
0000
0100
0000
0001
0000
0100
0000
0010
0000
1000
0000
0001
0100
0001
0100
,  // measure 155
1010
0001
0100
0001
1100
0001
0010
1000
,  // measure 156
0101
0000
1000
0000
0001
0000
1000
0000
0011
0000
1000
0000
0001
1000
0001
1000
,  // measure 157
1010
0000
0100
0000
1010
0000
0100
0000
1010
0000
0100
0000
1010
0100
1000
0100
,  // measure 158
0001
0000
0010
0000
1000
0000
0010
0000
0100
0000
0001
0000
1000
0010
1000
0010
,  // measure 159
0101
1000
0010
1000
0011
1000
0100
0001
,  // measure 160
1010
0000
0001
0000
1000
0000
0001
0000
1100
0000
0001
0000
1000
0001
1000
0001
,  // measure 161
0011
0000
1000
0000
0011
0000
1000
0000
0011
0000
1000
0000
0011
1000
0010
1000
,  // measure 162
0100
0000
0001
0000
0010
0000
0001
0000
1000
0000
0100
0000
0010
0001
0010
0001
,  // measure 163
1100
0010
0001
0010
0101
0010
1000
0100
,  // measure 164
0011
0000
0100
0000
0010
0000
0100
0000
1010
0000
0100
0000
0010
0100
0010
0100
,  // measure 165
1100
0000
0001
0000
1100
0000
0001
0000
1100
0000
0001
0000
1100
0001
0100
0001
,  // measure 166
0010
0000
1000
0000
0100
0000
1000
0000
0001
0000
0010
0000
0100
1000
0100
1000
,  // measure 167
0011
0100
1000
0100
1010
0100
0001
0010
,  // measure 168
1100
0000
0010
0000
0100
0000
0010
0000
0101
0000
0010
0000
0100
0010
0100
0010
,  // measure 169
0101
0000
0010
0000
0101
0000
0010
0000
0101
0000
0010
0000
0101
0010
0001
0010
,  // measure 170
1000
0000
0100
0000
0001
0000
0100
0000
0010
0000
1000
0000
0001
0100
0001
0100
,  // measure 171
1010
0001
0100
0001
1100
0001
0010
1000
,  // measure 172
0101
0000
1000
0000
0001
0000
1000
0000
0011
0000
1000
0000
0001
1000
0001
1000
,  // measure 173
0010
0001
0100
1000
0010
0001
0100
1000
0010
0001
0100
1000
,  // measure 174
0010
0001
0100
1000
0010
0001
0100
1000
0010
0001
0100
1000
0010
0001
0100
1000
,  // measure 175
0220
0000
0000
0330
2002
0000
0000
3003
,  // measure 176
0110
0101
0110
0101
,  // measure 177
1100
0011
1100
0011
,  // measure 178
0101
1010
0101
1010
,  // measure 179
1010
0010
1000
0010
1000
0010
1000
0010
,  // measure 180
0110
1010
0110
1010
,  // measure 181
0011
1100
0011
1100
,  // measure 182
1010
0101
1010
0101
,  // measure 183
0101
0100
0001
0100
0001
0100
0001
0100
,  // measure 184
1001
0101
1001
0101
,  // measure 185
1010
0101
1010
0101
,  // measure 186
1100
0011
1100
0011
,  // measure 187
0011
0001
0010
0001
0010
0001
0010
0001
,  // measure 188
1001
1010
1001
1010
,  // measure 189
0101
1010
0101
1010
,  // measure 190
0011
1100
0011
1100
,  // measure 191
1100
1000
0100
1000
0100
1000
0100
1000
,  // measure 192
0110
0011
0110
0011
,  // measure 193
1100
0011
1100
0011
,  // measure 194
0101
1010
0101
1010
,  // measure 195
1010
0010
1000
0010
1000
0010
1000
0010
,  // measure 196
0110
1100
0110
1100
,  // measure 197
0011
1100
0011
1100
,  // measure 198
1010
0101
1010
0101
,  // measure 199
0101
0100
0001
0100
0001
0100
0001
0100
,  // measure 200
1001
0101
1001
0101
,  // measure 201
1010
0101
1010
0101
,  // measure 202
1100
0011
1100
0011
,  // measure 203
0011
0001
0010
0001
0010
0001
0010
0001
,  // measure 204
1001
1010
1001
1010
,  // measure 205
0101
1010
0101
1010
,  // measure 206
0011
1100
0011
1100
,  // measure 207
1100
1000
0100
1000
0100
1000
0100
1000
,  // measure 208
0010
0000
0100
0000
0010
0000
0100
0000
0010
0000
0100
0000
,  // measure 209
0010
0000
0100
0000
0010
0000
0100
0000
0010
0000
0100
0000
,  // measure 210
0010
0000
0100
0000
0010
0000
0100
0000
0010
0000
0100
0000
,  // measure 211
0010
0000
0000
0100
0000
0000
0010
0000
0000
0100
0000
0000
0010
0000
0100
0000
0010
0000
0100
0000
0010
0000
0100
0000
,  // measure 212
1100
0010
0101
0011
1100
0010
0101
1010
,  // measure 213
0011
0100
1010
1100
0011
0100
1010
0101
,  // measure 214
1000
0001
1000
0001
1000
0001
1000
0001
1000
0001
1000
0001
,  // measure 215
1000
0001
1000
0001
1000
0001
1000
0001
1000
0001
1000
0001
1000
0001
1000
0001
,  // measure 216
2002
0000
0000
0000
,  // measure 217
0000
0000
0000
0000
,  // measure 218
0000
0000
0000
0000
,  // measure 219
0000
0000
0000
0000
,  // measure 220
3003
0000
0000
0000
;

//---------------dance-single - Casual----------------
#NOTEDATA:;
#CHARTNAME:Casual;
#STEPSTYPE:dance-single;
#DESCRIPTION:Casual;
#CHARTSTYLE:;
#DIFFICULTY:Edit;
#METER:29;
#RADARVALUES:1.695776,3.776565,1.338964,0.394823,0.523569,1383.000000,1227.000000,156.000000,46.000000,0.000000,0.000000,0.000000,0.000000,0.000000,1.695776,3.776565,1.338964,0.394823,0.523569,1383.000000,1227.000000,156.000000,46.000000,0.000000,0.000000,0.000000,0.000000,0.000000;
#CREDIT:;
#DISPLAYBPM:*;
#NOTES:
// measure 0
0000
0000
0000
0000
,  // measure 1
0000
0000
0000
0000
,  // measure 2
0000
0000
0000
0000
,  // measure 3
0000
0000
0000
0000
,  // measure 4
0000
0000
0000
0000
,  // measure 5
0000
0000
0000
0000
,  // measure 6
0000
0000
0000
0000
,  // measure 7
0000
0000
0000
0000
,  // measure 8
1000
0100
0001
0100
1000
0000
0100
0000
,  // measure 9
1100
0100
0101
0100
,  // measure 10
0001
0010
1000
0010
0001
0000
0010
0000
,  // measure 11
0011
0010
1010
0010
,  // measure 12
1001
1000
0001
1000
0101
0001
0100
0001
,  // measure 13
1001
0001
1000
0001
1010
1000
0010
1000
,  // measure 14
0001
0000
1000
0000
0001
0000
1000
0000
0001
0000
1000
0000
0001
1000
0001
1000
,  // measure 15
0110
1010
0110
0101
,  // measure 16
1000
0000
0010
0100
0001
0000
0100
0010
,  // measure 17
0100
0001
0010
0010
0001
0010
1000
1000
,  // measure 18
0010
0100
0010
0100
1000
1000
0001
0001
,  // measure 19
1000
0100
0010
0001
1000
0100
0001
0010
,  // measure 20
0001
0000
0100
0010
1000
0000
0010
0100
,  // measure 21
0010
1000
0100
0100
1000
0100
0001
0001
,  // measure 22
0100
0010
0100
0010
0001
0001
1000
1000
,  // measure 23
0001
0010
0100
1000
0001
0010
1000
0100
,  // measure 24
0010
0000
0001
1000
0100
0000
1000
0001
,  // measure 25
1000
0100
0001
0001
0100
0001
0010
0010
,  // measure 26
0001
1000
0001
1000
0010
0010
0100
0100
,  // measure 27
0010
1000
0001
0100
0010
1000
0100
0001
,  // measure 28
0100
0000
1000
0001
0010
0000
0001
1000
,  // measure 29
0001
0010
1000
1000
0010
1000
0100
0100
,  // measure 30
1010
1000
0000
0101
0100
0000
1001
0001
,  // measure 31
0100
0001
1000
0010
0100
0001
0010
1000
,  // measure 32
0010
0100
0010
0100
0010
0000
1000
0001
,  // measure 33
1000
0001
1000
0000
0001
0010
0100
0010
,  // measure 34
1000
0000
1000
0100
1000
0001
1000
0000
,  // measure 35
0100
0010
1000
0001
0100
0000
0100
0010
,  // measure 36
0100
0010
0100
0000
0001
1000
0001
1000
,  // measure 37
0001
0000
1000
0100
0010
0100
0001
0000
,  // measure 38
0001
0010
0001
0010
0001
0000
0010
0100
,  // measure 39
0001
1000
0010
0100
0010
0100
0010
0100
,  // measure 40
1000
1000
0010
0100
0001
0000
0100
0010
,  // measure 41
0001
0001
0100
0010
1000
0000
0010
0100
,  // measure 42
1000
0100
1000
0000
1000
0100
0001
0010
0001
0000
0001
0010
,  // measure 43
0100
0001
0100
0000
0100
0001
0010
1000
0010
0000
0010
1000
,  // measure 44
0210
0010
0010
0010
,  // measure 45
0010
0010
0010
0010
,  // measure 46
0010
0010
0010
0010
,  // measure 47
0010
0010
0010
0310
,  // measure 48
0120
0001
0100
0000
0000
0000
0000
0100
,  // measure 49
1000
0100
0000
0000
0000
0000
0001
0100
,  // measure 50
0001
0000
0000
0000
0000
1000
0130
0001
,  // measure 51
0100
0000
0100
1000
0100
0001
0100
0000
,  // measure 52
0210
1000
0010
0000
0000
0000
0000
0010
,  // measure 53
0001
0010
0000
0000
0000
0000
1000
0010
,  // measure 54
1000
0000
0000
0000
0000
0001
0310
1000
,  // measure 55
0010
0000
0010
0001
0010
1000
0010
0000
,  // measure 56
1002
0100
1000
0000
0000
0000
0000
1000
,  // measure 57
0010
1000
0000
0000
0000
0000
0100
1000
,  // measure 58
0100
0000
0000
0000
0000
0010
1003
0100
,  // measure 59
1000
0000
1000
0010
1000
0100
1000
0000
,  // measure 60
2001
0010
0001
0000
0000
0000
0000
0001
,  // measure 61
0100
0001
0000
0000
0000
0000
0010
0001
,  // measure 62
0010
0000
0000
0000
0000
0100
3001
0010
,  // measure 63
0001
0000
0001
0100
0001
0010
0001
0000
,  // measure 64
0120
0001
0100
0000
0000
0000
0000
0100
,  // measure 65
1000
0100
0000
0000
0000
0000
0001
0100
,  // measure 66
0001
0000
0000
0000
0000
1000
0130
0001
,  // measure 67
0100
0000
0100
1000
0100
0001
0100
0000
,  // measure 68
0210
1000
0010
0000
0000
0000
0000
0010
,  // measure 69
0001
0010
0000
0000
0000
0000
1000
0010
,  // measure 70
1000
0000
0000
0000
0000
0001
0310
1000
,  // measure 71
0010
0000
0010
0001
0010
1000
0010
0000
,  // measure 72
1002
0100
1000
0000
0000
0000
0000
1000
,  // measure 73
0010
1000
0000
0000
0000
0000
0100
1000
,  // measure 74
0100
0000
0000
0000
0000
0010
1003
0100
,  // measure 75
1000
0000
1000
0010
1000
0100
1000
0000
,  // measure 76
2001
0010
0001
0000
0000
0000
0000
0001
,  // measure 77
0100
0001
0000
0000
0000
0000
0010
0001
,  // measure 78
0010
0000
0000
0000
0000
0100
0001
0010
,  // measure 79
0001
0000
0100
0000
0002
0000
0000
3003
,  // measure 80
0110
0010
1100
0010
,  // measure 81
0011
0110
1100
0001
,  // measure 82
1010
0010
0011
0110
,  // measure 83
1001
0010
0101
0010
,  // measure 84
0011
0010
0101
0010
,  // measure 85
1001
0100
0100
0100
,  // measure 86
1001
0110
0011
1001
,  // measure 87
0110
0000
0000
1001
0000
0000
0110
0000
,  // measure 88
2100
0100
0010
0001
,  // measure 89
0010
0001
0010
0100
,  // measure 90
0100
0100
0001
3010
,  // measure 91
1000
0100
0001
0100
0001
0010
1000
0010
,  // measure 92
0201
0010
1000
0010
,  // measure 93
0001
0010
1000
1300
,  // measure 94
0010
0010
1000
0010
1000
0001
0001
0100
,  // measure 95
0001
0100
1000
0100
0001
0010
0100
0010
,  // measure 96
0110
0100
0011
0100
,  // measure 97
1100
0110
0011
1000
,  // measure 98
0101
0100
1100
0110
,  // measure 99
1001
0100
1010
0100
,  // measure 100
1100
0100
1010
0100
,  // measure 101
1001
0010
0010
0010
,  // measure 102
1001
0110
1100
1001
,  // measure 103
0110
0000
0000
1001
0000
0000
0110
0000
,  // measure 104
0012
0010
0100
1000
,  // measure 105
0100
1000
0100
0010
,  // measure 106
0010
0010
1000
0103
,  // measure 107
0001
0010
1000
0010
1000
0100
0001
0100
,  // measure 108
1020
0100
0001
0100
,  // measure 109
1000
0100
0001
0031
,  // measure 110
0100
0100
0001
0100
0001
1000
1000
0010
,  // measure 111
1000
0010
0001
0010
1000
0100
0010
0100
,  // measure 112
1010
0010
0000
0110
0010
0000
0101
0100
,  // measure 113
1100
0010
0110
0001
0011
0100
0110
0010
,  // measure 114
0101
0100
0000
0110
0100
0000
1010
0010
,  // measure 115
0011
0100
0110
1000
1100
0010
0110
0100
,  // measure 116
0011
0001
0000
1001
0001
0000
1100
1000
,  // measure 117
1010
0001
1001
0100
0101
1000
1001
0001
,  // measure 118
1100
1000
0000
1001
1000
0000
0011
0001
,  // measure 119
0101
1000
1001
0010
1010
0001
1001
1000
,  // measure 120
0001
1000
0001
1000
,  // measure 121
0001
1000
0001
1000
,  // measure 122
0001
1000
0001
1000
,  // measure 123
0001
1000
0001
1000
,  // measure 124
0001
1000
0001
1000
,  // measure 125
0001
1000
0001
1000
,  // measure 126
0001
1000
0001
1000
,  // measure 127
0001
1000
0001
1000
,  // measure 128
0001
1000
0001
1000
,  // measure 129
0001
1000
0001
1000
,  // measure 130
0001
1000
0001
1000
,  // measure 131
0001
1000
0001
1000
,  // measure 132
0001
1000
0001
1000
,  // measure 133
0001
1000
0001
1000
,  // measure 134
0001
1000
0001
1000
,  // measure 135
0001
0000
1000
0000
0001
1000
0001
1000
,  // measure 136
0200
0320
2030
3002
,  // measure 137
0023
0230
2300
3200
,  // measure 138
0302
2003
3200
0302
,  // measure 139
0013
0000
1000
0000
0010
0000
0001
0000
0100
0000
0001
0000
0100
0000
1000
0000
0010
0000
0100
0000
0010
0000
0100
0000
0010
0100
0010
0100
0010
0100
0010
0100
,  // measure 140
2000
3002
0023
0230
,  // measure 141
0302
2003
3020
2030
,  // measure 142
3200
0320
2030
3200
,  // measure 143
0301
0000
0010
0000
0001
0000
0100
0000
1000
0000
0100
0000
1000
0000
0010
0000
0001
0000
1000
0000
0001
0000
1000
0000
0001
1000
0001
1000
0001
1000
0001
1000
,  // measure 144
2002
0000
0000
0000
0000
0000
0000
0000
0000
0000
0000
0000
0000
0000
0000
0000
0000
0000
0000
0000
0000
0000
0000
0000
0000
0000
0000
0000
0000
0000
0000
0000
0000
0000
0000
0000
0000
0000
0000
0000
0000
0000
0000
0000
0000
0000
0000
0000
0000
0000
0000
0000
0000
0000
0000
0000
0000
0000
0000
0000
0000
0000
0000
0000
0000
0000
0000
0000
0000
0000
0000
0000
3003
0000
0000
0000
0000
0000
0000
0000
0000
0000
0000
0000
0000
0000
0000
0000
0000
0000
0000
0000
0000
0000
0000
0000
1000
0000
0000
0000
0000
0000
0001
0000
0000
0000
0000
0000
1000
0000
0000
0000
0000
0000
0001
0000
0000
0000
0000
0000
1000
0000
0000
0000
0000
0000
0001
0000
0000
0000
0000
0000
1000
0000
0000
0000
0000
0000
0001
0000
0000
0000
0000
0000
1000
0000
0000
0000
0000
0000
0001
0000
0000
0000
0000
0000
1000
0000
0000
0000
0000
0000
0001
0000
0000
0000
0000
0000
1000
0000
0000
0000
0000
0000
0001
0000
0000
0000
0000
0000
1000
0000
0000
0000
0001
0000
0000
0000
1000
0000
0000
0000
,  // measure 145
0010
1000
0010
1000
0010
1000
0010
1000
,  // measure 146
0100
0000
0001
0000
0010
0000
0001
0000
1000
0000
0100
0000
0010
0001
0010
0000
,  // measure 147
1100
0010
0001
0010
0101
0010
1000
0100
,  // measure 148
0011
0100
0010
0100
1010
0100
0010
0001
,  // measure 149
0100
0001
0100
0001
0100
0001
0100
0001
,  // measure 150
0010
0000
1000
0000
0100
0000
1000
0000
0001
0000
0010
0000
0100
1000
0100
0000
,  // measure 151
0011
0100
1000
0100
1010
0100
0001
0010
,  // measure 152
1100
0010
0100
0010
0101
0010
0100
1000
,  // measure 153
0001
0010
0001
0010
0001
0010
0001
0010
,  // measure 154
1000
0000
0100
0000
0001
0000
0100
0000
0010
0000
1000
0000
0001
0100
0001
0000
,  // measure 155
1010
0001
0100
0001
1100
0001
0010
1000
,  // measure 156
0101
1000
0001
1000
0011
1000
0001
0100
,  // measure 157
1000
0100
1000
0100
1000
0100
1000
0100
,  // measure 158
0001
0000
0010
0000
1000
0000
0010
0000
0100
0000
0001
0000
1000
0010
1000
0000
,  // measure 159
0101
1000
0010
1000
0011
1000
0100
0001
,  // measure 160
1010
0001
1000
0001
1100
0001
1000
0010
,  // measure 161
0010
1000
0010
1000
0010
1000
0010
1000
,  // measure 162
0100
0000
0001
0000
0010
0000
0001
0000
1000
0000
0100
0000
0010
0001
0010
0000
,  // measure 163
1100
0010
0001
0010
0101
0010
1000
0100
,  // measure 164
0011
0100
0010
0100
1010
0100
0010
0001
,  // measure 165
0100
0001
0100
0001
0100
0001
0100
0001
,  // measure 166
0010
0000
1000
0000
0100
0000
1000
0000
0001
0000
0010
0000
0100
1000
0100
0000
,  // measure 167
0011
0100
1000
0100
1010
0100
0001
0010
,  // measure 168
1100
0010
0100
0010
0101
0010
0100
1000
,  // measure 169
0001
0010
0001
0010
0001
0010
0001
0010
,  // measure 170
1000
0000
0100
0000
0001
0000
0100
0000
0010
0000
1000
0000
0001
0100
0001
0000
,  // measure 171
1010
0001
0100
0001
1100
0001
0010
1000
,  // measure 172
0101
1000
0001
1000
0011
1000
0001
0100
,  // measure 173
0010
0001
0100
1000
0010
0001
0100
1000
,  // measure 174
0010
0000
0001
0000
0100
0000
1000
0000
0010
0001
0100
1000
0010
0001
0100
1000
,  // measure 175
0220
0000
0000
0330
2002
0000
0000
3003
,  // measure 176
0100
0001
0100
0001
,  // measure 177
1100
0010
0100
0010
,  // measure 178
0101
0010
0101
0010
,  // measure 179
1000
0000
0010
0000
1000
0000
0010
0000
1000
0000
0010
0000
,  // measure 180
0010
1000
0010
1000
,  // measure 181
0011
0100
0010
0100
,  // measure 182
1010
0100
1010
0100
,  // measure 183
0001
0000
0100
0000
0001
0000
0100
0000
0001
0000
0100
0000
,  // measure 184
1000
0100
1000
0100
,  // measure 185
1010
0001
0010
0001
,  // measure 186
1100
0001
1100
0001
,  // measure 187
0010
0000
0001
0000
0010
0000
0001
0000
0010
0000
0001
0000
,  // measure 188
0001
0010
0001
0010
,  // measure 189
0101
1000
0100
1000
,  // measure 190
0011
1000
0011
1000
,  // measure 191
0100
0000
1000
0000
0100
0000
1000
0000
0100
0000
1000
0000
,  // measure 192
0100
0001
0100
0001
,  // measure 193
1100
0010
0100
0010
,  // measure 194
0101
0010
0101
0010
,  // measure 195
1000
0000
0010
0000
1000
0000
0010
0000
1000
0000
0010
0000
,  // measure 196
0010
1000
0010
1000
,  // measure 197
0011
0100
0010
0100
,  // measure 198
1010
0100
1010
0100
,  // measure 199
0001
0000
0100
0000
0001
0000
0100
0000
0001
0000
0100
0000
,  // measure 200
1000
0100
1000
0100
,  // measure 201
1010
0001
0010
0001
,  // measure 202
1100
0001
1100
0001
,  // measure 203
0010
0000
0001
0000
0010
0000
0001
0000
0010
0000
0001
0000
,  // measure 204
0001
0010
0001
0010
,  // measure 205
0101
1000
0100
1000
,  // measure 206
0011
1000
0011
1000
,  // measure 207
0100
0000
1000
0000
0100
0000
1000
0000
0100
0000
1000
0000
,  // measure 208
0010
0000
0100
0000
0010
0000
0100
0000
0010
0000
0100
0000
,  // measure 209
0010
0000
0100
0000
0010
0000
0100
0000
0010
0000
0100
0000
,  // measure 210
0010
0000
0100
0000
0010
0000
0100
0000
0010
0000
0100
0000
,  // measure 211
0010
0000
0100
0000
0010
0000
0100
0000
0010
0000
0100
0000
,  // measure 212
1000
0010
0001
0010
1100
0010
0101
0010
,  // measure 213
0001
0100
1000
0100
0011
0100
1010
0100
,  // measure 214
1000
0001
1000
0001
1000
0001
1000
0001
,  // measure 215
1000
0000
0000
0000
0001
0000
0000
0000
1000
0000
0000
0000
0001
0000
0000
0000
1000
0000
0000
0000
0001
0000
0000
0000
1000
0000
0000
0000
0001
0000
0000
0000
1000
0000
0000
0000
0001
0000
0000
1000
0000
0000
0001
0000
0000
1000
0000
0000
,  // measure 216
2002
0000
0000
0000
,  // measure 217
0000
0000
0000
0000
,  // measure 218
0000
0000
0000
0000
,  // measure 219
0000
0000
0000
0000
,  // measure 220
3003
0000
0000
0000
;

//---------------dance-single - Enjoy----------------
#NOTEDATA:;
#CHARTNAME:Enjoy;
#STEPSTYPE:dance-single;
#DESCRIPTION:Enjoy;
#CHARTSTYLE:;
#DIFFICULTY:Edit;
#METER:2;
#RADARVALUES:0.062534,0.283242,0.042916,0.128747,0.000000,51.000000,46.000000,5.000000,15.000000,0.000000,0.000000,0.000000,0.000000,0.000000,0.062534,0.283242,0.042916,0.128747,0.000000,51.000000,46.000000,5.000000,15.000000,0.000000,0.000000,0.000000,0.000000,0.000000;
#CREDIT:;
#DISPLAYBPM:*;
#NOTES:
// measure 0
0000
0000
0000
0000
,  // measure 1
0000
0000
0000
0000
,  // measure 2
0000
0000
0000
0000
,  // measure 3
0000
0000
0000
0000
,  // measure 4
0000
0000
0000
0000
,  // measure 5
0000
0000
0000
0000
,  // measure 6
0000
0000
0000
0000
,  // measure 7
0000
0000
0000
0000
,  // measure 8
1000
0000
0000
0000
,  // measure 9
0000
0000
0000
0000
,  // measure 10
0001
0000
0000
0000
,  // measure 11
0000
0000
0000
0000
,  // measure 12
0020
0000
0000
0000
,  // measure 13
0000
0000
0000
0000
,  // measure 14
0000
0000
0000
0000
,  // measure 15
0000
0000
0000
0030
,  // measure 16
1000
0000
0000
0000
,  // measure 17
0000
0000
0000
0000
,  // measure 18
0000
0000
0000
0000
,  // measure 19
0000
0000
0000
0000
,  // measure 20
0000
0000
0000
0000
,  // measure 21
0000
0000
0000
0000
,  // measure 22
0000
0000
0000
0000
,  // measure 23
0000
0000
0000
0000
,  // measure 24
0001
0000
0000
0000
,  // measure 25
0000
0000
0000
0000
,  // measure 26
0000
0000
0000
0000
,  // measure 27
0000
0000
0000
0000
,  // measure 28
0000
0000
0000
0000
,  // measure 29
0000
0000
0000
0000
,  // measure 30
0000
0000
0000
0000
,  // measure 31
0000
0000
0000
0000
,  // measure 32
0010
0000
0000
0000
,  // measure 33
0000
0000
0000
0000
,  // measure 34
0000
0000
0000
0000
,  // measure 35
0000
0000
0000
0000
,  // measure 36
0100
0000
0000
0000
,  // measure 37
0000
0000
0000
0000
,  // measure 38
0000
0000
0000
0000
,  // measure 39
0000
0000
0000
0000
,  // measure 40
0010
0000
0000
0000
,  // measure 41
0000
0000
0000
0000
,  // measure 42
0000
0000
0000
0000
,  // measure 43
0000
0000
0000
0000
,  // measure 44
0100
0000
0000
0000
,  // measure 45
0000
0000
0000
0000
,  // measure 46
0000
0000
0000
0000
,  // measure 47
0000
0000
0000
0000
,  // measure 48
2000
0000
0000
0000
,  // measure 49
0000
0000
0000
0000
,  // measure 50
0000
0000
0000
0000
,  // measure 51
0000
0000
0000
0000
,  // measure 52
0000
0000
0000
0000
,  // measure 53
0000
0000
0000
0000
,  // measure 54
0000
0000
0000
0000
,  // measure 55
0000
0000
0000
3000
,  // measure 56
0002
0000
0000
0000
,  // measure 57
0000
0000
0000
0000
,  // measure 58
0000
0000
0000
0000
,  // measure 59
0000
0000
0000
0000
,  // measure 60
0000
0000
0000
0000
,  // measure 61
0000
0000
0000
0000
,  // measure 62
0000
0000
0000
0000
,  // measure 63
0000
0000
0000
0003
,  // measure 64
0020
0000
0000
0000
,  // measure 65
0000
0000
0000
0000
,  // measure 66
0000
0000
0000
0000
,  // measure 67
0000
0000
0000
0000
,  // measure 68
0000
0000
0000
0000
,  // measure 69
0000
0000
0000
0000
,  // measure 70
0000
0000
0000
0000
,  // measure 71
0000
0000
0000
0030
,  // measure 72
0200
0000
0000
0000
,  // measure 73
0000
0000
0000
0000
,  // measure 74
0000
0000
0000
0000
,  // measure 75
0000
0000
0000
0000
,  // measure 76
0000
0000
0000
0000
,  // measure 77
0000
0000
0000
0000
,  // measure 78
0000
0000
0000
0000
,  // measure 79
0000
0000
0300
0000
,  // measure 80
1010
0000
0000
0000
,  // measure 81
0000
0000
0000
0000
,  // measure 82
0000
0000
0000
0000
,  // measure 83
0000
0000
0000
0000
,  // measure 84
0000
0000
0000
0000
,  // measure 85
0000
0000
0000
0000
,  // measure 86
0000
0000
0000
0000
,  // measure 87
0000
0000
0000
0000
,  // measure 88
1000
0000
0000
0000
,  // measure 89
0000
0000
0000
0000
,  // measure 90
0000
0000
0000
0000
,  // measure 91
0000
0000
0000
0000
,  // measure 92
0001
0000
0000
0000
,  // measure 93
0000
0000
0000
0000
,  // measure 94
0000
0000
0000
0000
,  // measure 95
0000
0000
0000
0000
,  // measure 96
0101
0000
0000
0000
,  // measure 97
0000
0000
0000
0000
,  // measure 98
0000
0000
0000
0000
,  // measure 99
0000
0000
0000
0000
,  // measure 100
0000
0000
0000
0000
,  // measure 101
0000
0000
0000
0000
,  // measure 102
0000
0000
0000
0000
,  // measure 103
0000
0000
0000
0000
,  // measure 104
0001
0000
0000
0000
,  // measure 105
0000
0000
0000
0000
,  // measure 106
0000
0000
0000
0000
,  // measure 107
0000
0000
0000
0000
,  // measure 108
1000
0000
0000
0000
,  // measure 109
0000
0000
0000
0000
,  // measure 110
0000
0000
0000
0000
,  // measure 111
0000
0000
0000
0000
,  // measure 112
0010
0000
0000
0000
,  // measure 113
0000
0000
0000
0000
,  // measure 114
0000
0000
0000
0000
,  // measure 115
0000
0000
0000
0000
,  // measure 116
0100
0000
0000
0000
,  // measure 117
0000
0000
0000
0000
,  // measure 118
0000
0000
0000
0000
,  // measure 119
0000
0000
0000
0000
,  // measure 120
2002
0000
0000
0000
,  // measure 121
0000
0000
0000
0000
,  // measure 122
0000
0000
0000
0000
,  // measure 123
0000
0000
0000
0000
,  // measure 124
0000
0000
0000
0000
,  // measure 125
0000
0000
0000
0000
,  // measure 126
0000
0000
0000
0000
,  // measure 127
0000
0000
0000
0000
,  // measure 128
0000
0000
0000
0000
,  // measure 129
0000
0000
0000
0000
,  // measure 130
0000
0000
0000
0000
,  // measure 131
0000
0000
0000
0000
,  // measure 132
0000
0000
0000
0000
,  // measure 133
0000
0000
0000
0000
,  // measure 134
0000
0000
0000
0000
,  // measure 135
0000
0000
3003
0000
,  // measure 136
0200
0000
0000
0000
,  // measure 137
0000
0000
0000
0000
,  // measure 138
0000
0000
0000
0000
,  // measure 139
0000
0000
0000
0300
,  // measure 140
0020
0000
0000
0000
,  // measure 141
0000
0000
0000
0000
,  // measure 142
0000
0000
0000
0000
,  // measure 143
0000
0000
0000
0030
,  // measure 144
0100
0000
0100
0000
,  // measure 145
1000
0000
0000
0000
,  // measure 146
0000
0000
0000
0000
,  // measure 147
0000
0000
0000
0000
,  // measure 148
0000
0000
0000
0000
,  // measure 149
0001
0000
0000
0000
,  // measure 150
0000
0000
0000
0000
,  // measure 151
0000
0000
0000
0000
,  // measure 152
0000
0000
0000
0000
,  // measure 153
0001
0000
0000
0000
,  // measure 154
0000
0000
0000
0000
,  // measure 155
0000
0000
0000
0000
,  // measure 156
0000
0000
0000
0000
,  // measure 157
1000
0000
0000
0000
,  // measure 158
0000
0000
0000
0000
,  // measure 159
0000
0000
0000
0000
,  // measure 160
0000
0000
0000
0000
,  // measure 161
0010
0000
0000
0000
,  // measure 162
0000
0000
0000
0000
,  // measure 163
0000
0000
0000
0000
,  // measure 164
0000
0000
0000
0000
,  // measure 165
0100
0000
0000
0000
,  // measure 166
0000
0000
0000
0000
,  // measure 167
0000
0000
0000
0000
,  // measure 168
0000
0000
0000
0000
,  // measure 169
0100
0000
0000
0000
,  // measure 170
0000
0000
0000
0000
,  // measure 171
0000
0000
0000
0000
,  // measure 172
0000
0000
0000
0000
,  // measure 173
0010
0000
0000
0000
,  // measure 174
0000
0000
0000
0000
,  // measure 175
2002
0000
0000
3003
,  // measure 176
1000
0000
0000
0000
,  // measure 177
0000
0000
0000
0000
,  // measure 178
0000
0000
0000
0000
,  // measure 179
0000
0000
0000
0000
,  // measure 180
1000
0000
0000
0000
,  // measure 181
0000
0000
0000
0000
,  // measure 182
0000
0000
0000
0000
,  // measure 183
0000
0000
0000
0000
,  // measure 184
1000
0000
0000
0000
,  // measure 185
0000
0000
0000
0000
,  // measure 186
0000
0000
0000
0000
,  // measure 187
0000
0000
0000
0000
,  // measure 188
1000
0000
0000
0000
,  // measure 189
0000
0000
0000
0000
,  // measure 190
0000
0000
0000
0000
,  // measure 191
0000
0000
0000
0000
,  // measure 192
0001
0000
0000
0000
,  // measure 193
0000
0000
0000
0000
,  // measure 194
0000
0000
0000
0000
,  // measure 195
0000
0000
0000
0000
,  // measure 196
0001
0000
0000
0000
,  // measure 197
0000
0000
0000
0000
,  // measure 198
0000
0000
0000
0000
,  // measure 199
0000
0000
0000
0000
,  // measure 200
0001
0000
0000
0000
,  // measure 201
0000
0000
0000
0000
,  // measure 202
0000
0000
0000
0000
,  // measure 203
0000
0000
0000
0000
,  // measure 204
0001
0000
0000
0000
,  // measure 205
0000
0000
0000
0000
,  // measure 206
0000
0000
0000
0000
,  // measure 207
0000
0000
0000
0000
,  // measure 208
2002
0000
0000
0000
,  // measure 209
0000
0000
0000
0000
,  // measure 210
0000
0000
0000
0000
,  // measure 211
0000
0000
0000
3003
,  // measure 212
0020
0000
0000
0000
,  // measure 213
0000
0000
0000
0000
,  // measure 214
0000
0000
0000
0000
,  // measure 215
0000
0000
0000
0000
,  // measure 216
0200
0000
0000
0000
,  // measure 217
0000
0000
0000
0000
,  // measure 218
0000
0000
0000
0000
,  // measure 219
0000
0000
0000
0000
,  // measure 220
0330
0000
0000
0000
;

//---------------dance-single - Hell----------------
#NOTEDATA:;
#CHARTNAME:;
#STEPSTYPE:dance-single;
#DESCRIPTION:Hell;
#CHARTSTYLE:;
#DIFFICULTY:Edit;
#METER:50;
#RADARVALUES:3.371933,8.591684,5.312940,2.248773,2.351770,2750.000000,2131.000000,619.000000,262.000000,0.000000,0.000000,0.000000,0.000000,0.000000,3.371933,8.591684,5.312940,2.248773,2.351770,2750.000000,2131.000000,619.000000,262.000000,0.000000,0.000000,0.000000,0.000000,0.000000;
#CREDIT:;
#DISPLAYBPM:*;
#NOTES:
// measure 0
0000
0000
0000
0000
,  // measure 1
0000
0000
0000
0000
,  // measure 2
0000
0000
0000
0000
,  // measure 3
0000
0000
0000
0000
,  // measure 4
0000
0000
0000
0000
,  // measure 5
0000
0000
0000
0000
,  // measure 6
0000
0000
0000
0000
,  // measure 7
0000
0000
0000
0000
,  // measure 8
1100
0110
0101
0110
1100
0010
0100
0010
,  // measure 9
1010
0010
0101
0010
1010
0101
1010
1100
,  // measure 10
0011
0110
1010
0110
0011
0100
0010
0100
,  // measure 11
0101
0100
1010
0100
0101
1010
0101
0011
,  // measure 12
2001
0100
0010
0100
0001
0010
0100
3010
,  // measure 13
1002
0010
0100
0010
1000
0100
0010
0103
,  // measure 14
1100
0000
0011
0000
1100
0000
0011
0000
1100
0000
0011
0000
1100
0011
1100
0011
,  // measure 15
0220
0330
2200
3300
0022
0033
2002
3003
,  // measure 16
1010
0100
0011
0100
1010
0100
0011
1000
,  // measure 17
0110
0011
0110
0011
1100
0011
0110
1010
,  // measure 18
2100
3100
0210
0310
0021
0031
1002
1003
,  // measure 19
1020
0230
0302
0023
2030
3200
0320
0031
,  // measure 20
0101
0010
1100
0010
0101
0010
1100
0001
,  // measure 21
0110
1100
0110
1100
0011
1100
0110
0101
,  // measure 22
0012
0013
0120
0130
1200
1300
2001
3001
,  // measure 23
0201
0320
2030
3200
0302
0023
0230
1300
,  // measure 24
0011
1000
0101
1000
0011
1000
0101
0010
,  // measure 25
1001
0101
1001
0101
1010
0101
1001
0011
,  // measure 26
1020
1030
2001
3001
0102
0103
0210
0310
,  // measure 27
0012
2003
3200
0302
0023
2030
3002
0103
,  // measure 28
1100
0001
1010
0001
1100
0001
1010
0100
,  // measure 29
1001
1010
1001
1010
0101
1010
1001
1100
,  // measure 30
0201
0301
1002
1003
2010
3010
0120
0130
,  // measure 31
2100
3002
0023
2030
3200
0302
2003
3010
,  // measure 32
0110
1001
0110
1001
0110
0000
1100
0011
,  // measure 33
1100
0011
1100
0000
0011
0110
1100
0110
,  // measure 34
2002
3003
1100
1010
1001
1010
2002
3003
,  // measure 35
0010
0100
1000
0001
0010
0100
1000
0100
0010
1000
0001
0100
0110
0000
0011
0000
,  // measure 36
0110
1100
0110
0000
0011
1100
0011
1100
,  // measure 37
0011
0000
1100
0110
0011
0110
2002
3003
,  // measure 38
0011
0110
0011
0110
2002
3003
1001
0110
,  // measure 39
1000
0001
1000
0001
1000
0001
1100
0011
1100
0011
1100
0011
,  // measure 40
1100
0001
1100
0000
0010
0000
0001
0000
0010
0000
0100
0000
0001
0010
0100
1000
,  // measure 41
0011
1000
0011
0000
0100
0000
1000
0000
0100
0000
0010
0000
1000
0100
0010
0001
,  // measure 42
1100
0011
0101
1100
1010
1100
0011
1100
1010
0011
0101
0011
,  // measure 43
1010
0101
1100
1010
0011
1010
0101
1010
0011
0101
1100
0101
,  // measure 44
0120
0100
0100
0100
0100
0100
0100
0100
,  // measure 45
0100
0100
0100
0100
0100
0100
0100
0100
,  // measure 46
0100
0100
0100
0100
0100
0100
0100
0100
,  // measure 47
0100
0100
0100
0100
0100
0100
0100
0130
,  // measure 48
2100
0001
0010
0100
0010
0001
0100
0010
,  // measure 49
0100
0001
0010
0001
0100
0010
0100
0001
,  // measure 50
0100
0100
0001
0001
0100
0100
0001
0001
,  // measure 51
0001
0010
0100
0000
0001
0100
0010
0000
0100
0001
0010
0000
0100
0001
3010
0000
,  // measure 52
0012
1000
0100
0010
0100
1000
0010
0100
,  // measure 53
0010
1000
0100
1000
0010
0100
0010
1000
,  // measure 54
0010
0010
1000
1000
0010
0010
1000
1000
,  // measure 55
1000
0100
0010
0000
1000
0010
0100
0000
0010
1000
0100
0000
0010
1000
0103
0000
,  // measure 56
1020
0100
0001
1000
0001
0100
1000
0001
,  // measure 57
1000
0100
0001
0100
1000
0001
1000
0100
,  // measure 58
1000
1000
0100
0100
1000
1000
0100
0100
,  // measure 59
0100
0001
1000
0000
0100
1000
0001
0000
1000
0100
0001
0000
1000
0100
0031
0000
,  // measure 60
0201
0010
1000
0001
1000
0010
0001
1000
,  // measure 61
0001
0010
1000
0010
0001
1000
0001
0010
,  // measure 62
0001
0001
0010
0010
0001
0001
0010
0010
,  // measure 63
0010
1000
0001
0000
0010
0001
1000
0000
0001
0010
1000
0000
0001
0010
1300
0000
,  // measure 64
2100
0010
0001
0000
0010
0000
0100
0000
0010
0000
0001
0000
0100
0000
0010
0000
,  // measure 65
0100
0001
0010
0001
0100
0010
0100
0001
,  // measure 66
0100
0100
0001
0001
0100
0100
0001
0001
,  // measure 67
0001
0010
0100
0000
0001
0100
0010
0000
0100
0001
0010
0000
0100
0001
3010
0000
,  // measure 68
0012
0100
1000
0000
0100
0000
0010
0000
0100
0000
1000
0000
0010
0000
0100
0000
,  // measure 69
0010
1000
0100
1000
0010
0100
0010
1000
,  // measure 70
0010
0010
1000
1000
0010
0010
1000
1000
,  // measure 71
1000
0100
0010
0000
1000
0010
0100
0000
0010
1000
0100
0000
0010
1000
0103
0000
,  // measure 72
1020
0001
0100
0000
0001
0000
1000
0000
0001
0000
0100
0000
1000
0000
0001
0000
,  // measure 73
1000
0100
0001
0100
1000
0001
1000
0100
,  // measure 74
1000
1000
0100
0100
1000
1000
0100
0100
,  // measure 75
0100
0001
1000
0000
0100
1000
0001
0000
1000
0100
0001
0000
1000
0100
0031
0000
,  // measure 76
0201
1000
0010
0000
1000
0000
0001
0000
1000
0000
0010
0000
0001
0000
1000
0000
,  // measure 77
0001
0010
1000
0010
0001
1000
0001
0010
,  // measure 78
0001
0001
0010
0010
0001
0001
0010
0010
,  // measure 79
0010
1000
0001
0000
0010
0001
1000
0000
0001
0010
1000
0000
0001
0010
1300
0000
,  // measure 80
0202
0303
2020
3030
0220
0330
0202
0303
,  // measure 81
1010
0110
0101
0110
1010
0110
0101
1010
,  // measure 82
0202
0303
0220
0330
0202
0303
2020
3030
,  // measure 83
1010
0110
0011
0110
1100
0110
0011
1010
,  // measure 84
0201
0001
1000
1300
,  // measure 85
1000
0100
0010
0001
1000
0100
0010
0001
1000
0100
0010
0001
1000
0100
0010
0001
,  // measure 86
2100
0100
0010
3010
,  // measure 87
0010
1000
0001
0100
0010
1000
0001
0100
0010
1000
0001
0100
0010
1000
0001
0100
,  // measure 88
0020
0100
1000
0000
1000
0100
1000
0000
,  // measure 89
0230
0010
0001
0010
0001
0010
1000
0010
,  // measure 90
0302
0010
0100
1000
0100
1000
0010
0100
,  // measure 91
2003
0100
0010
0001
0100
0010
0001
0100
,  // measure 92
3002
0010
0100
0010
0100
0010
0100
0010
,  // measure 93
2003
0100
0010
0100
0010
0100
0010
0100
,  // measure 94
3002
1000
0010
1000
0010
1000
0010
1003
,  // measure 95
1020
0100
0001
0000
1000
0100
0001
0000
1000
0100
0001
0000
1000
0100
0031
0000
,  // measure 96
2020
3030
0202
0303
0220
0330
2020
3030
,  // measure 97
0101
0110
1010
0110
0101
0110
1010
0101
,  // measure 98
2020
3030
0220
0330
2020
3030
0202
0303
,  // measure 99
0101
0110
1100
0110
0011
0110
1100
0101
,  // measure 100
1020
1000
0001
0031
,  // measure 101
0001
0010
0100
1000
0001
0010
0100
1000
0001
0010
0100
1000
0001
0010
0100
1000
,  // measure 102
0012
0010
0100
0103
,  // measure 103
0100
0001
1000
0010
0100
0001
1000
0010
0100
0001
1000
0010
0100
0001
1000
0010
,  // measure 104
0200
0010
0001
0000
0001
0010
0001
0000
,  // measure 105
0320
0100
1000
0100
1000
0100
0001
0100
,  // measure 106
2030
0100
0010
0001
0010
0001
0100
0010
,  // measure 107
3002
0010
0100
1000
0010
0100
1000
0010
,  // measure 108
2003
0100
0010
0100
0010
0100
0010
0100
,  // measure 109
3002
0010
0100
0010
0100
0010
0100
0010
,  // measure 110
2003
0001
0100
0001
0100
0001
0100
3001
,  // measure 111
0201
0010
1000
0000
0001
0010
1000
0000
0001
0010
1000
0000
0001
0010
1300
0000
,  // measure 112
2010
3010
0012
0013
0000
0000
0120
0032
2003
3000
0000
0000
0201
2300
3200
0300
,  // measure 113
0011
0000
0101
0000
0011
0000
0101
0000
0110
0000
1010
0000
0110
0000
1010
0000
0011
0000
1010
0000
0011
0000
1010
0000
0011
0000
1100
0000
0011
1100
0011
1100
,  // measure 114
0102
0103
2100
3100
0000
0000
0210
2300
3002
0003
0000
0000
1020
0032
0023
0030
,  // measure 115
1100
0000
1010
0000
1100
0000
1010
0000
0110
0000
0101
0000
0110
0000
0101
0000
1100
0000
0101
0000
1100
0000
0101
0000
1100
0000
0011
0000
1100
0011
1100
0011
,  // measure 116
2010
3010
0012
0013
0000
0000
0120
0032
2003
3000
0000
0000
0201
2300
3200
0300
,  // measure 117
0011
0000
0101
0000
0011
0000
0101
0000
0110
0000
1010
0000
0110
0000
1010
0000
0011
0000
1010
0000
0011
0000
1010
0000
0011
0000
1100
0000
0011
1100
0011
1100
,  // measure 118
0102
0103
2100
3100
0000
0000
0210
2300
3002
0003
0000
0000
1020
0032
0023
0030
,  // measure 119
1100
0000
1010
0000
1100
0000
1010
0000
0110
0000
0101
0000
0110
0000
0101
0000
1100
0000
0101
0000
1100
0000
0101
0000
1100
0000
0011
0000
1100
0011
1100
0011
,  // measure 120
1000
0100
0001
0010
1000
0100
0001
0010
,  // measure 121
0001
0010
1000
0100
0001
0010
1000
0100
,  // measure 122
0010
1000
0100
0001
0010
1000
0100
0001
,  // measure 123
0100
0001
0010
1000
0100
0001
0010
1000
,  // measure 124
0001
0010
1000
0100
0001
0010
1000
0100
,  // measure 125
1000
0100
0001
0010
1000
0100
0001
0010
,  // measure 126
0100
0001
0010
1000
0100
0001
0010
1000
,  // measure 127
0010
1000
0100
0001
0010
1000
0100
0001
,  // measure 128
0010
1000
0100
0001
0010
1000
0100
0001
,  // measure 129
0100
0001
0010
1000
0100
0001
0010
1000
,  // measure 130
0001
0010
1000
0100
0001
0010
1000
0100
,  // measure 131
1000
0100
0001
0010
1000
0100
0001
0010
,  // measure 132
0100
0001
0010
1000
0100
0001
0010
1000
,  // measure 133
0010
1000
0100
0001
0010
1000
0100
0001
,  // measure 134
1000
0100
0001
0010
1000
0100
0001
0010
,  // measure 135
0001
0010
1000
0100
0001
0010
1000
0100
,  // measure 136
2000
3200
0320
2030
3200
0320
0032
2003
3020
0230
0320
0230
0320
0230
0302
0203
,  // measure 137
0320
0230
0320
2030
3200
0320
0032
2003
3020
0230
0320
2030
3020
2030
3002
2003
,  // measure 138
3200
0302
2003
3002
0203
2300
3020
2030
3002
0203
2300
3002
2003
3200
2300
3000
,  // measure 139
0110
0001
0110
1000
0110
0001
0110
1000
1010
0100
0101
0010
1010
0100
0101
0010
1100
0110
1100
0101
1100
0110
1100
0101
1010
0101
1010
0101
1010
0101
1010
0101
,  // measure 140
0002
0023
0230
0302
0023
0230
2300
3002
0203
0320
0230
0320
0230
0320
2030
3020
,  // measure 141
0230
0320
0230
0302
0023
0230
2300
3002
0203
0320
0230
0302
0203
0302
2003
3002
,  // measure 142
0023
2030
3002
2003
3020
0032
0203
0302
2003
3020
0032
2003
3002
0023
0032
0003
,  // measure 143
0110
1000
0110
0001
0110
1000
0110
0001
0101
0010
1010
0100
0101
0010
1010
0100
0011
0110
0011
1010
0011
0110
0011
1010
0101
1010
0101
1010
0101
1010
0101
1010
,  // measure 144
2002
0000
0000
0000
0000
0000
0000
0000
0000
0000
0000
0000
0000
0000
0000
0000
0000
0000
0000
0000
0000
0000
0000
0000
3003
0000
0000
0000
0000
0000
0000
0000
1000
0001
1000
0001
1000
0001
1000
0001
1000
0001
1000
0001
1000
0001
1000
0001
1000
0001
1000
0001
1000
0001
1000
0001
1000
0001
1000
0001
1000
0001
1000
0001
,  // measure 145
0020
0000
0100
1000
0001
0000
0100
0001
1000
0000
0001
0000
0100
0001
1000
0130
,  // measure 146
1001
0000
0110
0000
1010
0000
0101
0000
0011
0000
0110
0000
1001
0110
1001
0110
,  // measure 147
0001
0010
0100
1000
0011
1000
0011
1000
0001
0010
0100
1000
0011
1000
0011
1000
,  // measure 148
0001
0010
0100
1000
0110
1000
0110
1000
0001
0010
0100
1000
0110
1000
0110
1000
,  // measure 149
0200
0000
0010
0001
1000
0000
0010
1000
0001
0000
1000
0000
0010
1000
0001
0310
,  // measure 150
1001
0000
0110
0000
0101
0000
1010
0000
1100
0000
0110
0000
1001
0110
1001
0110
,  // measure 151
1000
0100
0010
0001
1100
0001
1100
0001
1000
0100
0010
0001
1100
0001
1100
0001
,  // measure 152
1000
0100
0010
0001
0110
0001
0110
0001
1000
0100
0010
0001
0110
0001
0110
0001
,  // measure 153
0002
0000
1000
0010
0100
0000
1000
0100
0010
0000
0100
0000
1000
0100
0010
1003
,  // measure 154
0110
0000
1001
0000
0011
0000
1100
0000
0101
0000
1001
0000
0110
1001
0110
1001
,  // measure 155
0100
0001
1000
0010
0101
0010
0101
0010
0100
0001
1000
0010
0101
0010
0101
0010
,  // measure 156
0100
0001
1000
0010
1001
0010
1001
0010
0100
0001
1000
0010
1001
0010
1001
0010
,  // measure 157
2000
0000
0001
0100
0010
0000
0001
0010
0100
0000
0010
0000
0001
0010
0100
3001
,  // measure 158
0110
0000
1001
0000
1100
0000
0011
0000
1010
0000
1001
0000
0110
1001
0110
1001
,  // measure 159
0010
1000
0001
0100
1010
0100
1010
0100
0010
1000
0001
0100
1010
0100
1010
0100
,  // measure 160
0010
1000
0001
0100
1001
0100
1001
0100
0010
1000
0001
0100
1001
0100
1001
0100
,  // measure 161
0020
0000
0100
1000
0001
0000
0100
0001
1000
0000
0001
0000
0100
0001
1000
0130
,  // measure 162
1001
0000
0110
0000
1010
0000
0101
0000
0011
0000
0110
0000
1001
0110
1001
0110
,  // measure 163
0001
0010
0100
1000
0011
1000
0011
1000
0001
0010
0100
1000
0011
1000
0011
1000
,  // measure 164
0001
0010
0100
1000
0110
1000
0110
1000
0001
0010
0100
1000
0110
1000
0110
1000
,  // measure 165
0200
0000
0010
0001
1000
0000
0010
1000
0001
0000
1000
0000
0010
1000
0001
0310
,  // measure 166
1001
0000
0110
0000
0101
0000
1010
0000
1100
0000
0110
0000
1001
0110
1001
0110
,  // measure 167
1000
0100
0010
0001
1100
0001
1100
0001
1000
0100
0010
0001
1100
0001
1100
0001
,  // measure 168
1000
0100
0010
0001
0110
0001
0110
0001
1000
0100
0010
0001
0110
0001
0110
0001
,  // measure 169
0002
0000
1000
0010
0100
0000
1000
0100
0010
0000
0100
0000
1000
0100
0010
1003
,  // measure 170
0110
0000
1001
0000
0011
0000
1100
0000
0101
0000
1001
0000
0110
1001
0110
1001
,  // measure 171
0100
0001
1000
0010
0101
0010
0101
0010
0100
0001
1000
0010
0101
0010
0101
0010
,  // measure 172
0100
0001
1000
0010
1001
0010
1001
0010
0100
0001
1000
0010
1001
0010
1001
0010
,  // measure 173
0100
0010
1000
0001
0100
0010
1000
0001
0100
0010
1000
0001
0100
0010
1000
0001
,  // measure 174
0100
0010
1000
0001
0100
0010
1000
0001
0100
0010
1000
0001
0100
0010
1000
0001
,  // measure 175
2002
0000
0000
0000
0000
0000
0000
0000
0000
0000
0000
0000
3003
0000
0000
0000
1000
0100
0010
0001
1000
0100
0010
0001
1000
0100
0010
0001
1000
0100
0010
0001
,  // measure 176
1100
0011
1100
0011
0100
0010
1000
0001
,  // measure 177
1000
0100
0010
0001
1000
0100
0010
0001
,  // measure 178
0010
0100
0001
0010
1000
0001
0100
1000
,  // measure 179
0101
0011
0110
1010
0101
0011
0101
1100
,  // measure 180
0011
1100
0011
1100
0010
0100
0001
1000
,  // measure 181
0001
0010
0100
1000
0001
0010
0100
1000
,  // measure 182
0100
0010
1000
0100
0001
1000
0010
0001
,  // measure 183
1010
1100
0110
0101
1010
1100
1010
0011
,  // measure 184
1010
0101
1010
0101
1000
0001
0010
0100
,  // measure 185
0010
1000
0001
0100
0010
1000
0001
0100
,  // measure 186
0001
1000
0100
0001
0010
0100
1000
0010
,  // measure 187
1100
0101
1001
0011
1100
0101
1100
1010
,  // measure 188
0101
1010
0101
1010
0001
1000
0100
0010
,  // measure 189
0100
0001
1000
0010
0100
0001
1000
0010
,  // measure 190
1000
0001
0010
1000
0100
0010
0001
0100
,  // measure 191
0011
1010
1001
1100
0011
1010
0011
0101
,  // measure 192
1100
0011
1100
0011
0100
0010
1000
0001
,  // measure 193
1000
0100
0010
0001
1000
0100
0010
0001
,  // measure 194
0010
0100
0001
0010
1000
0001
0100
1000
,  // measure 195
0101
0011
0110
1010
0101
0011
0101
1100
,  // measure 196
0011
1100
0011
1100
0010
0100
0001
1000
,  // measure 197
0001
0010
0100
1000
0001
0010
0100
1000
,  // measure 198
0100
0010
1000
0100
0001
1000
0010
0001
,  // measure 199
1010
1100
0110
0101
1010
1100
1010
0011
,  // measure 200
1010
0101
1010
0101
1000
0001
0010
0100
,  // measure 201
0010
1000
0001
0100
0010
1000
0001
0100
,  // measure 202
0001
1000
0100
0001
0010
0100
1000
0010
,  // measure 203
1100
0101
1001
0011
1100
0101
1100
1010
,  // measure 204
0101
1010
0101
1010
0001
1000
0100
0010
,  // measure 205
0100
0001
1000
0010
0100
0001
1000
0010
,  // measure 206
1000
0001
0010
1000
0100
0010
0001
0100
,  // measure 207
0011
1010
1001
1100
0011
1010
0011
0101
,  // measure 208
0010
0100
0010
0100
0010
0100
0010
0100
0010
0100
0010
0100
0010
0100
0010
0100
,  // measure 209
0010
0100
0010
0100
0010
0100
0010
0100
0010
0100
0010
0100
0010
0100
0010
0100
,  // measure 210
0010
0100
0010
0100
0010
0100
0010
0100
0010
0100
0010
0100
0010
0100
0010
0100
,  // measure 211
0010
0100
0010
0100
0010
0100
0010
0100
0010
0100
0010
0100
0010
0100
0010
0100
,  // measure 212
0011
0110
1001
0110
1010
0101
0010
0100
0001
0010
0100
1000
,  // measure 213
1100
0110
1001
0110
0101
1010
0100
0010
1000
0100
0010
0001
,  // measure 214
1000
0100
0010
0001
1000
0100
0010
0001
1000
0100
0010
0001
1000
0100
0010
0001
,  // measure 215
1000
0000
0000
0000
0000
0000
0000
0000
0100
0000
0000
0000
0000
0000
0000
0000
0010
0000
0000
0000
0000
0000
0000
0000
0001
0000
0000
0000
0000
0000
0000
0000
1000
0000
0000
0000
0000
0000
0000
0000
0100
0000
0000
0000
0000
0000
0000
0000
0010
0000
0000
0000
0000
0000
0000
0000
0001
0000
0000
0000
0000
0000
0000
0000
1000
0000
0000
0000
0000
0000
0000
0000
0100
0000
0000
0000
0000
0000
0000
0000
0011
0000
0000
0000
0000
0000
0000
0000
1000
0000
0000
0000
0000
0000
0000
0000
0100
0000
0000
0000
0000
0000
0000
0000
0010
0000
0000
0000
0000
0000
0000
0000
0001
0000
0000
0000
0000
0000
0000
0000
1000
0000
0000
0000
0000
0000
0000
0000
0100
0000
0000
0000
0000
0000
0000
0000
0010
0000
0000
0000
0000
0000
0000
0000
0001
0000
0000
0000
0000
0000
1000
0000
0000
0000
0000
0000
0010
0000
0000
0000
0000
0000
0100
0000
0000
0000
0000
0000
1000
0000
0000
0000
0000
0000
0001
0000
0000
0000
0000
0000
0010
0000
0000
0000
0000
0000
0100
0000
0000
0000
0000
0000
,  // measure 216
2002
0000
0000
0000
,  // measure 217
0000
0000
0000
0000
,  // measure 218
0000
0000
0000
0000
,  // measure 219
0000
0000
0000
0000
,  // measure 220
3003
0000
0000
0000
;
