#VERSION:0.83;
#TITLE:Breaking Dawn;
#SUBTITLE:feat. 棗いつき;
#ARTIST:Getty & Kobaryo;
#TITLETRANSLIT:;
#SUBTITLETRANSLIT:;
#ARTISTTRANSLIT:;
#GENRE:;
#ORIGIN:;
#CREDIT:;
#BANNER:;
#BACKGROUND:;
#PREVIEWVID:;
#JACKET:;
#CDIMAGE:;
#DISCIMAGE:;
#LYRICSPATH:;
#CDTITLE:;
#MUSIC:Breaking Dawn.ogg;
#OFFSET:-0.419000;
#SAMPLESTART:0.419000;
#SAMPLELENGTH:15.000000;
#SELECTABLE:YES;
#BPMS:0.000=180.000;
#STOPS:;
#DELAYS:;
#WARPS:;
#TIMESIGNATURES:0.000=4=4;
#TICKCOUNTS:0.000=4;
#COMBOS:0.000=1;
#SPEEDS:0.000=1.000=0.000=0;
#SCROLLS:0.000=1.000;
#FAKES:;
#LABELS:0.000=Song Start;
#BGCHANGES:;
#KEYSOUNDS:;
#ATTACKS:
;

//---------------dance-single - ----------------
#NOTEDATA:;
#CHARTNAME:;
#STEPSTYPE:dance-single;
#DESCRIPTION:;
#CHARTSTYLE:;
#DIFFICULTY:Easy;
#METER:5;
#RADARVALUES:0.199812,0.290311,0.024032,0.120162,0.000000,291.000000,286.000000,5.000000,25.000000,0.000000,0.000000,0.000000,0.000000,0.000000,0.199812,0.290311,0.024032,0.120162,0.000000,291.000000,286.000000,5.000000,25.000000,0.000000,0.000000,0.000000,0.000000,0.000000;
#CREDIT:;
#NOTES:
0000
0000
0000
0000
,
0000
0000
0000
0000
,
0000
0000
0000
0000
,
0000
0000
0000
0000
,
0000
0000
0000
0000
,
0010
0000
0010
0000
,
1000
0000
1000
0000
,
0010
0000
0010
0000
,
0001
0000
0001
0000
,
0100
0000
0100
0000
,
0001
0000
0001
0000
,
0100
0000
0100
0000
,
1000
0000
1000
0000
,
0020
0000
0000
0000
,
0000
0000
0000
0030
,
0002
0000
0000
0000
,
0000
0000
0000
0003
,
2000
0000
0000
0000
,
0000
0000
0000
3000
,
0020
0000
0000
0000
,
0000
0000
0000
0030
,
0010
0000
0010
0000
,
0010
0000
0010
0000
,
0010
1000
0010
0000
,
0010
0001
0010
0000
,
0100
0001
0100
0000
,
0100
1000
0100
0000
,
0001
0010
0001
0000
,
0001
0100
0001
0000
,
1000
0100
1000
0000
,
1000
0010
1000
0000
,
0010
1000
0010
0000
,
0100
0001
0100
0000
,
0001
0010
0001
0000
,
1000
0100
1000
0000
,
0020
0000
0000
0000
,
0000
0000
0000
0000
,
0000
0000
0000
0000
,
0000
0000
0000
0030
,
2000
0000
3010
0000
,
0002
0000
0103
0000
,
0020
0000
0031
0000
,
0200
0000
1300
0000
,
2000
0000
3010
0000
,
0002
0000
0103
0000
,
0020
0000
0031
0000
,
0200
0000
1300
0000
,
0001
0000
0100
1000
,
1000
0000
0010
0001
,
0100
0000
1000
0010
,
0010
0000
0001
0100
,
1010
0000
0000
0000
,
1010
0000
0000
0000
,
0101
0000
0000
0000
,
0101
0000
0000
0000
,
2000
0000
0000
0000
,
0000
0000
0000
3000
,
0002
0000
0000
0000
,
0000
0000
0000
0003
,
0020
0000
0000
0000
,
0000
0000
0000
0030
,
0200
0000
0000
0000
,
0000
0000
0000
0300
,
0010
0000
0010
0000
,
1000
0000
1000
0000
,
0010
0000
0010
0000
,
0001
0000
0001
0000
,
0100
0000
0100
0000
,
0001
0000
0001
0000
,
0100
0000
0100
0000
,
1000
0000
1000
0000
,
0001
0000
0001
0000
,
0010
0000
0010
0000
,
0001
0000
0001
0000
,
0100
0000
0100
0000
,
1000
0000
1000
0000
,
0100
0000
0100
0000
,
1000
0000
1000
0000
,
0010
0000
0010
0000
,
0020
0000
0000
0000
,
0000
0000
0000
0030
,
0002
0000
0000
0000
,
0000
0000
0000
0003
,
2000
0000
0000
0000
,
0000
0000
0000
3000
,
0020
0000
0000
0000
,
0000
0000
0000
0030
,
0010
1000
0010
0000
,
0010
0001
0010
0000
,
0100
0001
0100
0000
,
0100
1000
0100
0000
,
0001
0010
0001
0000
,
0001
0100
0001
0000
,
1000
0100
1000
0000
,
1000
0010
1000
0000
,
0010
0000
0010
0000
,
1000
0000
1000
0000
,
0010
0000
0010
0000
,
0001
0000
0001
0000
,
0100
0000
0100
0000
,
0001
0000
0001
0000
,
0100
0000
0100
0000
,
1000
0000
1000
0000
,
0000
1000
0001
0000
,
0001
0000
0100
0001
,
0000
0010
1000
0000
,
0001
0000
0100
0001
,
0000
0001
1000
0000
,
1000
0000
0010
1000
,
0000
0100
0001
0000
,
1000
0000
0010
1000
,
0020
0000
0000
0000
,
0000
0000
0000
0030
,
0002
0000
0000
0000
,
0000
0000
0000
0003
,
2000
0000
0000
0000
,
0000
0000
0000
3000
,
0020
0000
0000
0000
,
0000
0000
0000
0030
,
1000
0000
1000
0000
,
1000
0100
0001
0010
,
1000
0000
0100
0000
,
0001
0010
0100
1000
,
0001
0000
0001
0000
,
0001
0010
1000
0100
,
0001
0000
0010
0000
,
1000
0100
0010
0001
,
0010
0000
0010
0000
,
0010
1000
0100
0001
,
0010
0000
1000
0000
,
0100
0001
1000
0010
,
0100
0000
0100
0000
,
0100
0001
0010
1000
,
0100
0000
0001
0000
,
0010
1000
0001
0100
,
1000
0000
0010
0000
,
1000
0100
0001
0000
,
0010
0000
0010
0000
,
0001
1000
0010
0000
,
0001
0000
0100
0000
,
0001
0010
1000
0000
,
0100
0000
0100
0000
,
1000
0001
0100
0000
,
0010
0000
0001
0000
,
0010
1000
0100
0000
,
0001
0000
0001
0000
,
0100
0010
0001
0000
,
0100
0000
1000
0000
,
0100
0001
0010
0000
,
1000
0000
1000
0000
,
0010
0100
1000
0000
,
1001
0000
0000
0000
;

//---------------dance-single - ----------------
#NOTEDATA:;
#CHARTNAME:;
#STEPSTYPE:dance-single;
#DESCRIPTION:;
#CHARTSTYLE:;
#DIFFICULTY:Beginner;
#METER:5;
#RADARVALUES:0.158613,0.254022,0.014419,0.120162,0.000000,231.000000,228.000000,3.000000,25.000000,0.000000,0.000000,0.000000,0.000000,0.000000,0.158613,0.254022,0.014419,0.120162,0.000000,231.000000,228.000000,3.000000,25.000000,0.000000,0.000000,0.000000,0.000000,0.000000;
#CREDIT:;
#NOTES:
0000
0000
0000
0000
,
0000
0000
0000
0000
,
0000
0000
0000
0000
,
0000
0000
0000
0000
,
0000
0000
0000
0000
,
0010
0000
0000
0000
,
1000
0000
1000
0000
,
0010
0000
0000
0000
,
0001
0000
0001
0000
,
0100
0000
0000
0000
,
0001
0000
0001
0000
,
0100
0000
0000
0000
,
1000
0000
1000
0000
,
0020
0000
0000
0000
,
0000
0000
0000
0030
,
0002
0000
0000
0000
,
0000
0000
0000
0003
,
2000
0000
0000
0000
,
0000
0000
0000
3000
,
0020
0000
0000
0000
,
0000
0000
0000
0030
,
0010
0000
0000
0000
,
0010
0000
0000
0000
,
0010
0000
0010
0000
,
0010
0001
0010
0000
,
0100
0000
0100
0000
,
0100
1000
0100
0000
,
0001
0000
0001
0000
,
0001
0100
0001
0000
,
1000
0000
1000
0000
,
1000
0010
1000
0000
,
0010
1000
0010
0000
,
0100
0001
0100
0000
,
0001
0010
0001
0000
,
1000
0100
1000
0000
,
0020
0000
0000
0000
,
0000
0000
0000
0000
,
0000
0000
0000
0000
,
0000
0000
0000
0030
,
2000
0000
3000
0000
,
0002
0000
0003
0000
,
0020
0000
0030
0000
,
0200
0000
0300
0000
,
2000
0000
3000
0000
,
0002
0000
0003
0000
,
0020
0000
0030
0000
,
0200
0000
0300
0000
,
0001
0000
0100
0000
,
1000
0000
0010
0000
,
0100
0000
1000
0000
,
0010
0000
0001
0000
,
1010
0000
0000
0000
,
0010
0000
0000
0000
,
0101
0000
0000
0000
,
0100
0000
0000
0000
,
2000
0000
0000
0000
,
0000
0000
0000
3000
,
0002
0000
0000
0000
,
0000
0000
0000
0003
,
0020
0000
0000
0000
,
0000
0000
0000
0030
,
0200
0000
0000
0000
,
0000
0000
0000
0300
,
0010
0000
0000
0000
,
1000
0000
1000
0000
,
0010
0000
0000
0000
,
0001
0000
0001
0000
,
0100
0000
0000
0000
,
0001
0000
0001
0000
,
0100
0000
0000
0000
,
1000
0000
1000
0000
,
0001
0000
0000
0000
,
0010
0000
0010
0000
,
0001
0000
0000
0000
,
0100
0000
0100
0000
,
1000
0000
0000
0000
,
0100
0000
0100
0000
,
1000
0000
0000
0000
,
0010
0000
0010
0000
,
0020
0000
0000
0000
,
0000
0000
0000
0030
,
0002
0000
0000
0000
,
0000
0000
0000
0003
,
2000
0000
0000
0000
,
0000
0000
0000
3000
,
0020
0000
0000
0000
,
0000
0000
0000
0030
,
0010
0000
0010
0000
,
0010
0001
0010
0000
,
0100
0000
0100
0000
,
0100
1000
0100
0000
,
0001
0000
0001
0000
,
0001
0100
0001
0000
,
1000
0000
1000
0000
,
1000
0010
1000
0000
,
0010
0000
0000
0000
,
1000
0000
1000
0000
,
0010
0000
0000
0000
,
0001
0000
0001
0000
,
0100
0000
0000
0000
,
0001
0000
0001
0000
,
0100
0000
0000
0000
,
1000
0000
1000
0000
,
0000
1000
0001
0000
,
0001
0000
0100
0000
,
0000
0010
1000
0000
,
0001
0000
0100
0000
,
0000
0001
1000
0000
,
1000
0000
0010
0000
,
0000
0100
0001
0000
,
1000
0000
0010
0000
,
0020
0000
0000
0000
,
0000
0000
0000
0030
,
0002
0000
0000
0000
,
0000
0000
0000
0003
,
2000
0000
0000
0000
,
0000
0000
0000
3000
,
0020
0000
0000
0000
,
0000
0000
0000
0030
,
1000
0000
1000
0000
,
1000
0100
0001
0000
,
1000
0000
0100
0000
,
0001
0010
0100
0000
,
0001
0000
0001
0000
,
0001
0010
1000
0000
,
0001
0000
0010
0000
,
1000
0100
0010
0000
,
0010
0000
0010
0000
,
0010
1000
0100
0000
,
0010
0000
1000
0000
,
0100
0001
1000
0000
,
0100
0000
0100
0000
,
0100
0001
0010
0000
,
0100
0000
0001
0000
,
0010
1000
0001
0000
,
1000
0000
0010
0000
,
1000
0000
0001
0000
,
0010
0000
0010
0000
,
0001
0000
0010
0000
,
0001
0000
0100
0000
,
0001
0000
1000
0000
,
0100
0000
0100
0000
,
1000
0000
0100
0000
,
0010
0000
0001
0000
,
0010
0000
0100
0000
,
0001
0000
0001
0000
,
0100
0000
0001
0000
,
0100
0000
1000
0000
,
0100
0000
0010
0000
,
1000
0000
1000
0000
,
0010
0000
1000
0000
,
1001
0000
0000
0000
;

//---------------dance-single - ----------------
#NOTEDATA:;
#CHARTNAME:;
#STEPSTYPE:dance-single;
#DESCRIPTION:;
#CHARTSTYLE:;
#DIFFICULTY:Medium;
#METER:6;
#RADARVALUES:0.236204,0.326599,0.033645,0.139388,0.000000,344.000000,337.000000,7.000000,29.000000,0.000000,0.000000,0.000000,0.000000,0.000000,0.236204,0.326599,0.033645,0.139388,0.000000,344.000000,337.000000,7.000000,29.000000,0.000000,0.000000,0.000000,0.000000,0.000000;
#CREDIT:;
#NOTES:
0000
0000
0000
0000
,
0000
0000
0000
0000
,
0000
0000
0000
0000
,
0000
0000
0000
0000
,
0000
0000
0000
0000
,
0010
0000
0010
0000
,
1000
0000
1000
1000
,
0010
0000
0010
0000
,
0001
0000
0001
0001
,
0100
0000
0100
0000
,
0001
0000
0001
0001
,
0100
0000
0100
0000
,
1000
0000
1000
1000
,
0020
0000
0000
0000
,
0000
0000
0000
0030
,
0002
0000
0000
0000
,
0000
0000
0000
0003
,
2000
0000
0000
0000
,
0000
0000
0000
3000
,
0020
0000
0000
0000
,
0200
0000
0000
0330
,
0010
0000
0010
0000
,
0010
0000
0010
0010
,
0010
1000
0010
0000
,
0010
0001
0010
0001
,
0100
0001
0100
0000
,
0100
1000
0100
1000
,
0001
0010
0001
0000
,
0001
0100
0001
0100
,
1000
0100
1000
0000
,
1000
0010
1000
0010
,
0010
1000
0010
0000
,
0100
0001
0100
0001
,
0001
0010
0001
0000
,
1000
0100
1000
0100
,
0020
0000
0000
0000
,
0000
0000
0000
0030
,
0200
0000
0000
0000
,
0000
0000
0000
0300
,
2000
0000
3010
0000
,
0002
0000
0103
0100
,
0020
0000
0031
0000
,
0200
0000
1300
1000
,
2000
0000
3010
0000
,
0002
0000
0103
0100
,
0020
0000
0031
0000
,
0200
0000
1300
1000
,
0001
0000
0100
1000
,
1000
1000
0010
0001
,
0100
0000
1000
0010
,
0010
0010
0001
0100
,
1010
0000
0000
0000
,
1010
0000
1000
0000
,
0101
0000
0000
0000
,
0101
0000
0001
0000
,
2000
0000
0000
0000
,
0001
0000
0000
3000
,
0002
0000
0000
0000
,
1000
0000
0000
0003
,
0020
0000
0000
0000
,
0100
0000
0000
0030
,
0200
0000
0000
0000
,
0010
0000
0000
0300
,
0010
0000
0010
0000
,
1000
0000
1000
1000
,
0010
0000
0010
0000
,
0001
0000
0001
0001
,
0100
0000
0100
0000
,
0001
0000
0001
0001
,
0100
0000
0100
0000
,
1000
0000
1000
1000
,
0001
0000
0001
0000
,
0010
0000
0010
0010
,
0001
0000
0001
0000
,
0100
0000
0100
0100
,
1000
0000
1000
0000
,
0100
0000
0100
0100
,
1000
0000
1000
0000
,
0010
0000
0010
0010
,
0020
0000
0000
0000
,
0000
0000
0000
0030
,
0002
0000
0000
0000
,
0000
0000
0000
0003
,
2000
0000
0000
0000
,
0000
0000
0000
3000
,
0020
0000
0000
0000
,
0200
0000
0000
0330
,
0010
1000
0010
0000
,
0010
0001
0010
0001
,
0100
0001
0100
0000
,
0100
1000
0100
1000
,
0001
0010
0001
0000
,
0001
0100
0001
0100
,
1000
0100
1000
0000
,
1000
0010
1000
0010
,
0010
0000
0010
0000
,
1000
0000
1000
1000
,
0010
0000
0010
0000
,
0001
0000
0001
0001
,
0100
0000
0100
0000
,
0001
0000
0001
0001
,
0100
0000
0100
0000
,
1000
0000
1000
1000
,
0000
1001
0001
0000
,
0001
0000
0100
0001
,
0000
0010
1000
0000
,
0001
0000
0100
0001
,
0000
1001
1000
0000
,
1000
0000
0010
1000
,
0000
0100
0001
0000
,
1000
0000
0010
1000
,
0020
0000
0000
0000
,
0000
0000
0000
0030
,
0002
0000
0000
0000
,
0000
0000
0000
0003
,
2000
0000
0000
0000
,
0000
0000
0000
3000
,
0020
0000
0000
0000
,
0200
0000
0000
0330
,
1000
0000
1000
0000
,
1000
0100
0001
0010
,
1000
1000
0100
0000
,
0001
0010
0100
1000
,
0001
0000
0001
0000
,
0001
0010
1000
0100
,
0001
0001
0010
0000
,
1000
0100
0010
0001
,
0010
0000
0010
0000
,
0010
1000
0100
0001
,
0010
0010
1000
0000
,
0100
0001
1000
0010
,
0100
0000
0100
0000
,
0100
0001
0010
1000
,
0100
0100
0001
0000
,
0010
1000
0001
0100
,
1000
0000
0010
0000
,
1000
0100
0001
0000
,
0010
0010
0010
0000
,
0001
1000
0010
0000
,
0001
0000
0100
0000
,
0001
0010
1000
0000
,
0100
0100
0100
0000
,
1000
0001
0100
0000
,
0010
0000
0001
0000
,
0010
1000
0100
0000
,
0001
0001
0001
0000
,
0100
0010
0001
0000
,
0100
0000
1000
0000
,
0100
0001
0010
0000
,
1000
1000
1000
0000
,
0010
0100
1000
0000
,
1001
0000
0000
0000
;

//---------------dance-single - ----------------
#NOTEDATA:;
#CHARTNAME:;
#STEPSTYPE:dance-single;
#DESCRIPTION:;
#CHARTSTYLE:;
#DIFFICULTY:Hard;
#METER:7;
#RADARVALUES:0.269849,0.362888,0.043258,0.153807,0.000000,393.000000,384.000000,9.000000,32.000000,0.000000,0.000000,0.000000,0.000000,0.000000,0.269849,0.362888,0.043258,0.153807,0.000000,393.000000,384.000000,9.000000,32.000000,0.000000,0.000000,0.000000,0.000000,0.000000;
#CREDIT:;
#NOTES:
0000
0000
0000
0000
,
0000
0000
0000
0000
,
0000
0000
0000
0000
,
0000
0000
0000
0000
,
0000
0000
0000
0000
,
0010
0010
0010
0000
,
1000
0000
1000
1000
,
0010
0010
0010
0000
,
0001
0000
0001
0001
,
0100
0100
0100
0000
,
0001
0000
0001
0001
,
0100
0100
0100
0000
,
1000
0000
1000
1000
,
0020
0000
0000
0000
,
0000
0000
0000
0030
,
0002
0000
0000
0000
,
2000
0000
0000
3003
,
2000
0000
0000
0000
,
0000
0000
0000
3000
,
0020
0000
0000
0000
,
0200
0000
0000
0330
,
0010
0000
0010
0000
,
0010
0010
0010
0010
,
0010
1000
0010
1000
,
0010
0001
0010
0001
,
0100
0001
0100
0001
,
0100
1000
0100
1000
,
0001
0010
0001
0010
,
0001
0100
0001
0100
,
1000
0100
1000
0100
,
1000
0010
1000
0010
,
0010
1000
0010
1000
,
0100
0001
0100
0001
,
0001
0010
0001
0010
,
1000
0100
1000
0100
,
0020
0000
0000
0000
,
0000
0000
0000
0030
,
0200
0000
0000
0000
,
0000
0000
0000
0300
,
2000
0000
3010
0010
,
0002
0000
0103
0100
,
0020
0000
0031
0001
,
0200
0000
1300
1000
,
2000
0000
3010
0010
,
0002
0000
0103
0100
,
0020
0000
0031
0001
,
0200
0000
1300
1000
,
0001
0001
0100
1000
,
1000
1000
0010
0001
,
0100
0100
1000
0010
,
0010
0010
0001
0100
,
1010
0000
1000
0000
,
1010
0000
1000
0000
,
0101
0000
0001
0000
,
0101
0000
0001
0000
,
2000
0000
0000
0000
,
0001
0000
0000
3000
,
0002
0000
0000
0000
,
1000
0000
0000
0003
,
0020
0000
0000
0000
,
0100
0000
0000
0030
,
0200
0000
0000
0000
,
0010
0000
0010
0300
,
0010
0010
0010
0000
,
1000
0000
1000
1000
,
0010
0010
0010
0000
,
0001
0000
0001
0001
,
0100
0100
0100
0000
,
0001
0000
0001
0001
,
0100
0100
0100
0000
,
1000
0000
1000
1000
,
0001
0001
0001
0000
,
0010
0000
0010
0010
,
0001
0001
0001
0000
,
0100
0000
0100
0100
,
1000
1000
1000
0000
,
0100
0000
0100
0100
,
1000
1000
1000
0000
,
0010
0000
0010
0010
,
0020
0000
0000
0000
,
0000
0000
0000
0030
,
0002
0000
0000
0000
,
2000
0000
0000
3003
,
2000
0000
0000
0000
,
0000
0000
0000
3000
,
0020
0000
0000
0000
,
0200
0000
0000
0330
,
0010
1000
0010
1000
,
0010
0001
0010
0001
,
0100
0001
0100
0001
,
0100
1000
0100
1000
,
0001
0010
0001
0010
,
0001
0100
0001
0100
,
1000
0100
1000
0100
,
1000
0010
1000
0010
,
0010
0010
0010
0000
,
1000
0000
1000
1000
,
0010
0010
0010
0000
,
0001
0000
0001
0001
,
0100
0100
0100
0000
,
0001
0000
0001
0001
,
0100
0100
0100
0000
,
1000
0000
1000
1000
,
0000
1001
0001
0000
,
0001
0000
0100
0001
,
0000
0110
1000
0000
,
0001
0000
0100
0001
,
0000
1001
1000
0000
,
1000
0000
0010
1000
,
0000
0110
0001
0000
,
1000
0000
0010
1000
,
0020
0000
0000
0000
,
0000
0000
0000
0030
,
0002
0000
0000
0000
,
2000
0000
0000
3003
,
2000
0000
0000
0000
,
0000
0000
0000
3000
,
0020
0000
0000
0000
,
0200
0000
0000
0330
,
1000
1000
1000
0000
,
1000
0100
0001
0010
,
1000
1000
0100
0000
,
0001
0010
0100
1000
,
0001
0001
0001
0000
,
0001
0010
1000
0100
,
0001
0001
0010
0000
,
1000
0100
0010
0001
,
0010
0010
0010
0000
,
0010
1000
0100
0001
,
0010
0010
1000
0000
,
0100
0001
1000
0010
,
0100
0100
0100
0000
,
0100
0001
0010
1000
,
0100
0100
0001
0000
,
0010
1000
0001
0100
,
1000
0100
0010
0000
,
1000
0100
0001
0000
,
0010
0010
0010
0000
,
0001
1000
0010
0000
,
0001
0010
0100
0000
,
0001
0010
1000
0000
,
0100
0100
0100
0000
,
1000
0001
0100
0000
,
0010
1000
0001
0000
,
0010
1000
0100
0000
,
0001
0001
0001
0000
,
0100
0010
0001
0000
,
0100
0001
1000
0000
,
0100
0001
0010
0000
,
1000
1000
1000
0000
,
0010
0100
1000
0000
,
1001
0000
0000
0000
;

//---------------dance-single - ----------------
#NOTEDATA:;
#CHARTNAME:;
#STEPSTYPE:dance-single;
#DESCRIPTION:;
#CHARTSTYLE:;
#DIFFICULTY:Challenge;
#METER:8;
#RADARVALUES:0.291135,0.362888,0.052871,0.182646,0.000000,424.000000,413.000000,11.000000,38.000000,0.000000,0.000000,0.000000,0.000000,0.000000,0.291135,0.362888,0.052871,0.182646,0.000000,424.000000,413.000000,11.000000,38.000000,0.000000,0.000000,0.000000,0.000000,0.000000;
#CREDIT:;
#NOTES:
// measure 0
0000
0000
0000
0000
,  // measure 1
0000
0000
0000
0000
,  // measure 2
0000
0000
0000
0000
,  // measure 3
0000
0000
0000
0000
,  // measure 4
0000
0000
0000
0000
,  // measure 5
0010
0010
0010
0000
,  // measure 6
1000
0000
1000
1000
,  // measure 7
0010
0010
0010
0000
,  // measure 8
0001
0010
0001
0001
,  // measure 9
0100
0100
0100
0000
,  // measure 10
0001
0000
0001
0001
,  // measure 11
0100
0100
0100
0000
,  // measure 12
1000
0100
1000
1000
,  // measure 13
0020
0000
0000
0000
,  // measure 14
0000
0000
0000
0030
,  // measure 15
0002
0000
0000
0000
,  // measure 16
2000
0000
0000
3003
,  // measure 17
2000
0000
0000
0000
,  // measure 18
0000
0000
0000
3000
,  // measure 19
0020
0000
0000
0000
,  // measure 20
0200
0000
0000
0330
,  // measure 21
0010
0000
0010
0000
,  // measure 22
0010
0010
0010
0010
,  // measure 23
0010
1000
0010
1000
,  // measure 24
0010
0001
0010
0001
,  // measure 25
0100
0001
0100
0001
,  // measure 26
0100
1000
0100
1000
,  // measure 27
0001
0010
0001
0010
,  // measure 28
0001
0100
0001
0100
,  // measure 29
1000
0100
1000
0100
,  // measure 30
1000
0010
1000
0010
,  // measure 31
0010
1000
0010
1000
,  // measure 32
0100
0001
0100
0001
,  // measure 33
0001
0010
0001
0010
,  // measure 34
1000
0100
1000
0100
,  // measure 35
0020
0000
0000
0030
,  // measure 36
0002
0000
0000
0003
,  // measure 37
2000
0000
0000
3000
,  // measure 38
0200
0000
0000
0300
,  // measure 39
2000
0000
0010
3010
,  // measure 40
0002
0000
0100
0103
,  // measure 41
0020
0000
0001
0031
,  // measure 42
0200
0000
1000
1300
,  // measure 43
2000
0000
0010
3010
,  // measure 44
0002
0000
0100
0103
,  // measure 45
0020
0000
0001
0031
,  // measure 46
0200
0000
1000
1300
,  // measure 47
0001
0001
0100
1000
,  // measure 48
1000
1000
0010
0001
,  // measure 49
0100
0100
1000
0010
,  // measure 50
0010
0010
0001
0100
,  // measure 51
1010
0000
1000
0000
,  // measure 52
1010
0000
1001
0000
,  // measure 53
0101
0000
0001
0000
,  // measure 54
0101
0000
1001
0000
,  // measure 55
2000
0000
0000
0000
,  // measure 56
0001
0000
0001
3000
,  // measure 57
0002
0000
0000
0000
,  // measure 58
1000
0000
1000
0003
,  // measure 59
0020
0000
0000
0000
,  // measure 60
0100
0000
0100
0030
,  // measure 61
0200
0000
0000
0000
,  // measure 62
0010
0000
0010
0300
,  // measure 63
0010
0010
0010
0000
,  // measure 64
1000
0000
1000
1000
,  // measure 65
0010
0010
0010
0000
,  // measure 66
0001
0010
0001
0001
,  // measure 67
0100
0100
0100
0000
,  // measure 68
0001
0000
0001
0001
,  // measure 69
0100
0100
0100
0000
,  // measure 70
1000
0100
1000
1000
,  // measure 71
0001
0001
0001
0000
,  // measure 72
0010
0000
0010
0010
,  // measure 73
0001
0001
0001
0000
,  // measure 74
0100
0001
0100
0100
,  // measure 75
1000
1000
1000
0000
,  // measure 76
0100
0000
0100
0100
,  // measure 77
1000
1000
1000
0000
,  // measure 78
0010
1000
0010
0010
,  // measure 79
0020
0000
0000
0000
,  // measure 80
0200
0000
0000
0330
,  // measure 81
0002
0000
0000
0000
,  // measure 82
2000
0000
0000
3003
,  // measure 83
2000
0000
0000
0000
,  // measure 84
0002
0000
0000
3003
,  // measure 85
0020
0000
0000
0000
,  // measure 86
0200
0000
0000
0330
,  // measure 87
0010
1000
0010
1000
,  // measure 88
0010
0001
0010
0001
,  // measure 89
0100
0001
0100
0001
,  // measure 90
0100
1000
0100
1000
,  // measure 91
0001
0010
0001
0010
,  // measure 92
0001
0100
0001
0100
,  // measure 93
1000
0100
1000
0100
,  // measure 94
1000
0010
1000
0010
,  // measure 95
0010
0010
0010
0000
,  // measure 96
1000
0000
1000
1000
,  // measure 97
0010
0010
0010
0000
,  // measure 98
0001
0010
0001
0001
,  // measure 99
0100
0100
0100
0000
,  // measure 100
0001
0000
0001
0001
,  // measure 101
0100
0100
0100
0000
,  // measure 102
1000
0100
1000
1000
,  // measure 103
0000
1001
0001
0000
,  // measure 104
0001
0000
0100
0001
,  // measure 105
0000
0110
1000
0000
,  // measure 106
0001
0000
0100
0001
,  // measure 107
0000
1001
1000
0000
,  // measure 108
1000
0000
0010
1000
,  // measure 109
0000
0110
0001
0000
,  // measure 110
1000
0000
0010
1000
,  // measure 111
0020
0000
0000
0000
,  // measure 112
0200
0000
0000
0330
,  // measure 113
0002
0000
0000
0000
,  // measure 114
2000
0000
0000
3003
,  // measure 115
2000
0000
0000
0000
,  // measure 116
0002
0000
0000
3003
,  // measure 117
0020
0000
0000
0000
,  // measure 118
0200
0000
0000
0330
,  // measure 119
1000
1000
1000
0010
,  // measure 120
1000
0100
0001
0010
,  // measure 121
1000
1000
0100
0010
,  // measure 122
0001
0010
0100
1000
,  // measure 123
0001
0001
0001
0100
,  // measure 124
0001
0010
1000
0100
,  // measure 125
0001
0001
0010
0100
,  // measure 126
1000
0100
0010
0001
,  // measure 127
0010
0010
0010
0001
,  // measure 128
0010
1000
0100
0001
,  // measure 129
0010
0010
1000
0001
,  // measure 130
0100
0001
1000
0010
,  // measure 131
0100
0100
0100
1000
,  // measure 132
0100
0001
0010
1000
,  // measure 133
0100
0100
0001
1000
,  // measure 134
0010
1000
0001
0100
,  // measure 135
1000
0100
0010
0001
,  // measure 136
1000
0100
0001
0000
,  // measure 137
0010
0010
0010
0000
,  // measure 138
0001
1000
0010
0000
,  // measure 139
0001
0010
0100
1000
,  // measure 140
0001
0010
1000
0000
,  // measure 141
0100
0100
0100
0000
,  // measure 142
1000
0001
0100
0000
,  // measure 143
0010
1000
0001
0100
,  // measure 144
0010
1000
0100
0000
,  // measure 145
0001
0001
0001
0000
,  // measure 146
0100
0010
0001
0000
,  // measure 147
0100
0001
1000
0010
,  // measure 148
0100
0001
0010
0000
,  // measure 149
1000
1000
1000
0000
,  // measure 150
0010
0100
1000
0000
,  // measure 151
1001
0000
0000
0000
;

//---------------dance-single - Hell----------------
#NOTEDATA:;
#CHARTNAME:Hell;
#STEPSTYPE:dance-single;
#DESCRIPTION:Hell;
#CHARTSTYLE:;
#DIFFICULTY:Edit;
#METER:19;
#RADARVALUES:1.236635,1.415264,0.889197,0.129775,1.511634,1801.000000,1616.000000,185.000000,27.000000,0.000000,0.000000,0.000000,0.000000,0.000000,1.236635,1.415264,0.889197,0.129775,1.511634,1801.000000,1616.000000,185.000000,27.000000,0.000000,0.000000,0.000000,0.000000,0.000000;
#CREDIT:;
#NOTES:
// measure 0
0000
0000
0000
0000
,  // measure 1
0000
0000
0000
0000
,  // measure 2
0000
0000
0000
0000
,  // measure 3
0000
0000
0000
0000
,  // measure 4
0000
0000
0000
0000
,  // measure 5
0010
0000
0001
0000
0010
0000
0000
0000
0010
0000
0000
0000
0010
0100
1000
0000
,  // measure 6
0100
0010
0001
0100
0010
0100
0001
0010
0100
1000
0010
0100
1000
0010
0100
1000
,  // measure 7
0100
0000
1000
0000
0100
0000
0000
0000
0100
0000
0000
0000
0100
0010
0001
0000
,  // measure 8
0010
0100
1000
0010
0100
0010
1000
0100
0010
0001
0100
0010
0001
0100
0010
0001
,  // measure 9
0001
0000
0100
0000
0001
0000
0000
0000
0001
0000
0000
0000
0001
1000
0010
0000
,  // measure 10
1000
0001
0100
1000
0001
1000
0100
0001
1000
0010
0001
1000
0010
0001
1000
0010
,  // measure 11
1000
0000
0010
0000
1000
0000
0000
0000
1000
0000
0000
0000
1000
0001
0100
0000
,  // measure 12
0001
1000
0010
0001
1000
0001
0010
1000
0001
0100
1000
0001
0100
1000
0001
0100
,  // measure 13
1020
0100
0000
0000
0100
0001
0000
0000
0001
0100
0000
0000
0100
1000
0000
0000
,  // measure 14
1000
0100
1000
0100
1000
0100
1000
0001
,  // measure 15
0100
0001
0000
0000
0001
0100
0000
0000
0100
0001
0000
0000
0001
1000
0000
0000
,  // measure 16
0100
0001
0100
1000
0100
0001
0100
0130
,  // measure 17
0001
0001
0001
0001
0010
0100
0001
0010
0100
1000
0100
0010
1000
0100
0010
1000
,  // measure 18
1000
1000
1000
1000
0100
0010
1000
0100
0010
0001
0010
0100
0001
0010
0100
0001
,  // measure 19
0100
0100
0100
0100
0001
1000
0100
0001
1000
0010
1000
0001
0010
1000
0001
0010
,  // measure 20
0010
0010
0010
0010
1000
0001
0010
1000
0001
0100
0001
1000
0100
0001
1000
0100
,  // measure 21
0010
0100
0010
0000
0010
0000
0010
0000
1000
0100
0010
0001
0010
0100
0001
0010
,  // measure 22
0100
0010
0100
0000
0100
0000
0100
0000
0001
0010
0100
1000
0100
0010
1000
0100
,  // measure 23
0011
0001
0000
0000
0011
0010
0000
0000
0101
0100
0000
0000
1010
0010
0000
0000
,  // measure 24
0110
0101
0110
1010
0101
0011
0011
0110
0110
1100
1100
1001
,  // measure 25
1100
1000
0000
0000
1100
0100
0000
0000
1010
0010
0000
0000
0101
0100
0000
0000
,  // measure 26
0110
1010
0110
0101
1010
1100
1100
0110
0110
0011
0011
1001
,  // measure 27
0101
0100
0000
0000
0101
0001
0000
0000
1100
1000
0000
0000
0011
0001
0000
0000
,  // measure 28
1001
1100
1001
0011
1100
0101
0101
1001
1001
1010
1010
0110
,  // measure 29
1010
0010
0000
0000
1010
1000
0000
0000
0011
0001
0000
0000
1100
1000
0000
0000
,  // measure 30
1001
0011
1001
1100
0011
1010
1010
1001
1001
0101
0101
0110
,  // measure 31
1000
0100
1000
0100
1000
0100
0010
0001
0010
1000
0010
0000
0100
0001
0100
0000
,  // measure 32
0010
0100
0010
0001
0010
0100
0010
0001
0010
0100
0010
0001
0010
0100
0010
0001
,  // measure 33
0001
0010
0001
0010
0001
0010
0100
1000
0100
0001
0100
0000
0010
1000
0010
0000
,  // measure 34
0100
0010
0100
1000
0100
0010
0100
1000
0100
0010
0100
1000
0100
0010
0100
1000
,  // measure 35
0020
0000
0000
0000
0000
0000
0000
0000
0130
0010
0100
0010
0100
0010
0100
0010
,  // measure 36
0200
0000
0000
0000
0000
0000
0000
0000
0310
0100
0010
0100
0010
0100
0010
0100
,  // measure 37
0002
0000
0000
0000
0000
0000
0000
0000
1003
0001
1000
0001
1000
0001
1000
0001
,  // measure 38
1001
0000
0000
0000
0000
0000
0001
0000
0000
0000
0000
0000
0001
0000
0000
0010
0000
0000
0100
0000
0000
1000
0000
0000
0001
0000
0010
0000
0100
0000
1000
0000
0000
0000
0000
0000
2002
0000
0000
0000
0000
0000
3003
0000
0000
0000
0000
0000
,  // measure 39
1000
0100
0001
0100
1000
0010
0001
0010
0200
0000
0010
0000
0010
0000
0310
0000
,  // measure 40
0001
0010
1000
0010
0001
0100
1000
0100
0020
0000
0100
0000
0100
0000
0130
0000
,  // measure 41
0010
1000
0100
1000
0010
0001
0100
0001
2000
0000
0001
0000
0001
0000
3001
0000
,  // measure 42
0100
0001
0010
0001
0100
1000
0010
1000
0002
0000
1000
0000
1000
0000
1003
0000
,  // measure 43
1000
0100
0001
0100
1000
0010
0001
0010
0200
0000
0010
0000
0010
0000
0310
0000
,  // measure 44
0001
0010
1000
0010
0001
0100
1000
0100
0020
0000
0100
0000
0100
0000
0130
0000
,  // measure 45
0010
1000
0100
1000
0010
0001
0100
0001
2000
0000
0001
0000
0001
0000
3001
0000
,  // measure 46
0100
0001
0010
0001
0100
1000
0010
1000
0002
0000
1000
0000
1000
0000
1003
0000
,  // measure 47
1000
0100
0010
0001
1000
0100
0010
0001
1000
0100
0010
0001
1000
0100
0010
0001
,  // measure 48
1000
0100
0010
0001
1000
0100
0010
0001
1000
0100
0010
0001
1000
0100
0010
0001
,  // measure 49
0001
0010
0100
1000
0001
0010
0100
1000
0001
0010
0100
1000
0001
0010
0100
1000
,  // measure 50
0001
0010
0100
1000
0001
0010
0100
1000
0001
0010
0100
1000
0001
0010
0100
1000
,  // measure 51
0110
0000
0000
0000
0011
0000
0000
0011
0000
0000
0101
0000
0110
0000
1010
0000
,  // measure 52
0110
0000
0000
0000
1100
0000
0000
1100
0000
0000
1010
0000
0110
0000
0101
0000
,  // measure 53
1010
1100
1010
1100
0101
0011
0101
0011
,  // measure 54
2002
0000
0000
0000
0000
0000
0000
0000
3003
0000
0100
0010
0100
0010
0100
0010
,  // measure 55
2001
0000
0000
0001
0000
0000
0001
0000
,  // measure 56
0000
0001
0000
0000
3001
0110
1001
0110
,  // measure 57
1002
0000
0000
1000
0000
0000
1000
0000
,  // measure 58
0000
1000
0000
0000
1003
0110
1001
0110
,  // measure 59
0120
0000
0000
0100
0000
0000
0100
0000
,  // measure 60
0000
0100
0000
0000
0130
1001
0110
1001
,  // measure 61
0210
0000
0000
0010
0000
0000
0010
0000
,  // measure 62
0000
0010
0000
0000
0310
1001
0110
1001
,  // measure 63
0010
0000
0001
0000
0010
0000
0000
0000
0010
0000
0000
0000
0010
0100
1000
0000
,  // measure 64
0100
0010
0001
0100
0010
0100
0001
0010
0100
1000
0010
0100
1000
0010
0100
1000
,  // measure 65
0100
0000
1000
0000
0100
0000
0000
0000
0100
0000
0000
0000
0100
0010
0001
0000
,  // measure 66
0010
0100
1000
0010
0100
0010
1000
0100
0010
0001
0100
0010
0001
0100
0010
0001
,  // measure 67
0001
0000
0100
0000
0001
0000
0000
0000
0001
0000
0000
0000
0001
1000
0010
0000
,  // measure 68
1000
0001
0100
1000
0001
1000
0100
0001
1000
0010
0001
1000
0010
0001
1000
0010
,  // measure 69
1000
0000
0010
0000
1000
0000
0000
0000
1000
0000
0000
0000
1000
0001
0100
0000
,  // measure 70
0001
1000
0010
0001
1000
0001
0010
1000
0001
0100
1000
0001
0100
1000
0001
0100
,  // measure 71
0010
0000
0001
0000
0010
0000
0000
0000
0010
0000
0000
0000
0010
0100
1000
0000
,  // measure 72
0100
0010
0001
0100
0010
0100
0001
0010
0100
1000
0010
0100
1000
0010
0100
1000
,  // measure 73
0100
0000
1000
0000
0100
0000
0000
0000
0100
0000
0000
0000
0100
0010
0001
0000
,  // measure 74
0010
0100
1000
0010
0100
0010
1000
0100
0010
0001
0100
0010
0001
0100
0010
0001
,  // measure 75
0001
0000
0100
0000
0001
0000
0000
0000
0001
0000
0000
0000
0001
1000
0010
0000
,  // measure 76
1000
0001
0100
1000
0001
1000
0100
0001
1000
0010
0001
1000
0010
0001
1000
0010
,  // measure 77
1000
0000
0010
0000
1000
0000
0000
0000
1000
0000
0000
0000
1000
0001
0100
0000
,  // measure 78
0001
1000
0010
0001
1000
0001
0010
1000
0001
0100
1000
0001
0100
1000
0001
0100
,  // measure 79
1020
0100
0000
0000
0100
0001
0000
0000
0001
0100
0000
0000
0100
1000
0000
0000
,  // measure 80
1000
0100
1000
0100
1000
0100
1000
0001
,  // measure 81
0100
0001
0000
0000
0001
0100
0000
0000
0100
0001
0000
0000
0001
1000
0000
0000
,  // measure 82
0100
0001
0100
1000
0100
0001
0100
0130
,  // measure 83
0201
0010
0000
0000
0010
1000
0000
0000
1000
0010
0000
0000
0010
0001
0000
0000
,  // measure 84
0001
0010
0001
0010
0001
0010
0001
1000
,  // measure 85
0010
1000
0000
0000
1000
0010
0000
0000
0010
1000
0000
0000
1000
0001
0000
0000
,  // measure 86
0010
1000
0010
0001
0010
1000
0010
0310
,  // measure 87
1010
0010
0101
0010
0101
1000
0110
1000
,  // measure 88
0001
1000
0001
0000
0010
0100
0010
0000
1000
0100
1000
0000
0010
0100
0010
0000
,  // measure 89
0101
0100
1010
0100
1010
0001
0110
0001
,  // measure 90
1000
0001
1000
0000
0100
0010
0100
0000
0001
0010
0001
0000
0100
0010
0100
0000
,  // measure 91
1010
0010
0101
0010
0101
1000
0110
1000
,  // measure 92
0001
1000
0001
0000
0010
0100
0010
0000
1000
0100
1000
0000
0010
0100
0010
0000
,  // measure 93
0101
0100
1010
0100
1010
0001
0110
0001
,  // measure 94
1000
0001
1000
0000
0100
0010
0100
0000
0001
0010
0001
0000
0100
0010
0100
0000
,  // measure 95
0010
0000
0001
0000
0010
0000
0000
0000
0010
0000
0000
0000
0010
0100
1000
0000
,  // measure 96
0100
0010
0001
0100
0010
0100
0001
0010
0100
1000
0010
0100
1000
0010
0100
1000
,  // measure 97
0100
0000
1000
0000
0100
0000
0000
0000
0100
0000
0000
0000
0100
0010
0001
0000
,  // measure 98
0010
0100
1000
0010
0100
0010
1000
0100
0010
0001
0100
0010
0001
0100
0010
0001
,  // measure 99
0001
0000
0100
0000
0001
0000
0000
0000
0001
0000
0000
0000
0001
1000
0010
0000
,  // measure 100
1000
0001
0100
1000
0001
1000
0100
0001
1000
0010
0001
1000
0010
0001
1000
0010
,  // measure 101
1000
0000
0010
0000
1000
0000
0000
0000
1000
0000
0000
0000
1000
0001
0100
0000
,  // measure 102
0001
1000
0010
0001
1000
0001
0010
1000
0001
0100
1000
0001
0100
1000
0001
0100
,  // measure 103
0000
1001
0101
1001
,  // measure 104
0001
0010
0100
0000
0100
0010
0001
0000
0001
0010
0100
0000
0100
0010
0001
0000
,  // measure 105
0000
0110
1100
0110
,  // measure 106
0100
0001
1000
0000
1000
0001
0100
0000
0100
0001
1000
0000
1000
0001
0100
0000
,  // measure 107
0000
1001
1010
1001
,  // measure 108
1000
0100
0010
0000
0010
0100
1000
0000
1000
0100
0010
0000
0010
0100
1000
0000
,  // measure 109
0000
0110
0011
0110
,  // measure 110
0010
1000
0001
0000
0001
1000
0010
0000
0010
1000
0001
0000
0001
1000
0010
0000
,  // measure 111
0001
0001
0001
0001
0010
0100
0001
0010
0100
1000
0100
0010
1000
0100
0010
1000
,  // measure 112
1000
1000
1000
1000
0100
0010
1000
0100
0010
0001
0010
0100
0001
0010
0100
0001
,  // measure 113
0100
0100
0100
0100
0001
1000
0100
0001
1000
0010
1000
0001
0010
1000
0001
0010
,  // measure 114
0010
0010
0010
0010
1000
0001
0010
1000
0001
0100
0001
1000
0100
0001
1000
0100
,  // measure 115
0001
0001
0001
0001
0010
0100
0001
0010
0100
1000
0100
0010
1000
0100
0010
1000
,  // measure 116
1000
1000
1000
1000
0100
0010
1000
0100
0010
0001
0010
0100
0001
0010
0100
0001
,  // measure 117
0100
0100
0100
0100
0001
1000
0100
0001
1000
0010
1000
0001
0010
1000
0001
0010
,  // measure 118
0010
0010
0010
0010
1000
0001
0010
1000
0001
0100
0001
1000
0100
0001
1000
0100
,  // measure 119
0010
0000
0001
0000
0010
0000
0000
0000
0010
0000
0000
0000
0010
0100
1000
0000
,  // measure 120
0100
0010
0001
0100
0010
0100
0001
0010
0100
1000
0010
0100
1000
0010
0100
1000
,  // measure 121
0100
0000
1000
0000
0100
0000
0000
0000
0100
0000
0000
0000
0100
0010
0001
0000
,  // measure 122
0010
0100
1000
0010
0100
0010
1000
0100
0010
0001
0100
0010
0001
0100
0010
0001
,  // measure 123
0001
0000
0100
0000
0001
0000
0000
0000
0001
0000
0000
0000
0001
1000
0010
0000
,  // measure 124
1000
0001
0100
1000
0001
1000
0100
0001
1000
0010
0001
1000
0010
0001
1000
0010
,  // measure 125
1000
0000
0010
0000
1000
0000
0000
0000
1000
0000
0000
0000
1000
0001
0100
0000
,  // measure 126
0001
1000
0010
0001
1000
0001
0010
1000
0001
0100
1000
0001
0100
1000
0001
0100
,  // measure 127
0010
0000
0001
0000
0010
0000
0000
0000
0010
0000
0000
0000
0010
0100
1000
0000
,  // measure 128
0100
0010
0001
0100
0010
0100
0001
0010
0100
1000
0010
0100
1000
0010
0100
1000
,  // measure 129
0100
0000
1000
0000
0100
0000
0000
0000
0100
0000
0000
0000
0100
0010
0001
0000
,  // measure 130
0010
0100
1000
0010
0100
0010
1000
0100
0010
0001
0100
0010
0001
0100
0010
0001
,  // measure 131
0010
0100
0010
0000
0010
0000
0010
0000
1000
0100
0010
0001
0010
0100
0001
0010
,  // measure 132
0100
0010
0100
0000
0100
0000
0100
0000
0001
0010
0100
1000
0100
0010
1000
0100
,  // measure 133
0001
1000
0001
0000
0001
0000
0001
0000
0010
1000
0001
0100
0001
1000
0100
0001
,  // measure 134
1000
0001
1000
0000
1000
0000
1000
0000
0100
0001
1000
0010
1000
0001
0010
1000
,  // measure 135
0100
0010
0100
0000
0010
0001
0010
0000
0101
0010
0101
0010
1100
0010
1100
0010
,  // measure 136
1000
0010
1000
0000
0010
0001
0010
0000
1100
0001
1100
0010
1100
0001
1100
0010
,  // measure 137
0010
0100
0010
0000
0100
1000
0100
0000
1010
0100
1010
0100
0011
0100
0011
0100
,  // measure 138
0001
0100
0001
0000
0100
1000
0100
0000
0011
1000
0011
0100
0011
1000
0011
0100
,  // measure 139
1000
0001
1000
0000
0001
0100
0001
0000
1100
0001
1100
0001
1010
0001
1010
0001
,  // measure 140
0010
0001
0010
0000
0001
0100
0001
0000
1010
0100
1010
0001
1010
0100
1010
0001
,  // measure 141
0001
1000
0001
0000
1000
0010
1000
0000
0011
1000
0011
1000
0101
1000
0101
1000
,  // measure 142
0100
1000
0100
0000
1000
0010
1000
0000
0101
0010
0101
1000
0101
0010
0101
1000
,  // measure 143
0100
0010
0100
0000
0010
0001
0010
0000
0101
0010
0101
0010
1100
0010
1100
0010
,  // measure 144
1000
0010
1000
0000
0010
0001
0010
0000
1100
0001
1100
0010
1100
0001
1100
0010
,  // measure 145
0010
0100
0010
0000
0100
1000
0100
0000
1010
0100
1010
0100
0011
0100
0011
0100
,  // measure 146
0001
0100
0001
0000
0100
1000
0100
0000
0011
1000
0011
0100
0011
1000
0011
0100
,  // measure 147
0020
0000
0000
0000
0000
0000
0000
0000
0130
0010
0100
0010
0100
0010
0100
0010
,  // measure 148
0200
0000
0000
0000
0000
0000
0000
0000
0310
0100
0010
0100
0010
0100
0010
0100
,  // measure 149
0002
0000
0000
0000
0000
0000
0000
0000
1003
0001
1000
0001
1000
0001
1000
0001
,  // measure 150
1001
0000
0000
0000
0000
0000
0001
0000
0000
0000
0000
0000
0001
0000
0000
0010
0000
0000
0100
0000
0000
1000
0000
0000
0001
0000
0010
0000
0100
0000
1000
0000
0000
0000
0000
0000
2002
0000
0000
0000
0000
0000
3003
0000
0000
0000
0000
0000
,  // measure 151
1001
0000
0000
0000
;

//---------------dance-single - Enjoy----------------
#NOTEDATA:;
#CHARTNAME:Enjoy;
#STEPSTYPE:dance-single;
#DESCRIPTION:Enjoy;
#CHARTSTYLE:;
#DIFFICULTY:Edit;
#METER:1;
#RADARVALUES:0.024719,0.108866,0.028839,0.009613,0.000000,36.000000,30.000000,6.000000,2.000000,0.000000,0.000000,0.000000,0.000000,0.000000,0.024719,0.108866,0.028839,0.009613,0.000000,36.000000,30.000000,6.000000,2.000000,0.000000,0.000000,0.000000,0.000000,0.000000;
#CREDIT:;
#NOTES:
// measure 0
0000
0000
0000
0000
,  // measure 1
0000
0000
0000
0000
,  // measure 2
0000
0000
0000
0000
,  // measure 3
0000
0000
0000
0000
,  // measure 4
0000
0000
0000
0000
,  // measure 5
0010
0000
0000
0000
,  // measure 6
0000
0000
0000
0000
,  // measure 7
0000
0000
0000
0000
,  // measure 8
0000
0000
0000
0000
,  // measure 9
0100
0000
0000
0000
,  // measure 10
0000
0000
0000
0000
,  // measure 11
0000
0000
0000
0000
,  // measure 12
0000
0000
0000
0000
,  // measure 13
0001
0000
0000
0000
,  // measure 14
0000
0000
0000
0000
,  // measure 15
0000
0000
0000
0000
,  // measure 16
0000
0000
0000
0000
,  // measure 17
1000
0000
0000
0000
,  // measure 18
0000
0000
0000
0000
,  // measure 19
0000
0000
0000
0000
,  // measure 20
1001
0000
0000
0000
,  // measure 21
0000
0000
0000
0000
,  // measure 22
0000
0000
0000
0000
,  // measure 23
0010
0000
0000
0000
,  // measure 24
0000
0000
0000
0000
,  // measure 25
0000
0000
0000
0000
,  // measure 26
0000
0000
0000
0000
,  // measure 27
0010
0000
0000
0000
,  // measure 28
0000
0000
0000
0000
,  // measure 29
0000
0000
0000
0000
,  // measure 30
0000
0000
0000
0000
,  // measure 31
0100
0000
0000
0000
,  // measure 32
0000
0000
0000
0000
,  // measure 33
0000
0000
0000
0000
,  // measure 34
0000
0000
0000
0000
,  // measure 35
0100
0000
0000
0000
,  // measure 36
0000
0000
0000
0000
,  // measure 37
0000
0000
0000
0000
,  // measure 38
0000
0000
0000
0000
,  // measure 39
0020
0000
0000
0000
,  // measure 40
0000
0000
0000
0000
,  // measure 41
0000
0000
0000
0000
,  // measure 42
0000
0000
0000
0030
,  // measure 43
0200
0000
0000
0000
,  // measure 44
0000
0000
0000
0000
,  // measure 45
0000
0000
0000
0000
,  // measure 46
0000
0000
0000
0300
,  // measure 47
0001
0000
0000
0000
,  // measure 48
0000
0000
0000
0000
,  // measure 49
0000
0000
0000
0000
,  // measure 50
0000
0000
0000
0000
,  // measure 51
1000
0000
0000
0000
,  // measure 52
0000
0000
0000
0000
,  // measure 53
0000
0000
0000
0000
,  // measure 54
0000
0000
0000
0000
,  // measure 55
0000
0000
0000
0000
,  // measure 56
0000
0000
0000
0000
,  // measure 57
0000
0000
0000
0000
,  // measure 58
0000
0000
0000
0000
,  // measure 59
0000
0000
0000
0000
,  // measure 60
0000
0000
0000
0000
,  // measure 61
0000
0000
0000
0000
,  // measure 62
0000
0000
0000
0000
,  // measure 63
1001
0000
0000
0000
,  // measure 64
0000
0000
0000
0000
,  // measure 65
0000
0000
0000
0000
,  // measure 66
0000
0000
0000
0000
,  // measure 67
0000
0000
0000
0000
,  // measure 68
0000
0000
0000
0000
,  // measure 69
0000
0000
0000
0000
,  // measure 70
0000
0000
0000
0000
,  // measure 71
0000
0000
0000
0000
,  // measure 72
0000
0000
0000
0000
,  // measure 73
0000
0000
0000
0000
,  // measure 74
0000
0000
0000
0000
,  // measure 75
0000
0000
0000
0000
,  // measure 76
0000
0000
0000
0000
,  // measure 77
0000
0000
0000
0000
,  // measure 78
0000
0000
0000
0000
,  // measure 79
0110
0000
0000
0000
,  // measure 80
0000
0000
0000
0000
,  // measure 81
0000
0000
0000
0000
,  // measure 82
0000
0000
0000
0000
,  // measure 83
0000
0000
0000
0000
,  // measure 84
0000
0000
0000
0000
,  // measure 85
0000
0000
0000
0000
,  // measure 86
0000
0000
0000
0000
,  // measure 87
0000
0000
0000
0000
,  // measure 88
0000
0000
0000
0000
,  // measure 89
0000
0000
0000
0000
,  // measure 90
0000
0000
0000
0000
,  // measure 91
0000
0000
0000
0000
,  // measure 92
0000
0000
0000
0000
,  // measure 93
0000
0000
0000
0000
,  // measure 94
0000
0000
0000
0000
,  // measure 95
0010
0000
0000
0000
,  // measure 96
0000
0000
0000
0000
,  // measure 97
0000
0000
0000
0000
,  // measure 98
0000
0000
0000
0000
,  // measure 99
0100
0000
0000
0000
,  // measure 100
0000
0000
0000
0000
,  // measure 101
0000
0000
0000
0000
,  // measure 102
0000
0000
0000
0000
,  // measure 103
0001
0000
0000
0000
,  // measure 104
0000
0000
0000
0000
,  // measure 105
0000
0000
0000
0000
,  // measure 106
0000
0000
0000
0000
,  // measure 107
1000
0000
0000
0000
,  // measure 108
0000
0000
0000
0000
,  // measure 109
0000
0000
0000
0000
,  // measure 110
0000
0000
0000
0000
,  // measure 111
1001
0000
0000
0000
,  // measure 112
0000
0000
0000
0000
,  // measure 113
0000
0000
0000
0000
,  // measure 114
0000
0000
0000
0000
,  // measure 115
0000
0000
0000
0000
,  // measure 116
0000
0000
0000
0000
,  // measure 117
0000
0000
0000
0000
,  // measure 118
1001
0000
0000
0000
,  // measure 119
0010
0000
0000
0000
,  // measure 120
0000
0000
0000
0000
,  // measure 121
0000
0000
0000
0000
,  // measure 122
0000
0000
0000
0000
,  // measure 123
0100
0000
0000
0000
,  // measure 124
0000
0000
0000
0000
,  // measure 125
0000
0000
0000
0000
,  // measure 126
0000
0000
0000
0000
,  // measure 127
0001
0000
0000
0000
,  // measure 128
0000
0000
0000
0000
,  // measure 129
0000
0000
0000
0000
,  // measure 130
0000
0000
0000
0000
,  // measure 131
1000
0000
0000
0000
,  // measure 132
0000
0000
0000
0000
,  // measure 133
0000
0000
0000
0000
,  // measure 134
0000
0000
0000
0000
,  // measure 135
1000
0000
0000
0000
,  // measure 136
0000
0000
0000
0000
,  // measure 137
0000
0000
0000
0000
,  // measure 138
0000
0000
0000
0000
,  // measure 139
0100
0000
0000
0000
,  // measure 140
0000
0000
0000
0000
,  // measure 141
0000
0000
0000
0000
,  // measure 142
0000
0000
0000
0000
,  // measure 143
0001
0000
0000
0000
,  // measure 144
0000
0000
0000
0000
,  // measure 145
0000
0000
0000
0000
,  // measure 146
0000
0000
0000
0000
,  // measure 147
0100
0000
0000
0000
,  // measure 148
0000
0000
0000
0000
,  // measure 149
0000
0000
0000
0000
,  // measure 150
0000
0000
0000
0000
,  // measure 151
1001
0000
0000
0000
;
