#TITLE:Baby doll;
#SUBTITLE:;
#ARTIST:colate;
#TITLETRANSLIT:;
#SUBTITLETRANSLIT:;
#ARTISTTRANSLIT:;
#GENRE:;
#CREDIT:;
#BANNER:;
#BACKGROUND:;
#LYRICSPATH:;
#CDTITLE:;
#MUSIC:Baby doll.ogg;
#OFFSET:-0.885000;
#SAMPLESTART:60.884995;
#SAMPLELENGTH:15.000000;
#SELECTABLE:YES;
#BPMS:0.000000=128.000000
;
#STOPS:
;
#BGCHANGES:;
#KEYSOUNDS:;
#ATTACKS:;

//---------------dance-single - ----------------
#NOTES:
     dance-single:
     :
     Easy:
     1:
     0.030743,0.078298,0.022894,0.064103,0.000000,47.000000,42.000000,5.000000,14.000000,0.000000,0.000000,0.030743,0.078298,0.022894,0.064103,0.000000,47.000000,42.000000,5.000000,14.000000,0.000000,0.000000:
0000
0000
0000
0000
,
0000
0000
0000
0000
,
0000
0000
0000
0000
,
0000
0000
0000
0000
,
0000
0000
0000
0000
,
0000
0000
0000
0000
,
0000
0000
0000
0000
,
0000
0000
0000
0000
,
0010
0000
0000
0000
,
0000
0000
0000
0000
,
0100
0000
0000
0000
,
0000
0000
0000
0000
,
0001
0000
0000
0000
,
0000
0000
0000
0000
,
1000
0000
0000
0000
,
0000
0000
0000
0000
,
0002
0000
0000
0000
,
0003
0000
0000
0000
,
0000
0000
0000
0000
,
0000
0000
0000
0000
,
2000
0000
0000
0000
,
3000
0000
0000
0000
,
0000
0000
0000
0000
,
0000
0000
0000
0000
,
0020
0000
0000
0000
,
0030
0000
0000
0000
,
0000
0000
0000
0000
,
0000
0000
0000
0000
,
0200
0000
0000
0000
,
0300
0000
0000
0000
,
0000
0000
0000
0000
,
1001
0000
0000
0000
,
1000
0000
0000
0000
,
0000
0000
0000
0000
,
1000
0000
0000
0000
,
0000
0000
0000
0000
,
0001
0000
0000
0000
,
0000
0000
0000
0000
,
0001
0000
0000
0000
,
0000
0000
0000
0000
,
0010
0000
0000
0000
,
0000
0000
0000
0000
,
0100
0000
0000
0000
,
0000
0000
0000
0000
,
0001
0000
0000
0000
,
0000
0000
0000
0000
,
1000
0000
0000
0000
,
0000
0000
0000
0000
,
0002
0000
0000
0000
,
0003
0000
0000
0000
,
0000
0000
0000
0000
,
0000
0000
0000
0000
,
2000
0000
0000
0000
,
3000
0000
0000
0000
,
0000
0000
0000
0000
,
0000
0000
0000
0000
,
0020
0000
0000
0000
,
0030
0000
0000
0000
,
0000
0000
0000
0000
,
0000
0000
0000
0000
,
0200
0000
0000
0000
,
0300
0000
0000
0000
,
0000
0000
0000
0000
,
1001
0000
0000
0000
,
1000
0000
0000
0000
,
0000
0000
0000
0000
,
1000
0000
0000
0000
,
0000
0000
0000
0000
,
0001
0000
0000
0000
,
0000
0000
0000
0000
,
0001
0000
0000
0000
,
0000
0000
0000
0000
,
2002
0000
0000
0000
,
0000
0000
0000
0000
,
0000
0000
0000
0000
,
0000
0000
0000
0000
,
0000
0000
0000
0000
,
0000
0000
0000
0000
,
0000
0000
0000
0000
,
0000
0000
3003
0000
,
1000
0000
0000
0000
,
0000
0000
0000
0000
,
0100
0000
0000
0000
,
0000
0000
0000
0000
,
0001
0000
0000
0000
,
0000
0000
0000
0000
,
0010
0000
0000
0000
,
0000
0000
0000
0000
,
0200
0000
0000
0000
,
0000
0000
0000
0000
,
0000
0000
0000
0000
,
0000
0000
0300
0000
,
0020
0000
0000
0000
,
0000
0000
0000
0000
,
0000
0000
0000
0000
,
0000
0000
0030
0000
,
1001
0000
0000
0000
,
0000
0000
0000
0000
,
1000
0000
0000
0000
,
0000
0000
0000
0000
,
0001
0000
0000
0000
,
0000
0000
0000
0000
,
0001
0000
0000
0000
,
0000
0000
0000
0000
,
0010
0000
0000
0000
,
0000
0000
0000
0000
,
0100
0000
0000
0000
,
0000
0000
0000
0000
,
0001
0000
0000
0000
,
0000
0000
0000
0000
,
1000
0000
0000
0000
,
0000
0000
0000
0000
,
2002
0000
0000
0000
,
0000
0000
0000
0000
,
3003
0000
0000
0000
;

//---------------dance-single - ----------------
#NOTES:
     dance-single:
     :
     Beginner:
     1:
     0.026165,0.078298,0.018315,0.059525,0.000000,40.000000,36.000000,4.000000,13.000000,0.000000,0.000000,0.026165,0.078298,0.018315,0.059525,0.000000,40.000000,36.000000,4.000000,13.000000,0.000000,0.000000:
0000
0000
0000
0000
,
0000
0000
0000
0000
,
0000
0000
0000
0000
,
0000
0000
0000
0000
,
0000
0000
0000
0000
,
0000
0000
0000
0000
,
0000
0000
0000
0000
,
0000
0000
0000
0000
,
0010
0000
0000
0000
,
0000
0000
0000
0000
,
0000
0000
0000
0000
,
0000
0000
0000
0000
,
0001
0000
0000
0000
,
0000
0000
0000
0000
,
1000
0000
0000
0000
,
0000
0000
0000
0000
,
0002
0000
0000
0000
,
0003
0000
0000
0000
,
0000
0000
0000
0000
,
0000
0000
0000
0000
,
2000
0000
0000
0000
,
3000
0000
0000
0000
,
0000
0000
0000
0000
,
0000
0000
0000
0000
,
0020
0000
0000
0000
,
0030
0000
0000
0000
,
0000
0000
0000
0000
,
0000
0000
0000
0000
,
0200
0000
0000
0000
,
0300
0000
0000
0000
,
0000
0000
0000
0000
,
1001
0000
0000
0000
,
1000
0000
0000
0000
,
0000
0000
0000
0000
,
1000
0000
0000
0000
,
0000
0000
0000
0000
,
0001
0000
0000
0000
,
0000
0000
0000
0000
,
0001
0000
0000
0000
,
0000
0000
0000
0000
,
0010
0000
0000
0000
,
0000
0000
0000
0000
,
0000
0000
0000
0000
,
0000
0000
0000
0000
,
0001
0000
0000
0000
,
0000
0000
0000
0000
,
1000
0000
0000
0000
,
0000
0000
0000
0000
,
0002
0000
0000
0000
,
0003
0000
0000
0000
,
0000
0000
0000
0000
,
0000
0000
0000
0000
,
2000
0000
0000
0000
,
3000
0000
0000
0000
,
0000
0000
0000
0000
,
0000
0000
0000
0000
,
0020
0000
0000
0000
,
0030
0000
0000
0000
,
0000
0000
0000
0000
,
0000
0000
0000
0000
,
0200
0000
0000
0000
,
0300
0000
0000
0000
,
0000
0000
0000
0000
,
1001
0000
0000
0000
,
1000
0000
0000
0000
,
0000
0000
0000
0000
,
1000
0000
0000
0000
,
0000
0000
0000
0000
,
0001
0000
0000
0000
,
0000
0000
0000
0000
,
0001
0000
0000
0000
,
0000
0000
0000
0000
,
2002
0000
0000
0000
,
0000
0000
0000
0000
,
0000
0000
0000
0000
,
0000
0000
0000
0000
,
0000
0000
0000
0000
,
0000
0000
0000
0000
,
0000
0000
0000
0000
,
0000
0000
3003
0000
,
1000
0000
0000
0000
,
0000
0000
0000
0000
,
0000
0000
0000
0000
,
0000
0000
0000
0000
,
0001
0000
0000
0000
,
0000
0000
0000
0000
,
0000
0000
0000
0000
,
0000
0000
0000
0000
,
0020
0000
0000
0000
,
0000
0000
0000
0000
,
0000
0000
0000
0000
,
0000
0000
0000
0000
,
0000
0000
0000
0000
,
0000
0000
0000
0000
,
0000
0000
0000
0000
,
0000
0000
0030
0000
,
1000
0000
0000
0000
,
0000
0000
0000
0000
,
1000
0000
0000
0000
,
0000
0000
0000
0000
,
0001
0000
0000
0000
,
0000
0000
0000
0000
,
0001
0000
0000
0000
,
0000
0000
0000
0000
,
0010
0000
0000
0000
,
0000
0000
0000
0000
,
0000
0000
0000
0000
,
0000
0000
0000
0000
,
0001
0000
0000
0000
,
0000
0000
0000
0000
,
1000
0000
0000
0000
,
0000
0000
0000
0000
,
2002
0000
0000
0000
,
0000
0000
0000
0000
,
3003
0000
0000
0000
;

//---------------dance-single - ----------------
#NOTES:
     dance-single:
     :
     Medium:
     1:
     0.035976,0.104397,0.022894,0.064103,0.000000,55.000000,50.000000,5.000000,14.000000,0.000000,0.000000,0.035976,0.104397,0.022894,0.064103,0.000000,55.000000,50.000000,5.000000,14.000000,0.000000,0.000000:
0000
0000
0000
0000
,
0000
0000
0000
0000
,
0000
0000
0000
0000
,
0000
0000
0000
0000
,
0000
0000
0000
0000
,
0000
0000
0000
0000
,
0000
0000
0000
0000
,
0000
0000
0000
0000
,
0010
0000
0000
0000
,
0000
0000
0000
0000
,
0100
0000
0000
0000
,
0000
0000
0000
0000
,
0001
0000
0000
0000
,
0000
0000
0000
0000
,
1000
0000
0000
0000
,
0001
0000
0000
0000
,
0002
0000
0000
0000
,
0003
0000
0000
0000
,
0000
0000
0000
0000
,
0000
0000
0000
0000
,
2000
0000
0000
0000
,
3000
0000
0000
0000
,
0000
0000
0000
0000
,
0000
0000
0000
0000
,
0020
0000
0000
0000
,
0130
0000
0000
0000
,
0000
0000
0000
0000
,
0000
0000
0000
0000
,
0200
0000
0000
0000
,
0310
0000
0000
0000
,
0000
0000
0000
0000
,
1001
0000
0000
0000
,
1000
0000
0000
0000
,
0000
0000
0000
0000
,
1000
0000
0000
0000
,
0000
0000
0000
0000
,
0001
0000
0000
0000
,
0000
0000
0000
0000
,
0001
0000
0000
0000
,
0000
0000
0000
0000
,
0010
0000
0000
0000
,
0000
0000
0000
0000
,
0100
0000
0000
0000
,
0000
0000
0000
0000
,
0001
0000
0000
0000
,
0000
0000
0000
0000
,
1000
0000
0000
0000
,
0001
0000
0000
0000
,
0002
0000
0000
0000
,
0003
0000
0000
0000
,
0000
0000
0000
0000
,
0000
0000
0000
0000
,
2000
0000
0000
0000
,
3000
0000
0000
0000
,
0000
0000
0000
0000
,
0000
0000
0000
0000
,
0020
0000
0000
0000
,
0130
0000
0000
0000
,
0000
0000
0000
0000
,
0000
0000
0000
0000
,
0200
0000
0000
0000
,
0310
0000
0000
0000
,
0000
0000
0000
0000
,
1001
0000
0000
0000
,
1000
0000
0000
0000
,
0000
0000
0000
0000
,
1000
0000
0000
0000
,
0000
0000
0000
0000
,
0001
0000
0000
0000
,
0000
0000
0000
0000
,
0001
0000
0000
0000
,
0000
0000
0000
0000
,
2002
0000
0000
0000
,
0000
0000
0000
0000
,
0000
0000
0000
0000
,
0000
0000
0000
0000
,
0000
0000
0000
0000
,
0000
0000
0000
0000
,
0000
0000
0000
0000
,
0000
0000
3003
0000
,
1000
0000
0000
0000
,
0000
0000
0000
0000
,
0100
0000
0000
0000
,
0000
0000
0000
0000
,
0001
0000
0000
0000
,
0000
0000
0000
0000
,
0010
0000
0000
0000
,
0100
0000
0000
0000
,
0200
0000
0000
0000
,
0000
0000
0000
0000
,
0000
0000
0000
0000
,
0000
0000
0300
0000
,
0020
0000
0000
0000
,
0000
0000
0000
0000
,
0000
0000
0000
0000
,
0000
0000
0030
0000
,
1001
0000
0000
0000
,
0000
0000
0000
0000
,
1000
0000
0000
0000
,
0000
0000
0000
0000
,
0001
0000
0000
0000
,
0000
0000
0000
0000
,
0001
0000
0000
0000
,
0000
0000
0000
0000
,
0010
0000
0000
0000
,
0000
0000
0000
0000
,
0100
0000
0000
0000
,
0000
0000
0000
0000
,
0001
0000
0000
0000
,
0000
0000
0000
0000
,
1000
0000
0000
0000
,
0001
0000
0000
0000
,
2002
0000
0000
0000
,
0000
0000
0000
0000
,
3003
0000
0000
0000
;

//---------------dance-single - ----------------
#NOTES:
     dance-single:
     :
     Hard:
     1:
     0.038593,0.104397,0.022894,0.064103,0.000000,59.000000,54.000000,5.000000,14.000000,0.000000,0.000000,0.038593,0.104397,0.022894,0.064103,0.000000,59.000000,54.000000,5.000000,14.000000,0.000000,0.000000:
0000
0000
0000
0000
,
0000
0000
0000
0000
,
0000
0000
0000
0000
,
0000
0000
0000
0000
,
0000
0000
0000
0000
,
0000
0000
0000
0000
,
0000
0000
0000
0000
,
0000
0000
0000
0000
,
0010
0000
0000
0000
,
0000
0000
0000
0000
,
0100
0000
0000
0000
,
0000
0000
0000
0000
,
0001
0000
0000
0000
,
0000
0000
0000
0000
,
1000
0000
0000
0000
,
0001
0000
0000
0000
,
0002
0000
0000
0000
,
0003
0000
0000
0000
,
0001
0000
0000
0000
,
0000
0000
0000
0000
,
2000
0000
0000
0000
,
3000
0000
0000
0000
,
1000
0000
0000
0000
,
0000
0000
0000
0000
,
0020
0000
0000
0000
,
0130
0000
0000
0000
,
0000
0000
0000
0000
,
0000
0000
0000
0000
,
0200
0000
0000
0000
,
0310
0000
0000
0000
,
0000
0000
0000
0000
,
1001
0000
0000
0000
,
1000
0000
0000
0000
,
0000
0000
0000
0000
,
1000
0000
0000
0000
,
0000
0000
0000
0000
,
0001
0000
0000
0000
,
0000
0000
0000
0000
,
0001
0000
0000
0000
,
0000
0000
0000
0000
,
0010
0000
0000
0000
,
0000
0000
0000
0000
,
0100
0000
0000
0000
,
0000
0000
0000
0000
,
0001
0000
0000
0000
,
0000
0000
0000
0000
,
1000
0000
0000
0000
,
0001
0000
0000
0000
,
0002
0000
0000
0000
,
0003
0000
0000
0000
,
0001
0000
0000
0000
,
0000
0000
0000
0000
,
2000
0000
0000
0000
,
3000
0000
0000
0000
,
1000
0000
0000
0000
,
0000
0000
0000
0000
,
0020
0000
0000
0000
,
0130
0000
0000
0000
,
0000
0000
0000
0000
,
0000
0000
0000
0000
,
0200
0000
0000
0000
,
0310
0000
0000
0000
,
0000
0000
0000
0000
,
1001
0000
0000
0000
,
1000
0000
0000
0000
,
0000
0000
0000
0000
,
1000
0000
0000
0000
,
0000
0000
0000
0000
,
0001
0000
0000
0000
,
0000
0000
0000
0000
,
0001
0000
0000
0000
,
0000
0000
0000
0000
,
2002
0000
0000
0000
,
0000
0000
0000
0000
,
0000
0000
0000
0000
,
0000
0000
0000
0000
,
0000
0000
0000
0000
,
0000
0000
0000
0000
,
0000
0000
0000
0000
,
0000
0000
3003
0000
,
1000
0000
0000
0000
,
0000
0000
0000
0000
,
0100
0000
0000
0000
,
0000
0000
0000
0000
,
0001
0000
0000
0000
,
0000
0000
0000
0000
,
0010
0000
0000
0000
,
0100
0000
0000
0000
,
0200
0000
0000
0000
,
0000
0000
0000
0000
,
0000
0000
0000
0000
,
0000
0000
0300
0000
,
0020
0000
0000
0000
,
0000
0000
0000
0000
,
0000
0000
0000
0000
,
0000
0000
0030
0000
,
1001
0000
0000
0000
,
0000
0000
0000
0000
,
1000
0000
0000
0000
,
0000
0000
0000
0000
,
0001
0000
0000
0000
,
0000
0000
0000
0000
,
0001
0000
0000
0000
,
0000
0000
0000
0000
,
0010
0000
0000
0000
,
0000
0000
0000
0000
,
0100
0000
0000
0000
,
0000
0000
0000
0000
,
0001
0000
0000
0000
,
0000
0000
0000
0000
,
1000
0000
0000
0000
,
0001
0000
0000
0000
,
2002
0000
0000
0000
,
0000
0000
0000
0000
,
3003
0000
0000
0000
;

//---------------dance-single - ----------------
#NOTES:
     dance-single:
     :
     Challenge:
     1:
     0.041209,0.104397,0.022894,0.064103,0.000000,63.000000,58.000000,5.000000,14.000000,0.000000,0.000000,0.041209,0.104397,0.022894,0.064103,0.000000,63.000000,58.000000,5.000000,14.000000,0.000000,0.000000:
0000
0000
0000
0000
,
0000
0000
0000
0000
,
0000
0000
0000
0000
,
0000
0000
0000
0000
,
0000
0000
0000
0000
,
0000
0000
0000
0000
,
0000
0000
0000
0000
,
0000
0000
0000
0000
,
0010
0000
0000
0000
,
0000
0000
0000
0000
,
0100
0000
0000
0000
,
0010
0000
0000
0000
,
0001
0000
0000
0000
,
0000
0000
0000
0000
,
1000
0000
0000
0000
,
0001
0000
0000
0000
,
0002
0000
0000
0000
,
0003
0000
0000
0000
,
0001
0000
0000
0000
,
0000
0000
0000
0000
,
2000
0000
0000
0000
,
3000
0000
0000
0000
,
1000
0000
0000
0000
,
0000
0000
0000
0000
,
0020
0000
0000
0000
,
0130
0000
0000
0000
,
0000
0000
0000
0000
,
0000
0000
0000
0000
,
0200
0000
0000
0000
,
0310
0000
0000
0000
,
0000
0000
0000
0000
,
1001
0000
0000
0000
,
1000
0000
0000
0000
,
0000
0000
0000
0000
,
1000
0000
0000
0000
,
0000
0000
0000
0000
,
0001
0000
0000
0000
,
0000
0000
0000
0000
,
0001
0000
0000
0000
,
0000
0000
0000
0000
,
0010
0000
0000
0000
,
0000
0000
0000
0000
,
0100
0000
0000
0000
,
0010
0000
0000
0000
,
0001
0000
0000
0000
,
0000
0000
0000
0000
,
1000
0000
0000
0000
,
0001
0000
0000
0000
,
0002
0000
0000
0000
,
0003
0000
0000
0000
,
0001
0000
0000
0000
,
0000
0000
0000
0000
,
2000
0000
0000
0000
,
3000
0000
0000
0000
,
1000
0000
0000
0000
,
0000
0000
0000
0000
,
0020
0000
0000
0000
,
0130
0000
0000
0000
,
0000
0000
0000
0000
,
0000
0000
0000
0000
,
0200
0000
0000
0000
,
0310
0000
0000
0000
,
0000
0000
0000
0000
,
1001
0000
0000
0000
,
1000
0000
0000
0000
,
0000
0000
0000
0000
,
1000
0000
0000
0000
,
0000
0000
0000
0000
,
0001
0000
0000
0000
,
0000
0000
0000
0000
,
0001
0000
0000
0000
,
0000
0000
0000
0000
,
2002
0000
0000
0000
,
0000
0000
0000
0000
,
0000
0000
0000
0000
,
0000
0000
0000
0000
,
0000
0000
0000
0000
,
0000
0000
0000
0000
,
0000
0000
0000
0000
,
0000
0000
3003
0000
,
1000
0000
0000
0000
,
0000
0000
0000
0000
,
0100
0000
0000
0000
,
0010
0000
0000
0000
,
0001
0000
0000
0000
,
0000
0000
0000
0000
,
0010
0000
0000
0000
,
0100
0000
0000
0000
,
0200
0000
0000
0000
,
0000
0000
0000
0000
,
0000
0000
0000
0000
,
0000
0000
0300
0000
,
0020
0000
0000
0000
,
0000
0000
0000
0000
,
0000
0000
0000
0000
,
0000
0000
0030
0000
,
1001
0000
0000
0000
,
0000
0000
0000
0000
,
1000
0000
0000
0000
,
0000
0000
0000
0000
,
0001
0000
0000
0000
,
0000
0000
0000
0000
,
0001
0000
0000
0000
,
0000
0000
0000
0000
,
0010
0000
0000
0000
,
0000
0000
0000
0000
,
0100
0000
0000
0000
,
0010
0000
0000
0000
,
0001
0000
0000
0000
,
0000
0000
0000
0000
,
1000
0000
0000
0000
,
0001
0000
0000
0000
,
2002
0000
0000
0000
,
0000
0000
0000
0000
,
3003
0000
0000
0000
;

//---------------dance-single - Deluxe----------------
#NOTES:
     dance-single:
     Deluxe:
     Edit:
     2:
     0.045134,0.104397,0.022894,0.064103,0.000000,69.000000,64.000000,5.000000,14.000000,0.000000,0.000000,0.045134,0.104397,0.022894,0.064103,0.000000,69.000000,64.000000,5.000000,14.000000,0.000000,0.000000:
0000
0000
0000
0000
,
0000
0000
0000
0000
,
0000
0000
0000
0000
,
0000
0000
0000
0000
,
0000
0000
0000
0000
,
0000
0000
0000
0000
,
0000
0000
0000
0000
,
0000
0000
0000
0000
,
0010
0000
0000
0000
,
0000
0000
0000
0000
,
0100
0000
0000
0000
,
0010
0000
0000
0000
,
0001
0000
0000
0000
,
0000
0000
0000
0000
,
1000
0000
0000
0000
,
0001
0000
0000
0000
,
0002
0000
0000
0000
,
0003
0000
0000
0000
,
0001
0000
0000
0000
,
0000
0000
0000
0000
,
2000
0000
0000
0000
,
3000
0000
0000
0000
,
1000
0000
0000
0000
,
0000
0000
0000
0000
,
0020
0000
0000
0000
,
0130
0000
0000
0000
,
0000
0000
0000
0000
,
0000
0000
0000
0000
,
0200
0000
0000
0000
,
0310
0000
0000
0000
,
0000
0000
0000
0000
,
1001
0000
0000
0000
,
1000
0000
0000
0000
,
0000
0000
0000
0000
,
1000
0000
0000
0000
,
0001
0000
0000
0000
,
0001
0000
0000
0000
,
0000
0000
0000
0000
,
0001
0000
0000
0000
,
1000
0000
0000
0000
,
0010
0000
0000
0000
,
0000
0000
0000
0000
,
0100
0000
0000
0000
,
0010
0000
0000
0000
,
0001
0000
0000
0000
,
0000
0000
0000
0000
,
1000
0000
0000
0000
,
0001
0000
0000
0000
,
0002
0000
0000
0000
,
0003
0000
0000
0000
,
0001
0000
0000
0000
,
0000
0000
0000
0000
,
2000
0000
0000
0000
,
3000
0000
0000
0000
,
1000
0000
0000
0000
,
0000
0000
0000
0000
,
0020
0000
0000
0000
,
0130
0000
0000
0000
,
0000
0000
0000
0000
,
0000
0000
0000
0000
,
0200
0000
0000
0000
,
0310
0000
0000
0000
,
0000
0000
0000
0000
,
1001
0000
0000
0000
,
1000
0000
0000
0000
,
0000
0000
0000
0000
,
1000
0000
0000
0000
,
0001
0000
0000
0000
,
0001
0000
0000
0000
,
0000
0000
0000
0000
,
0001
0000
0000
0000
,
1000
0000
0000
0000
,
2002
0000
0000
0000
,
0000
0000
0000
0000
,
0000
0000
0000
0000
,
0000
0000
0000
0000
,
0000
0000
0000
0000
,
0000
0000
0000
0000
,
0000
0000
0000
0000
,
0000
0000
3003
0000
,
1000
0000
0000
0000
,
0000
0000
0000
0000
,
0100
0000
0000
0000
,
0010
0000
0000
0000
,
0001
0000
0000
0000
,
0000
0000
0000
0000
,
0010
0000
0000
0000
,
0100
0000
0000
0000
,
0200
0000
0000
0000
,
0000
0000
0000
0000
,
0000
0000
0000
0000
,
0000
0000
0300
0000
,
0020
0000
0000
0000
,
0000
0000
0000
0000
,
0000
0000
0000
0000
,
0000
0000
0030
0000
,
1001
0000
0000
0000
,
0000
0000
0000
0000
,
1000
0000
0000
0000
,
0001
0000
0000
0000
,
0001
0000
0000
0000
,
0000
0000
0000
0000
,
0001
0000
0000
0000
,
1000
0000
0000
0000
,
0010
0000
0000
0000
,
0000
0000
0000
0000
,
0100
0000
0000
0000
,
0010
0000
0000
0000
,
0001
0000
0000
0000
,
0000
0000
0000
0000
,
1000
0000
0000
0000
,
0001
0000
0000
0000
,
2002
0000
0000
0000
,
0000
0000
0000
0000
,
3003
0000
0000
0000
;

//---------------dance-single - Casual----------------
#NOTES:
     dance-single:
     Casual:
     Edit:
     1:
     0.024202,0.078298,0.018315,0.059525,0.000000,37.000000,33.000000,4.000000,13.000000,0.000000,0.000000,0.024202,0.078298,0.018315,0.059525,0.000000,37.000000,33.000000,4.000000,13.000000,0.000000,0.000000:
// measure 0
0000
0000
0000
0000
,  // measure 1
0000
0000
0000
0000
,  // measure 2
0000
0000
0000
0000
,  // measure 3
0000
0000
0000
0000
,  // measure 4
0000
0000
0000
0000
,  // measure 5
0000
0000
0000
0000
,  // measure 6
0000
0000
0000
0000
,  // measure 7
0000
0000
0000
0000
,  // measure 8
0010
0000
0000
0000
,  // measure 9
0000
0000
0000
0000
,  // measure 10
0000
0000
0000
0000
,  // measure 11
0000
0000
0000
0000
,  // measure 12
0100
0000
0000
0000
,  // measure 13
0000
0000
0000
0000
,  // measure 14
0000
0000
0000
0000
,  // measure 15
0000
0000
0000
0000
,  // measure 16
0002
0000
0000
0000
,  // measure 17
0003
0000
0000
0000
,  // measure 18
0000
0000
0000
0000
,  // measure 19
0000
0000
0000
0000
,  // measure 20
2000
0000
0000
0000
,  // measure 21
3000
0000
0000
0000
,  // measure 22
0000
0000
0000
0000
,  // measure 23
0000
0000
0000
0000
,  // measure 24
0020
0000
0000
0000
,  // measure 25
0030
0000
0000
0000
,  // measure 26
0000
0000
0000
0000
,  // measure 27
0000
0000
0000
0000
,  // measure 28
0200
0000
0000
0000
,  // measure 29
0300
0000
0000
0000
,  // measure 30
0000
0000
0000
0000
,  // measure 31
1001
0000
0000
0000
,  // measure 32
1000
0000
0000
0000
,  // measure 33
0000
0000
0000
0000
,  // measure 34
1000
0000
0000
0000
,  // measure 35
0000
0000
0000
0000
,  // measure 36
0001
0000
0000
0000
,  // measure 37
0000
0000
0000
0000
,  // measure 38
0001
0000
0000
0000
,  // measure 39
0000
0000
0000
0000
,  // measure 40
0010
0000
0000
0000
,  // measure 41
0000
0000
0000
0000
,  // measure 42
0000
0000
0000
0000
,  // measure 43
0000
0000
0000
0000
,  // measure 44
0100
0000
0000
0000
,  // measure 45
0000
0000
0000
0000
,  // measure 46
0000
0000
0000
0000
,  // measure 47
0000
0000
0000
0000
,  // measure 48
0002
0000
0000
0000
,  // measure 49
0003
0000
0000
0000
,  // measure 50
0000
0000
0000
0000
,  // measure 51
0000
0000
0000
0000
,  // measure 52
2000
0000
0000
0000
,  // measure 53
3000
0000
0000
0000
,  // measure 54
0000
0000
0000
0000
,  // measure 55
0000
0000
0000
0000
,  // measure 56
0020
0000
0000
0000
,  // measure 57
0030
0000
0000
0000
,  // measure 58
0000
0000
0000
0000
,  // measure 59
0000
0000
0000
0000
,  // measure 60
0200
0000
0000
0000
,  // measure 61
0300
0000
0000
0000
,  // measure 62
0000
0000
0000
0000
,  // measure 63
1001
0000
0000
0000
,  // measure 64
1000
0000
0000
0000
,  // measure 65
0000
0000
0000
0000
,  // measure 66
1000
0000
0000
0000
,  // measure 67
0000
0000
0000
0000
,  // measure 68
0001
0000
0000
0000
,  // measure 69
0000
0000
0000
0000
,  // measure 70
0001
0000
0000
0000
,  // measure 71
0000
0000
0000
0000
,  // measure 72
2002
0000
0000
0000
,  // measure 73
0000
0000
0000
0000
,  // measure 74
0000
0000
0000
0000
,  // measure 75
0000
0000
0000
0000
,  // measure 76
0000
0000
0000
0000
,  // measure 77
0000
0000
0000
0000
,  // measure 78
0000
0000
0000
0000
,  // measure 79
0000
0000
3003
0000
,  // measure 80
1000
0000
0000
0000
,  // measure 81
0000
0000
0000
0000
,  // measure 82
0000
0000
0000
0000
,  // measure 83
0000
0000
0000
0000
,  // measure 84
0001
0000
0000
0000
,  // measure 85
0000
0000
0000
0000
,  // measure 86
0000
0000
0000
0000
,  // measure 87
0000
0000
0000
0000
,  // measure 88
0020
0000
0000
0000
,  // measure 89
0000
0000
0000
0000
,  // measure 90
0000
0000
0000
0000
,  // measure 91
0000
0000
0000
0000
,  // measure 92
0000
0000
0000
0000
,  // measure 93
0000
0000
0000
0000
,  // measure 94
0000
0000
0000
0000
,  // measure 95
0000
0000
0030
0000
,  // measure 96
1000
0000
0000
0000
,  // measure 97
0000
0000
0000
0000
,  // measure 98
1000
0000
0000
0000
,  // measure 99
0000
0000
0000
0000
,  // measure 100
0001
0000
0000
0000
,  // measure 101
0000
0000
0000
0000
,  // measure 102
0001
0000
0000
0000
,  // measure 103
0000
0000
0000
0000
,  // measure 104
0010
0000
0000
0000
,  // measure 105
0000
0000
0000
0000
,  // measure 106
0000
0000
0000
0000
,  // measure 107
0000
0000
0000
0000
,  // measure 108
0100
0000
0000
0000
,  // measure 109
0000
0000
0000
0000
,  // measure 110
0000
0000
0000
0000
,  // measure 111
0000
0000
0000
0000
,  // measure 112
2002
0000
0000
0000
,  // measure 113
0000
0000
0000
0000
,  // measure 114
3003
0000
0000
0000
;

//---------------dance-single - Enjoy----------------
#NOTES:
     dance-single:
     Enjoy:
     Edit:
     1:
     0.013736,0.052199,0.027473,0.013736,0.000000,21.000000,15.000000,6.000000,3.000000,0.000000,0.000000,0.013736,0.052199,0.027473,0.013736,0.000000,21.000000,15.000000,6.000000,3.000000,0.000000,0.000000:
// measure 0
0000
0000
0000
0000
,  // measure 1
0000
0000
0000
0000
,  // measure 2
0000
0000
0000
0000
,  // measure 3
0000
0000
0000
0000
,  // measure 4
0000
0000
0000
0000
,  // measure 5
0000
0000
0000
0000
,  // measure 6
0000
0000
0000
0000
,  // measure 7
0000
0000
0000
0000
,  // measure 8
0010
0000
0000
0000
,  // measure 9
0000
0000
0000
0000
,  // measure 10
0000
0000
0000
0000
,  // measure 11
0000
0000
0000
0000
,  // measure 12
0000
0000
0000
0000
,  // measure 13
0000
0000
0000
0000
,  // measure 14
0000
0000
0000
0000
,  // measure 15
0000
0000
0000
0000
,  // measure 16
1000
0000
0000
0000
,  // measure 17
0000
0000
0000
0000
,  // measure 18
0000
0000
0000
0000
,  // measure 19
0000
0000
0000
0000
,  // measure 20
0000
0000
0000
0000
,  // measure 21
0000
0000
0000
0000
,  // measure 22
0000
0000
0000
0000
,  // measure 23
0000
0000
0000
0000
,  // measure 24
0001
0000
0000
0000
,  // measure 25
0000
0000
0000
0000
,  // measure 26
0000
0000
0000
0000
,  // measure 27
0000
0000
0000
0000
,  // measure 28
0000
0000
0000
0000
,  // measure 29
0000
0000
0000
0000
,  // measure 30
0000
0000
0000
0000
,  // measure 31
0000
0000
0000
0000
,  // measure 32
1001
0000
0000
0000
,  // measure 33
0000
0000
0000
0000
,  // measure 34
0000
0000
0000
0000
,  // measure 35
0000
0000
0000
0000
,  // measure 36
0000
0000
0000
0000
,  // measure 37
0000
0000
0000
0000
,  // measure 38
0000
0000
0000
0000
,  // measure 39
0000
0000
0000
0000
,  // measure 40
0100
0000
0000
0000
,  // measure 41
0000
0000
0000
0000
,  // measure 42
0000
0000
0000
0000
,  // measure 43
0000
0000
0000
0000
,  // measure 44
0000
0000
0000
0000
,  // measure 45
0000
0000
0000
0000
,  // measure 46
0000
0000
0000
0000
,  // measure 47
0000
0000
0000
0000
,  // measure 48
0001
0000
0000
0000
,  // measure 49
0000
0000
0000
0000
,  // measure 50
0000
0000
0000
0000
,  // measure 51
0000
0000
0000
0000
,  // measure 52
0000
0000
0000
0000
,  // measure 53
0000
0000
0000
0000
,  // measure 54
0000
0000
0000
0000
,  // measure 55
0000
0000
0000
0000
,  // measure 56
1000
0000
0000
0000
,  // measure 57
0000
0000
0000
0000
,  // measure 58
0000
0000
0000
0000
,  // measure 59
0000
0000
0000
0000
,  // measure 60
0000
0000
0000
0000
,  // measure 61
0000
0000
0000
0000
,  // measure 62
0000
0000
0000
0000
,  // measure 63
0000
0000
0000
0000
,  // measure 64
0110
0000
0000
0000
,  // measure 65
0000
0000
0000
0000
,  // measure 66
0000
0000
0000
0000
,  // measure 67
0000
0000
0000
0000
,  // measure 68
0000
0000
0000
0000
,  // measure 69
0000
0000
0000
0000
,  // measure 70
0000
0000
0000
0000
,  // measure 71
0000
0000
0000
0000
,  // measure 72
0020
0000
0000
0000
,  // measure 73
0000
0000
0000
0000
,  // measure 74
0000
0000
0000
0000
,  // measure 75
0000
0000
0000
0000
,  // measure 76
0000
0000
0000
0000
,  // measure 77
0000
0000
0000
0000
,  // measure 78
0000
0000
0000
0000
,  // measure 79
0030
0000
0000
0000
,  // measure 80
1001
0000
0000
0000
,  // measure 81
0000
0000
0000
0000
,  // measure 82
0000
0000
0000
0000
,  // measure 83
0000
0000
0000
0000
,  // measure 84
0000
0000
0000
0000
,  // measure 85
0000
0000
0000
0000
,  // measure 86
0000
0000
0000
0000
,  // measure 87
0000
0000
0000
0000
,  // measure 88
0101
0000
0000
0000
,  // measure 89
0000
0000
0000
0000
,  // measure 90
0000
0000
0000
0000
,  // measure 91
0000
0000
0000
0000
,  // measure 92
0000
0000
0000
0000
,  // measure 93
0000
0000
0000
0000
,  // measure 94
0000
0000
0000
0000
,  // measure 95
0000
0000
0000
0000
,  // measure 96
1010
0000
0000
0000
,  // measure 97
0000
0000
0000
0000
,  // measure 98
0000
0000
0000
0000
,  // measure 99
0000
0000
0000
0000
,  // measure 100
0000
0000
0000
0000
,  // measure 101
0000
0000
0000
0000
,  // measure 102
0000
0000
0000
0000
,  // measure 103
0000
0000
0000
0000
,  // measure 104
1000
0000
0000
0000
,  // measure 105
0000
0000
0000
0000
,  // measure 106
0000
0000
0000
0000
,  // measure 107
0000
0000
0000
0000
,  // measure 108
0001
0000
0000
0000
,  // measure 109
0000
0000
0000
0000
,  // measure 110
0000
0000
0000
0000
,  // measure 111
0000
0000
0000
0000
,  // measure 112
2002
0000
0000
0000
,  // measure 113
0000
0000
0000
0000
,  // measure 114
3003
0000
0000
0000
;

//---------------dance-single - Hell----------------
#NOTES:
     dance-single:
     Hell:
     Edit:
     14:
     0.682244,0.835176,0.196889,0.242677,0.764663,1043.000000,1000.000000,43.000000,53.000000,0.000000,0.000000,0.682244,0.835176,0.196889,0.242677,0.764663,1043.000000,1000.000000,43.000000,53.000000,0.000000,0.000000:
// measure 0
0000
0000
0000
0000
,  // measure 1
0000
0000
0000
0000
,  // measure 2
0000
0000
0000
0000
,  // measure 3
0000
0000
0000
0000
,  // measure 4
0000
0000
0000
0000
,  // measure 5
0000
0000
0000
0000
,  // measure 6
0000
0000
0000
0000
,  // measure 7
0000
0000
0000
0000
,  // measure 8
0010
0100
0100
0010
0010
1000
0001
0010
,  // measure 9
1000
0100
0010
0001
0010
0100
0010
1000
0010
0100
0001
0010
0100
0010
1000
0100
,  // measure 10
0100
0010
0010
0100
0100
0001
1000
0100
,  // measure 11
0001
0010
0100
1000
0100
0010
0100
0001
0100
0010
1000
0100
0010
0100
0001
0010
,  // measure 12
0001
1000
1000
0001
0001
0010
0100
0001
,  // measure 13
0010
1000
0001
0100
0001
1000
0001
0010
0001
1000
0100
0001
1000
0001
0010
1000
,  // measure 14
1000
0001
0001
1000
1000
0100
0010
1000
,  // measure 15
0100
0001
1000
0010
1000
0001
1000
0100
1000
0001
0010
1000
0001
1000
0100
0001
,  // measure 16
0020
0000
0100
0000
0100
1000
0001
0130
,  // measure 17
0201
0010
1000
0010
0001
0000
0010
0301
,  // measure 18
0200
0000
0010
0000
0010
0001
1000
0310
,  // measure 19
1020
0100
0001
0100
1000
0000
0100
1030
,  // measure 20
0002
0000
1000
0000
1000
0010
0100
1003
,  // measure 21
2100
0001
0010
0001
0100
0000
0001
3100
,  // measure 22
2000
0000
0001
0000
0001
0100
0010
3001
,  // measure 23
0012
1000
0100
1000
0010
0000
1000
0013
,  // measure 24
1000
1000
0000
0000
0010
0010
0000
0000
1000
0100
0010
0000
0100
0010
0001
0000
,  // measure 25
0001
0001
0000
0000
0100
0100
0000
0000
0001
0010
0100
0000
0010
0100
1000
0000
,  // measure 26
0010
0010
0000
0000
0001
0001
0000
0000
0010
1000
0001
0000
1000
0001
0100
0000
,  // measure 27
0100
0100
0000
0000
1000
1000
0000
0000
0100
0001
1000
0000
0001
1000
0010
0000
,  // measure 28
0200
0000
0000
0000
0010
0010
0010
0310
,  // measure 29
0020
0000
0000
0000
0100
0100
0100
0130
,  // measure 30
1000
0000
1000
0000
0001
0010
0100
0000
0010
0000
0010
0000
0100
0010
0001
0000
,  // measure 31
2002
0000
0000
0000
0000
0000
0000
3003
,  // measure 32
1000
0100
1000
0100
0010
0100
0010
0100
0001
0010
0100
1000
0010
0100
1000
0001
,  // measure 33
0010
0100
0001
0000
0010
0001
0100
0000
0010
0100
1000
0001
0010
0001
0100
1000
,  // measure 34
0001
0010
0001
0010
0100
0010
0100
0010
1000
0100
0010
0001
0100
0010
0001
1000
,  // measure 35
0100
0010
1000
0000
0100
1000
0010
0000
0100
0010
0001
1000
0100
1000
0010
0001
,  // measure 36
0010
1000
0010
1000
0001
1000
0001
1000
0100
0001
1000
0010
0001
1000
0010
0100
,  // measure 37
0001
1000
0100
0000
0001
0100
1000
0000
0001
1000
0010
0100
0001
0100
1000
0010
,  // measure 38
0100
0001
0100
0001
1000
0001
1000
0001
0010
1000
0001
0100
1000
0001
0100
0010
,  // measure 39
1000
0001
0010
0000
1000
0010
0001
0000
1000
0001
0100
0010
1000
0010
0001
0100
,  // measure 40
0100
0010
0010
0100
0100
0001
1000
0100
,  // measure 41
0001
0010
0100
1000
0100
0010
0100
0001
0100
0010
1000
0100
0010
0100
0001
0010
,  // measure 42
0010
0100
0100
0010
0010
1000
0001
0010
,  // measure 43
1000
0100
0010
0001
0010
0100
0010
1000
0010
0100
0001
0010
0100
0010
1000
0100
,  // measure 44
1000
0001
0001
1000
1000
0100
0010
1000
,  // measure 45
0100
0001
1000
0010
1000
0001
1000
0100
1000
0001
0010
1000
0001
1000
0100
0001
,  // measure 46
0001
1000
1000
0001
0001
0010
0100
0001
,  // measure 47
0010
1000
0001
0100
0001
1000
0001
0010
0001
1000
0100
0001
1000
0001
0010
1000
,  // measure 48
0200
0000
0010
0000
0010
0001
1000
0310
,  // measure 49
1020
0100
0001
0100
1000
0000
0100
1030
,  // measure 50
0020
0000
0100
0000
0100
1000
0001
0130
,  // measure 51
0201
0010
1000
0010
0001
0000
0010
0301
,  // measure 52
2000
0000
0001
0000
0001
0100
0010
3001
,  // measure 53
0012
1000
0100
1000
0010
0000
1000
0013
,  // measure 54
0002
0000
1000
0000
1000
0010
0100
1003
,  // measure 55
2100
0001
0010
0001
0100
0000
0001
3100
,  // measure 56
0001
0001
0000
0000
0100
0100
0000
0000
0001
0010
0100
0000
0010
0100
1000
0000
,  // measure 57
1000
1000
0000
0000
0010
0010
0000
0000
1000
0100
0010
0000
0100
0010
0001
0000
,  // measure 58
0100
0100
0000
0000
1000
1000
0000
0000
0100
0001
1000
0000
0001
1000
0010
0000
,  // measure 59
0010
0010
0000
0000
0001
0001
0000
0000
0010
1000
0001
0000
1000
0001
0100
0000
,  // measure 60
0020
0000
0000
0000
0100
0100
0100
0130
,  // measure 61
0200
0000
0000
0000
0010
0010
0010
0310
,  // measure 62
0001
0000
0001
0000
1000
0100
0010
0000
0100
0000
0100
0000
0010
0100
1000
0000
,  // measure 63
2002
0000
0000
0000
0000
0000
0000
3003
,  // measure 64
1000
0100
1000
0100
0010
0100
0010
0100
0001
0010
0100
1000
0010
0100
1000
0001
,  // measure 65
0010
0100
0001
0000
0010
0001
0100
0000
0010
0100
1000
0001
0010
0001
0100
1000
,  // measure 66
0001
0010
0001
0010
0100
0010
0100
0010
1000
0100
0010
0001
0100
0010
0001
1000
,  // measure 67
0100
0010
1000
0000
0100
1000
0010
0000
0100
0010
0001
1000
0100
1000
0010
0001
,  // measure 68
0010
1000
0010
1000
0001
1000
0001
1000
0100
0001
1000
0010
0001
1000
0010
0100
,  // measure 69
0001
1000
0100
0000
0001
0100
1000
0000
0001
1000
0010
0100
0001
0100
1000
0010
,  // measure 70
0100
0001
0100
0001
1000
0001
1000
0001
0010
1000
0001
0100
1000
0001
0100
0010
,  // measure 71
1000
0001
0010
0000
1000
0010
0001
0000
1000
0001
0100
0010
1000
0010
0001
0100
,  // measure 72
2002
0000
0000
0000
,  // measure 73
0000
0000
0000
0000
,  // measure 74
0000
0000
0000
0000
,  // measure 75
0000
0000
0000
3003
,  // measure 76
1010
0100
0011
0100
1001
0100
1010
0100
,  // measure 77
0101
0010
1100
0010
1001
0010
0101
0010
,  // measure 78
0011
1000
0101
1000
0110
1000
0011
1000
,  // measure 79
1100
0001
1010
0001
0110
0001
1100
0001
,  // measure 80
2000
0000
0000
0000
0000
0000
0000
0000
3001
0010
0000
0010
0001
0000
0001
1000
,  // measure 81
0010
0100
0000
0000
0200
0000
0000
0300
0010
0100
0000
0000
0002
0000
0000
0003
,  // measure 82
1000
0001
0010
0100
1000
0001
0010
0100
1000
0001
0010
0100
1000
0001
0010
0100
,  // measure 83
1001
0000
0000
1001
0000
0000
2002
0000
0000
0000
0000
0000
0000
0000
3003
0000
,  // measure 84
1000
0010
1000
0010
1000
0100
1000
0100
0010
0100
0010
0100
0010
0001
0010
0001
,  // measure 85
1001
0000
0000
0000
1000
0100
0010
0001
0001
0010
0100
1000
1000
0100
0010
0001
,  // measure 86
0010
1000
0010
0000
0100
0001
0100
0000
0001
1000
0001
1000
0001
1000
0001
1000
,  // measure 87
0020
0100
0100
0100
0200
0000
0000
0330
,  // measure 88
2002
0000
0000
3003
,  // measure 89
2020
0000
0000
3030
,  // measure 90
2002
0000
0000
3003
,  // measure 91
0202
0000
0000
0303
,  // measure 92
0220
0000
0000
0330
,  // measure 93
0022
0000
0000
0033
,  // measure 94
0220
0000
0000
0330
,  // measure 95
2200
0000
0000
3300
,  // measure 96
1001
0100
1000
0100
0010
0100
0010
0100
0001
0010
0100
1000
0010
0100
1000
0001
,  // measure 97
0010
0100
0001
0000
0010
0001
0100
0000
0010
0100
1000
0001
0010
0001
0100
1000
,  // measure 98
0001
0010
0001
0010
0100
0010
0100
0010
1000
0100
0010
0001
0100
0010
0001
1000
,  // measure 99
0100
0010
1000
0000
0100
1000
0010
0000
0100
0010
0001
1000
0100
1000
0010
0001
,  // measure 100
0010
1000
0010
1000
0001
1000
0001
1000
0100
0001
1000
0010
0001
1000
0010
0100
,  // measure 101
0001
1000
0100
0000
0001
0100
1000
0000
0001
1000
0010
0100
0001
0100
1000
0010
,  // measure 102
0100
0001
0100
0001
1000
0001
1000
0001
0010
1000
0001
0100
1000
0001
0100
0010
,  // measure 103
1000
0001
0010
0000
1000
0010
0001
0000
1000
0001
0100
0010
1000
0010
0001
0100
,  // measure 104
0010
0100
0100
0010
0010
1000
0001
0010
,  // measure 105
1000
0100
0010
0001
0010
0100
0010
1000
0010
0100
0001
0010
0100
0010
1000
0100
,  // measure 106
0100
0010
0010
0100
0100
0001
1000
0100
,  // measure 107
0001
0010
0100
1000
0100
0010
0100
0001
0100
0010
1000
0100
0010
0100
0001
0010
,  // measure 108
0001
1000
1000
0001
0001
0010
0100
0001
,  // measure 109
0010
1000
0001
0100
0001
1000
0001
0010
0001
1000
0100
0001
1000
0001
0010
1000
,  // measure 110
1000
0001
0001
1000
1000
0100
0010
1000
,  // measure 111
0100
0001
1000
0010
1000
0001
1000
0100
1000
0001
0010
1000
0001
1000
0100
0001
,  // measure 112
1001
2001
3002
1003
,  // measure 113
2002
0000
0000
0000
,  // measure 114
3003
0000
0000
0000
;

//---------------dance-single - Plus----------------
#NOTES:
     dance-single:
     Plus:
     Edit:
     10:
     0.431717,0.495886,0.219783,0.178574,0.075550,660.000000,612.000000,48.000000,39.000000,0.000000,0.000000,0.431717,0.495886,0.219783,0.178574,0.075550,660.000000,612.000000,48.000000,39.000000,0.000000,0.000000:
// measure 0
0000
0000
0000
0000
,  // measure 1
0000
0000
0000
0000
,  // measure 2
0000
0000
0000
0000
,  // measure 3
0000
0000
0000
0000
,  // measure 4
0000
0000
0000
0000
,  // measure 5
0000
0000
0000
0000
,  // measure 6
0000
0000
0000
0000
,  // measure 7
0000
0000
0000
0000
,  // measure 8
0010
0000
0000
0010
0000
0000
0010
0000
0001
0000
0100
0000
1000
0000
0100
0000
,  // measure 9
0001
0000
0000
0001
0000
0000
0001
0000
1000
0000
1000
0000
0010
0000
0001
0000
,  // measure 10
0100
0000
0000
0100
0000
0000
0100
0000
1000
0000
0010
0000
0001
0000
0010
0000
,  // measure 11
1000
0000
0000
1000
0000
0000
1000
0000
0001
0000
0001
0000
0100
0000
1000
0000
,  // measure 12
0001
0000
0000
0001
0000
0000
0001
0000
0100
0000
1000
0000
0010
0000
1000
0000
,  // measure 13
0100
0000
0000
0100
0000
0000
0100
0000
0010
0000
0010
0000
0001
0000
0100
0000
,  // measure 14
1000
0000
0000
1000
0000
0000
1000
0000
0010
0000
0001
0000
0100
0000
0001
0000
,  // measure 15
0010
0000
0000
0010
0000
0000
0010
0000
0100
0000
0100
0000
1000
0000
0010
0000
,  // measure 16
1010
0000
0100
0000
0010
0001
0010
0100
,  // measure 17
0010
0010
0001
0001
1000
0100
0010
0001
,  // measure 18
0101
0000
0010
0000
0100
1000
0100
0010
,  // measure 19
0100
0100
1000
1000
0001
0010
0100
1000
,  // measure 20
0011
0000
1000
0000
0001
0100
0001
1000
,  // measure 21
0001
0001
0100
0100
0010
1000
0001
0100
,  // measure 22
1100
0000
0001
0000
1000
0010
1000
0001
,  // measure 23
1000
1000
0010
0010
0100
0001
1000
0010
,  // measure 24
0100
0000
0010
0000
0100
0000
0010
0000
0001
0000
0000
0010
0000
0000
0100
0000
,  // measure 25
1010
0000
0000
0000
0010
0000
0000
0000
0100
0000
0000
0100
0000
0000
0100
0000
,  // measure 26
0010
0000
0100
0000
0010
0000
0100
0000
1000
0000
0000
0100
0000
0000
0010
0000
,  // measure 27
0101
0000
0000
0000
0100
0000
0000
0000
0010
0000
0000
0010
0000
0000
0010
0000
,  // measure 28
0210
0010
0010
0010
,  // measure 29
1000
1000
1000
1000
,  // measure 30
0001
0001
0001
0301
,  // measure 31
1000
0001
1000
0001
1000
0001
1000
0001
,  // measure 32
1020
1000
1000
0000
0001
0000
0031
0000
,  // measure 33
0100
0010
0100
0000
0010
0100
1000
0000
,  // measure 34
0201
0001
1000
1300
,  // measure 35
0010
0100
0010
0000
0100
0010
0001
0000
,  // measure 36
0012
0010
0010
0000
0100
0000
0103
0000
,  // measure 37
1000
0001
1000
0000
0001
1000
0010
0000
,  // measure 38
2100
0100
0010
3010
,  // measure 39
0001
1000
0001
0000
1000
0001
0100
0000
,  // measure 40
0100
0000
0000
0100
0000
0000
0100
0000
1000
0000
0010
0000
0001
0000
0010
0000
,  // measure 41
1000
0000
0000
1000
0000
0000
1000
0000
0001
0000
0001
0000
0100
0000
1000
0000
,  // measure 42
0010
0000
0000
0010
0000
0000
0010
0000
0001
0000
0100
0000
1000
0000
0100
0000
,  // measure 43
0001
0000
0000
0001
0000
0000
0001
0000
1000
0000
1000
0000
0010
0000
0001
0000
,  // measure 44
1000
0000
0000
1000
0000
0000
1000
0000
0010
0000
0001
0000
0100
0000
0001
0000
,  // measure 45
0010
0000
0000
0010
0000
0000
0010
0000
0100
0000
0100
0000
1000
0000
0010
0000
,  // measure 46
0001
0000
0000
0001
0000
0000
0001
0000
0100
0000
1000
0000
0010
0000
1000
0000
,  // measure 47
0100
0000
0000
0100
0000
0000
0100
0000
0010
0000
0010
0000
0001
0000
0100
0000
,  // measure 48
0101
0000
0010
0000
0100
1000
0100
0010
,  // measure 49
0100
0100
1000
1000
0001
0010
0100
1000
,  // measure 50
1010
0000
0100
0000
0010
0001
0010
0100
,  // measure 51
0010
0010
0001
0001
1000
0100
0010
0001
,  // measure 52
1100
0000
0001
0000
1000
0010
1000
0001
,  // measure 53
1000
1000
0010
0010
0100
0001
1000
0010
,  // measure 54
0011
0000
1000
0000
0001
0100
0001
1000
,  // measure 55
0001
0001
0100
0100
0010
1000
0001
0100
,  // measure 56
0010
0000
0100
0000
0010
0000
0100
0000
1000
0000
0000
0100
0000
0000
0010
0000
,  // measure 57
0101
0000
0000
0000
0100
0000
0000
0000
0010
0000
0000
0010
0000
0000
0010
0000
,  // measure 58
0100
0000
0010
0000
0100
0000
0010
0000
0001
0000
0000
0010
0000
0000
0100
0000
,  // measure 59
1010
0000
0000
0000
0010
0000
0000
0000
0100
0000
0000
0100
0000
0000
0100
0000
,  // measure 60
0120
0100
0100
0100
,  // measure 61
0001
0001
0001
0001
,  // measure 62
1000
1000
1000
1030
,  // measure 63
0010
0100
0010
0100
0010
0100
0010
0100
,  // measure 64
0201
0001
0001
0000
1000
0000
1300
0000
,  // measure 65
0010
0100
0010
0000
0100
0010
0001
0000
,  // measure 66
1020
1000
0001
0031
,  // measure 67
0100
0010
0100
0000
0010
0100
1000
0000
,  // measure 68
2100
0100
0100
0000
0010
0000
3010
0000
,  // measure 69
0001
1000
0001
0000
1000
0001
0100
0000
,  // measure 70
0012
0010
0100
0103
,  // measure 71
1000
0001
1000
0000
0001
1000
0010
0000
,  // measure 72
0120
0100
0100
0100
,  // measure 73
0100
0100
0100
0100
,  // measure 74
0100
0100
0100
0100
,  // measure 75
0100
0000
0100
0000
0100
0100
0100
0130
,  // measure 76
1000
0010
1000
0000
0010
1000
0010
0000
,  // measure 77
0001
0100
0001
0000
0100
0001
0100
0000
,  // measure 78
1000
0001
1000
0000
0001
1000
0001
0000
,  // measure 79
2002
0000
0000
3003
,  // measure 80
1000
0010
0100
0000
0001
0010
0100
0000
,  // measure 81
1000
0100
0010
0000
0001
1000
0001
1000
,  // measure 82
0010
0100
0010
0100
0010
1000
0010
1000
,  // measure 83
1001
0000
0000
1001
0000
0000
2002
0000
0000
0000
0000
0000
0000
0000
3003
0000
,  // measure 84
0010
0010
1000
1010
0001
0010
0100
1000
,  // measure 85
0101
0010
0100
1000
0010
0001
0100
1000
,  // measure 86
0100
0100
0010
0010
1000
1000
0001
0001
,  // measure 87
1001
1001
1001
1001
,  // measure 88
2020
0000
0030
0000
0010
0010
3010
0000
,  // measure 89
1002
1000
2000
3003
,  // measure 90
0202
0000
0300
0000
0100
0100
0103
0000
,  // measure 91
2001
0001
0002
3003
,  // measure 92
0022
0000
0003
0000
0001
0001
0031
0000
,  // measure 93
0210
0010
0020
0330
,  // measure 94
2200
0000
3000
0000
1000
1000
1300
0000
,  // measure 95
0120
0100
0200
0330
,  // measure 96
1020
1000
0001
0031
,  // measure 97
0100
0010
0100
0000
0010
0100
1000
0000
,  // measure 98
0201
0001
1000
1300
,  // measure 99
0010
0100
0010
0000
0100
0010
0001
0000
,  // measure 100
0012
0010
0100
0103
,  // measure 101
1000
0001
1000
0000
0001
1000
0010
0000
,  // measure 102
2100
0100
0010
3010
,  // measure 103
0001
1000
0001
0000
1000
0001
0100
0000
,  // measure 104
0010
0000
0000
0010
0000
0000
0010
0000
0001
0000
0100
0000
1000
0000
0100
0000
,  // measure 105
0001
0000
0000
0001
0000
0000
0001
0000
1000
0000
1000
0000
0010
0000
0001
0000
,  // measure 106
0100
0000
0000
0100
0000
0000
0100
0000
1000
0000
0010
0000
0001
0000
0010
0000
,  // measure 107
1000
0000
0000
1000
0000
0000
1000
0000
0001
0000
0001
0000
0100
0000
1000
0000
,  // measure 108
0001
0000
0000
0001
0000
0000
0001
0000
0100
0000
1000
0000
0010
0000
1000
0000
,  // measure 109
0100
0000
0000
0100
0000
0000
0100
0000
0010
0000
0010
0000
0001
0000
0100
0000
,  // measure 110
1000
0000
0000
1000
0000
0000
1000
0000
0010
0000
0001
0000
0100
0000
0001
0000
,  // measure 111
0010
0000
0000
0010
0000
0000
0010
0000
0100
0000
0100
0000
1000
0000
0010
0000
,  // measure 112
2002
0000
0000
0000
0000
0000
0000
3003
,  // measure 113
0220
0000
0000
0000
0000
0000
0000
0330
,  // measure 114
1001
0000
0000
0000
;
