#VERSION:0.83;
#TITLE:Antagonism;
#SUBTITLE:;
#ARTIST:Yooh vs. siromaru;
#TITLETRANSLIT:;
#SUBTITLETRANSLIT:;
#ARTISTTRANSLIT:;
#GENRE:;
#ORIGIN:;
#CREDIT:;
#BANNER:;
#BACKGROUND:;
#PREVIEWVID:;
#JACKET:;
#CDIMAGE:;
#DISCIMAGE:;
#LYRICSPATH:;
#CDTITLE:;
#MUSIC:Antagonism.ogg;
#OFFSET:-1.667000;
#SAMPLESTART:85.667000;
#SAMPLELENGTH:15.000000;
#SELECTABLE:YES;
#BPMS:0.000=160.000,
64.000=320.000,
192.000=40.000,
200.000=80.000,
216.000=160.000,
244.000=320.000,
380.000=160.000,
412.000=320.000,
476.000=160.000;
#STOPS:;
#DELAYS:;
#WARPS:;
#TIMESIGNATURES:0.000=4=4;
#TICKCOUNTS:0.000=4;
#COMBOS:0.000=1;
#SPEEDS:0.000=1.000=0.000=0;
#SCROLLS:0.000=1.000;
#FAKES:;
#LABELS:0.000=Song Start;
#BGCHANGES:;
#KEYSOUNDS:;
#ATTACKS:
;

//---------------dance-single - ----------------
#NOTEDATA:;
#CHARTNAME:;
#STEPSTYPE:dance-single;
#DESCRIPTION:;
#CHARTSTYLE:;
#DIFFICULTY:Easy;
#METER:17;
#RADARVALUES:0.800982,2.062299,0.537057,0.716076,0.422485,783.000000,708.000000,75.000000,100.000000,0.000000,0.000000,0.000000,0.000000,0.000000,0.800982,2.062299,0.537057,0.716076,0.422485,783.000000,708.000000,75.000000,100.000000,0.000000,0.000000,0.000000,0.000000,0.000000;
#CREDIT:;
#NOTES:
1001
0000
0100
0000
,
0010
0000
0100
0000
,
0001
0000
1000
0000
,
0100
0000
0100
0000
,
0010
0000
0010
0000
,
0001
0010
0001
0010
0001
0000
0000
0000
1000
0100
1000
0100
1000
0000
0000
0000
,
0010
0000
0100
0000
,
2001
0001
0001
0001
,
3010
1000
0100
0010
0100
0010
0001
0010
,
0100
0001
0010
0100
0010
0100
1000
0100
,
0010
1000
0100
0010
0100
0010
0001
0010
,
0100
0001
0010
0100
0010
0100
1000
0100
,
0001
0010
0100
0001
0010
0100
0001
0010
,
1000
0100
0010
1000
0100
0010
1000
0100
,
0010
0001
0010
0100
,
0010
0100
0010
1000
0001
0010
0100
0010
0100
1000
0010
0100
0001
0000
0000
0000
,
1001
0100
0011
0100
,
1010
0001
0010
0101
,
0010
0100
0000
0000
0100
0010
0000
0000
,
0001
0010
0001
0010
0100
1000
0100
0010
,
1001
0010
1100
0010
,
0101
1000
0100
1010
,
0100
0010
0000
0000
0010
0100
0000
0000
,
1000
0100
1000
0100
0010
0001
0010
0100
,
1001
0100
0011
0100
,
1010
0001
0010
0101
,
0010
0100
0000
0000
0100
0010
0000
0000
,
0001
0010
0001
0010
0100
1000
0100
0010
,
1001
0100
0011
0100
,
1010
0001
0010
0101
,
0002
0000
0000
0103
1000
0100
1000
0100
,
2000
0000
0000
3010
0001
0010
0001
0010
,
1001
0100
0011
0100
,
1010
0001
0010
0101
,
0010
0100
0000
0000
0100
0010
0000
0000
,
0001
0010
0001
0010
0100
1000
0100
0010
,
1001
0010
1100
0010
,
0101
1000
0100
1010
,
0100
0010
0000
0000
0010
0100
0000
0000
,
1000
0100
1000
0100
0010
0001
0010
0100
,
1001
0100
0011
0100
,
1010
0001
0010
0101
,
0010
0100
0000
0000
0100
0010
0000
0000
,
0001
0010
0001
0010
0100
1000
0100
0010
,
1001
0100
0011
0100
,
1010
0001
0010
0101
,
0001
0010
0001
0000
1000
0100
1000
0000
,
0001
0010
0001
0000
1000
0100
1000
0000
,
2000
0000
0000
0000
0000
0000
0000
0000
0100
0000
0000
0000
0000
0000
0000
0000
3020
0000
0000
0000
0000
0000
0000
0000
0001
0000
0000
0000
0000
0000
0000
0000
0032
0000
0000
0000
0000
0000
0000
0000
1000
0000
0000
0000
0000
0000
0000
0000
0013
0100
0010
0000
1000
0100
1000
0000
0010
0000
0100
0000
0001
0000
0010
0000
,
0002
0000
0000
0000
0000
0000
0010
0000
0000
0000
0000
0000
2003
0000
0000
0000
0000
0000
0001
0000
0000
0000
0000
0000
3020
0000
0000
0000
0000
0000
0100
0000
0000
0000
0000
0000
0031
1000
0100
1000
0010
0001
0100
0010
1000
0100
0001
0010
,
0100
1000
0100
1000
0000
0100
0010
0001
0010
0001
0000
0010
0100
1000
0100
1000
0000
0100
0010
0001
0010
0001
0000
0010
,
0001
0010
0001
1000
0000
0100
1000
0100
1000
0001
0000
0010
1000
0100
1000
0001
0000
0010
0001
0010
0001
1000
0000
0100
,
0010
0001
0010
0001
0000
0010
0100
1000
0100
1000
0000
0100
0010
0001
0010
0001
0000
0010
0100
1000
0100
1000
0000
0100
,
1000
0100
1000
0001
0000
0010
0001
0010
0001
1000
0000
0100
0001
0010
0001
1000
0010
0100
1000
0100
1000
0001
0100
0010
,
1000
0100
1000
0010
0100
0010
0100
0010
0001
0010
0001
0010
,
0001
0010
0001
0100
0010
0100
0010
0100
1000
0100
1000
0100
,
1000
0100
1000
0010
0100
0010
0100
0010
0001
0010
0001
0010
,
0001
0010
0001
0100
0010
0100
0010
0100
1000
0100
1000
0100
,
2000
0001
3002
1000
,
0023
0100
0230
0010
,
0310
0001
0010
0001
1000
0001
1000
0100
1000
0010
0100
0010
,
2002
0000
0000
0000
,
0000
3003
0110
0000
,
2002
0000
0000
3003
0220
0000
0000
0330
,
0010
0100
0010
0100
0001
1000
0001
0000
,
2002
0000
0000
3003
0220
0000
0000
0330
,
0100
0010
0100
0010
1000
0001
1000
0000
,
0022
0000
0000
0033
2200
0000
0000
3300
,
0001
0010
0001
0010
0100
0010
0001
0000
,
2200
0000
0000
3300
0022
0000
0000
0033
,
1000
0100
0000
0001
0020
0000
0000
0030
,
2002
0000
0000
3003
0220
0000
0000
0330
,
0010
0100
0010
0100
0001
1000
0001
0000
,
2002
0000
0000
3003
0220
0000
0000
0330
,
0100
0010
0100
0010
1000
0001
1000
0000
,
0022
0000
0000
0033
2200
0000
0000
3300
,
0001
0010
0001
0010
0100
0010
0001
0000
,
2200
0000
0000
3300
0022
0000
0000
0033
,
1000
0100
0000
0001
0020
0000
0000
0030
,
2002
0000
0000
3003
0220
0000
0000
0330
,
0010
0100
0010
0100
0001
1000
0001
0000
,
2002
0000
0000
3003
0220
0000
0000
0330
,
0100
0010
0100
0010
1000
0001
1000
0000
,
0022
0000
0000
0033
2200
0000
0000
3300
,
0001
0010
0001
0010
0100
0010
0001
0000
,
2200
0000
0000
3300
0022
0000
0000
0033
,
1000
0100
0000
0001
0020
0000
0000
0030
,
2002
0000
0000
3003
0220
0000
0000
0330
,
0010
0100
0010
0100
0001
1000
0001
0000
,
2002
0000
0000
3003
0220
0000
0000
0330
,
0100
0010
0100
0010
1000
0001
1000
0000
,
0022
0000
0000
0033
2200
0000
0000
3300
,
0001
0010
0001
0010
0100
0010
0001
0000
,
2200
0000
0000
3300
0022
0000
0000
0033
,
1000
0100
0010
0001
1000
0100
0010
0001
,
2000
0000
3002
0000
,
0203
0000
0320
0000
,
0032
0000
2003
0000
,
3020
0000
0230
0000
,
2300
0000
3002
0000
,
0203
0000
0320
0000
,
0032
0000
2003
0000
,
3020
0000
0230
0000
,
0310
0001
0010
0001
0010
0001
0010
0001
,
1000
0100
0010
0001
1000
0100
0010
0001
,
0100
1000
0100
1000
0100
1000
0100
1000
,
0001
0010
0100
1000
0001
0010
0100
1000
,
0010
0001
0010
0001
0010
0001
0010
0001
,
1000
0100
0010
0001
1000
0100
0010
0001
,
0100
1000
0100
1000
0100
1000
0100
1000
,
0001
0010
0100
1000
0001
0010
0100
1000
,
0001
0010
0001
1000
0001
0010
0001
1000
,
0110
0000
0000
0011
0000
0000
1100
0000
,
1000
0100
1000
0001
1000
0100
1000
0001
,
0110
0000
0000
1100
0000
0000
0011
0000
,
0100
0010
0100
0010
0100
0010
0100
0010
,
1000
0001
1000
0001
1000
0001
1000
0001
,
1000
0100
0010
0001
1000
0100
0010
0001
,
1000
0100
0010
0001
1000
0100
0010
0001
,
0220
0000
0000
0000
,
0330
0000
0000
0000
;

//---------------dance-single - ----------------
#NOTEDATA:;
#CHARTNAME:;
#STEPSTYPE:dance-single;
#DESCRIPTION:;
#CHARTSTYLE:;
#DIFFICULTY:Medium;
#METER:18;
#RADARVALUES:0.849061,2.062299,0.537057,0.708915,0.422485,830.000000,755.000000,75.000000,99.000000,0.000000,0.000000,0.000000,0.000000,0.000000,0.849061,2.062299,0.537057,0.708915,0.422485,830.000000,755.000000,75.000000,99.000000,0.000000,0.000000,0.000000,0.000000,0.000000;
#CREDIT:;
#NOTES:
1001
0000
0100
0000
,
0010
0000
0100
0000
,
0001
0000
1000
0000
,
0100
0000
0100
0000
,
0010
0000
0010
0000
,
0001
0010
0001
0010
0001
0000
0001
0000
1000
0100
1000
0100
1000
0000
1000
0000
,
0010
0010
0100
0100
,
2001
0001
0001
0001
,
3100
0001
0010
0100
0010
0100
1000
0100
,
0010
1000
0100
0010
0100
0010
0001
0010
,
0100
0001
0010
0100
0010
0100
1000
0100
,
0010
1000
0100
0010
0100
0010
0001
0010
,
1000
0100
0010
1000
0100
0010
1000
0100
,
0001
0010
0100
0001
0010
0100
0001
0010
,
0100
1000
0100
0010
,
0100
0010
0100
0001
1000
0100
0010
0100
0010
0001
0100
0010
1000
0000
0000
0000
,
1001
0100
0011
0100
,
1010
0001
0010
0101
,
0010
0100
0010
0000
0100
0010
0100
0000
,
0001
0010
0001
0010
0100
1000
0100
0010
,
1001
0010
1100
0010
,
0101
1000
0100
1010
,
0100
0010
0100
0000
0010
0100
0010
0000
,
1000
0100
1000
0100
0010
0001
0010
0100
,
1001
0100
0011
0100
,
1010
0001
0010
0101
,
0010
0100
0010
0000
0100
0010
0100
0000
,
0001
0010
0001
0010
0100
1000
0100
0010
,
1001
0100
0011
0100
,
1010
0001
0010
0101
,
0002
0100
0000
0103
1000
0100
1000
0100
,
2000
0010
0000
3010
0001
0010
0001
0010
,
1001
0100
0011
0100
,
1010
0001
0010
0101
,
0010
0100
0010
0000
0100
0010
0100
0000
,
0001
0010
0001
0010
0100
1000
0100
0010
,
1001
0010
1100
0010
,
0101
1000
0100
1010
,
0100
0010
0100
0000
0010
0100
0010
0000
,
1000
0100
1000
0100
0010
0001
0010
0100
,
1001
0100
0011
0100
,
1010
0001
0010
0101
,
0010
0100
0010
0000
0100
0010
0100
0000
,
0001
0010
0001
0010
0100
1000
0100
0010
,
1001
0100
0011
0100
,
1010
0001
0010
0101
,
1000
0100
1000
0000
0001
0010
0001
0000
,
1000
0100
1000
0000
0001
0010
0001
0000
,
2000
0000
0000
0000
0000
0000
0000
0000
0100
0000
0000
0000
0000
0000
0000
0000
3020
0000
0000
0000
0000
0000
0000
0000
0001
0000
0000
0000
0000
0000
0000
0000
0032
0000
0000
0000
0000
0000
0000
0000
1000
0000
0000
0000
0000
0000
0000
0000
0013
0100
0010
0000
1000
0100
1000
0000
0010
0000
0100
0000
0001
0000
0010
0000
,
0002
0000
0000
0000
0000
0000
0010
0000
0000
0000
0000
0000
2003
0000
0000
0000
0000
0000
0001
0000
0000
0000
0000
0000
3020
0000
0000
0000
0000
0000
0100
0000
0000
0000
0000
0000
1030
0001
0010
0001
0100
1000
0010
0100
0001
0010
1000
0100
,
0010
0001
0010
0001
0000
0010
0100
1000
0100
1000
0000
0100
0010
0001
0010
0001
0000
0010
0100
1000
0100
1000
0000
0100
,
1000
0100
1000
0001
0000
0010
0001
0010
0001
1000
0000
0100
0001
0010
0001
1000
0000
0100
1000
0100
1000
0001
0000
0010
,
0100
1000
0100
1000
0000
0100
0010
0001
0010
0001
0000
0010
0100
1000
0100
1000
0000
0100
0010
0001
0010
0001
0000
0010
,
0001
0010
0001
1000
0000
0100
1000
0100
1000
0001
0000
0010
1000
0100
1000
0001
0100
0010
0001
0010
0001
1000
0010
0100
,
0001
0010
0001
0100
0010
0100
0010
0100
1000
0100
1000
0100
,
1000
0100
1000
0010
0100
0010
0100
0010
0001
0010
0001
0010
,
0001
0010
0001
0100
0010
0100
0010
0100
1000
0100
1000
0100
,
1000
0100
1000
0010
0100
0010
0100
0010
0001
0010
0001
0010
,
2000
0001
3002
1000
,
0023
0100
0230
0010
,
0310
0001
0010
0001
1000
0001
1000
0100
1000
0010
0100
0010
,
2001
0001
0001
0001
,
0001
3001
0110
0000
,
2002
0000
0000
3003
0220
0000
0000
0330
,
0010
0100
0010
0100
0001
1000
0001
1000
,
2002
0000
0000
3003
0220
0000
0000
0330
,
0100
0010
0100
0010
1000
0001
1000
0001
,
0022
0000
0000
0033
2200
0000
0000
3300
,
0001
0010
0001
0010
0100
0010
0001
0010
,
2200
0000
0000
3300
0022
0000
0000
0033
,
1000
0100
0000
0001
0020
0000
0000
0030
,
2002
0000
0000
3003
0220
0000
0000
0330
,
0010
0100
0010
0100
0001
1000
0001
1000
,
2002
0000
0000
3003
0220
0000
0000
0330
,
0100
0010
0100
0010
1000
0001
1000
0001
,
0022
0000
0000
0033
2200
0000
0000
3300
,
0001
0010
0001
0010
0100
0010
0001
0010
,
2200
0000
0000
3300
0022
0000
0000
0033
,
1000
0100
0000
0001
0020
0000
0000
0030
,
2002
0000
0000
3003
0220
0000
0000
0330
,
0010
0100
0010
0100
0001
1000
0001
1000
,
2002
0000
0000
3003
0220
0000
0000
0330
,
0100
0010
0100
0010
1000
0001
1000
0001
,
0022
0000
0000
0033
2200
0000
0000
3300
,
0001
0010
0001
0010
0100
0010
0001
0010
,
2200
0000
0000
3300
0022
0000
0000
0033
,
1000
0100
0000
0001
0020
0000
0000
0030
,
2002
0000
0000
3003
0220
0000
0000
0330
,
0010
0100
0010
0100
0001
1000
0001
1000
,
2002
0000
0000
3003
0220
0000
0000
0330
,
0100
0010
0100
0010
1000
0001
1000
0001
,
0022
0000
0000
0033
2200
0000
0000
3300
,
0001
0010
0001
0010
0100
0010
0001
0010
,
2200
0000
0000
3300
0022
0000
0000
0033
,
1000
0100
0010
0001
1000
0100
0010
0001
,
2000
0010
3002
0000
,
0203
1000
0320
0000
,
0032
0100
2003
0000
,
3020
0001
0230
0001
,
2300
0010
3002
0000
,
0203
1000
0320
0000
,
0032
0100
2003
0000
,
3020
0001
0230
0001
,
0310
0001
0010
1000
0010
0001
0010
0001
,
1000
0100
0010
0001
1000
0100
0010
0001
,
0100
1000
0100
0001
0100
1000
0100
1000
,
0001
0010
0100
1000
0001
0010
0100
1000
,
0010
0001
0010
1000
0010
0001
0010
0001
,
1000
0100
0010
0001
1000
0100
0010
0001
,
0100
1000
0100
0001
0100
1000
0100
1000
,
0001
0010
0100
1000
0001
0010
0100
1000
,
0001
0010
0001
1000
0001
0010
0001
1000
,
0110
0001
0000
0011
0000
0000
1100
0000
,
1000
0100
1000
0001
1000
0100
1000
0001
,
0110
1000
0000
1100
0000
0000
0011
0000
,
0010
0100
0010
0100
0010
0100
0010
0100
,
0001
1000
0001
1000
0001
1000
0001
1000
,
0001
0010
0100
1000
0001
0010
0100
1000
,
0001
0010
0100
1000
0001
0010
0100
1000
,
0220
0000
0000
0000
,
0330
0000
0000
0000
;

//---------------dance-single - ----------------
#NOTEDATA:;
#CHARTNAME:;
#STEPSTYPE:dance-single;
#DESCRIPTION:;
#CHARTSTYLE:;
#DIFFICULTY:Hard;
#METER:18;
#RADARVALUES:0.915554,2.363051,0.529896,0.486932,0.501253,895.000000,821.000000,74.000000,68.000000,0.000000,0.000000,0.000000,0.000000,0.000000,0.915554,2.363051,0.529896,0.486932,0.501253,895.000000,821.000000,74.000000,68.000000,0.000000,0.000000,0.000000,0.000000,0.000000;
#CREDIT:;
#NOTES:
1001
0000
0100
0000
,
0010
0000
0100
0000
,
0001
0000
1000
0000
,
0200
0300
0200
0300
,
0010
0000
0010
0000
,
0001
0010
1000
0010
0001
0000
0001
0000
1000
0100
0001
0100
1000
0000
1000
0000
,
0010
0010
0100
0100
,
2001
0001
0001
0001
,
3010
1000
0100
0010
0100
0010
0001
0010
,
0100
0001
0010
0100
0010
0100
1000
0100
,
0010
1000
0100
0010
0100
0010
0001
0010
,
0100
0001
0010
0100
0010
0100
1000
0100
,
0001
0010
0100
0001
0010
0100
0001
0010
,
1000
0100
0010
1000
0100
0010
1000
0100
,
0010
0001
0010
0100
,
0010
0100
0010
1000
0001
0010
0100
0010
0100
1000
0010
0100
0001
0000
0000
0000
,
1001
0100
0011
0100
,
1010
0001
0010
0101
,
0010
0100
0010
0000
0100
0010
0100
0000
,
0001
0010
0001
0010
0100
1000
0100
0010
,
1001
0010
1100
0010
,
0101
1000
0100
1010
,
0100
0010
0100
0000
0010
0100
0010
0000
,
1000
0100
1000
0100
0010
0001
0010
0100
,
1001
0100
0011
0100
,
1010
0001
0010
0101
,
0010
0100
0010
0000
0100
0010
0100
0000
,
0001
0010
0001
0010
0100
1000
0100
0010
,
1001
0100
0011
0100
,
1010
0001
0010
0101
,
0002
0100
1000
0103
1000
0100
1000
0100
,
2000
0010
0001
3010
0001
0010
0001
0010
,
1001
0100
0011
0100
,
1010
0001
0010
0101
,
0010
0100
0010
0000
0100
0010
0100
0000
,
0001
0010
0001
0010
0100
1000
0100
0010
,
1001
0010
1100
0010
,
0101
1000
0100
1010
,
0100
0010
0100
0000
0010
0100
0010
0000
,
1000
0100
1000
0100
0010
0001
0010
0100
,
1001
0100
0011
0100
,
1010
0001
0010
0101
,
0010
0100
0010
0000
0100
0010
0100
0000
,
0001
0010
0001
0010
0100
1000
0100
0010
,
1001
0100
0011
0100
,
1010
0001
0010
0101
,
1000
0100
1000
0000
0001
0010
0001
0000
,
1000
0100
1000
0000
0001
0010
0001
0000
,
2000
0000
0000
0000
0000
0000
0000
0000
0100
0000
0000
0000
0000
0000
0000
0000
3020
0000
0000
0000
0000
0000
0000
0000
0001
0000
0000
0000
0000
0000
0000
0000
0032
0000
0000
0000
0000
0000
0000
0000
1000
0000
0000
0000
0000
0000
0000
0000
0013
0100
0010
0000
1000
0100
1000
0000
0010
0000
0100
0000
0001
0000
0010
0000
,
0002
0000
0000
0000
0000
0000
0010
0000
0000
0000
0000
0000
2003
0000
0000
0000
0000
0000
0001
0000
0000
0000
0000
0000
3020
0000
0000
0000
0000
0000
0100
0000
0000
0000
0000
0000
0031
1000
0100
1000
0010
0001
0100
0010
1000
0100
0001
0010
,
0100
1000
0100
1000
0100
0100
0010
0001
0010
0001
0010
0010
0100
1000
0100
1000
0100
0100
0010
0001
0010
0001
0010
0010
,
0001
0010
0001
1000
1000
0100
1000
0100
1000
0001
0001
0010
1000
0100
1000
0001
0001
0010
0001
0010
0001
1000
1000
0100
,
0010
0001
0010
0001
0001
0010
0100
1000
0100
1000
1000
0100
0010
0001
0010
0001
0001
0010
0100
1000
0100
1000
1000
0100
,
1000
0100
1000
0001
0001
0010
0001
0010
0001
1000
1000
0100
0001
0010
0001
1000
0010
0100
1000
0100
1000
0001
0100
0010
,
1000
0100
1000
0010
0100
0010
0100
0010
0001
0010
0001
0010
,
0001
0010
0001
0100
0010
0100
0010
0100
1000
0100
1000
0100
,
1000
0100
0001
0010
0100
1000
0100
0010
0001
0010
1000
0010
,
0001
0010
0001
0100
1000
0100
0001
0100
1000
0001
0010
0100
,
2000
0010
0000
0001
0000
0010
3002
0100
0000
1000
0000
1000
,
0023
1000
0000
0100
0000
1000
0230
0001
0000
0010
0000
0001
,
0310
0001
0010
0001
1000
0001
1000
0100
1000
0010
0100
0010
,
0001
1000
0001
1000
0001
1000
0001
1000
,
0001
1000
0001
1000
0110
0000
0000
0000
,
2001
0000
0001
3000
0120
0000
0100
0030
,
0010
0100
0010
0100
0001
1000
0001
1000
,
1002
0000
1000
0003
0210
0000
0010
0300
,
0100
0010
0100
0010
1000
0001
1000
0001
,
0021
0000
0001
0030
1200
0000
1000
0300
,
0001
0010
0001
0010
0100
0010
0001
0010
,
2100
0000
0100
3000
0012
0000
0010
0003
,
1000
0100
0000
0001
0020
0000
0000
0030
,
2001
0000
0001
3000
0120
0000
0100
0030
,
0010
0100
0010
0100
0001
1000
0001
1000
,
1002
0000
1000
0003
0210
0000
0010
0300
,
0100
0010
0100
0010
1000
0001
1000
0001
,
0021
0000
0001
0030
1200
0000
1000
0300
,
0001
0010
0001
0010
0100
0010
0001
0010
,
2100
0000
0100
3000
0012
0000
0010
0003
,
1000
0100
0000
0001
0020
0000
0000
0030
,
2001
0000
0001
3000
0120
0000
0100
0030
,
0010
0100
0010
0100
0001
1000
0001
1000
,
1002
0000
1000
0003
0210
0000
0010
0300
,
0100
0010
0100
0010
1000
0001
1000
0001
,
0021
0000
0001
0030
1200
0000
1000
0300
,
0001
0010
0001
0010
0100
0010
0001
0010
,
2100
0000
0100
3000
0012
0000
0010
0003
,
1000
0100
0000
0001
0020
0000
0000
0030
,
2001
0000
0001
3000
0120
0000
0100
0030
,
0010
0100
0010
0100
0001
1000
0001
1000
,
1002
0000
1000
0003
0210
0000
0010
0300
,
0100
0010
0100
0010
1000
0001
1000
0001
,
0021
0000
0001
0030
1200
0000
1000
0300
,
0001
0010
0001
0010
0100
0010
0001
0010
,
2100
0000
0100
3000
0012
0000
0010
0003
,
1000
0100
0010
0001
1000
0100
0010
0001
,
2000
0010
3002
0000
,
0203
1000
0320
0000
,
0032
0100
2003
0000
,
3020
0001
0230
0001
,
2300
0010
3002
0000
,
0203
1000
0320
0000
,
0032
0100
2003
0000
,
3020
0001
0230
0001
,
0310
0001
0010
1000
0010
0001
0010
0001
,
1000
0100
0010
0001
1000
0100
0010
0001
,
0100
1000
0100
0001
0100
1000
0100
1000
,
0001
0010
0100
1000
0001
0010
0100
1000
,
0010
0001
0010
1000
0010
0001
0010
0001
,
1000
0100
0010
0001
1000
0100
0010
0001
,
0100
1000
0100
0001
0100
1000
0100
1000
,
0001
0010
0100
1000
0001
0010
0100
1000
,
0001
0010
0001
1000
0001
0010
0001
1000
,
0110
0001
0000
0011
1000
0000
1100
0001
,
1000
0100
1000
0001
1000
0100
1000
0001
,
0110
1000
0000
1100
0001
0000
0011
1000
,
0100
0010
0100
0010
0100
0010
0100
0010
,
1000
0001
1000
0001
1000
0001
1000
0001
,
1000
0100
0010
0001
1000
0100
0010
0001
,
1000
0100
0010
0001
1000
0100
0010
0001
,
0220
0000
0000
0000
,
0330
0000
0000
0000
;

//---------------dance-single - ----------------
#NOTEDATA:;
#CHARTNAME:;
#STEPSTYPE:dance-single;
#DESCRIPTION:;
#CHARTSTYLE:;
#DIFFICULTY:Beginner;
#METER:15;
#RADARVALUES:0.650606,1.632653,0.436806,0.716076,0.297172,636.000000,575.000000,61.000000,100.000000,0.000000,0.000000,0.000000,0.000000,0.000000,0.650606,1.632653,0.436806,0.716076,0.297172,636.000000,575.000000,61.000000,100.000000,0.000000,0.000000,0.000000,0.000000,0.000000;
#CREDIT:;
#NOTES:
1001
0000
0100
0000
,
0010
0000
0100
0000
,
0001
0000
1000
0000
,
0100
0000
0100
0000
,
0010
0000
0010
0000
,
0001
0010
0001
0010
0001
0000
0000
0000
1000
0100
1000
0100
1000
0000
0000
0000
,
0010
0000
0100
0000
,
2001
0000
0001
0000
,
3010
0000
0100
0010
0100
0010
0001
0010
,
0100
0000
0010
0100
0010
0100
1000
0100
,
0010
0000
0100
0010
0100
0010
0001
0010
,
0100
0000
0010
0100
0010
0100
1000
0100
,
0001
0010
0001
0010
0001
0010
0001
0010
,
1000
0100
1000
0100
1000
0100
1000
0100
,
0010
0001
0010
0100
,
0010
0100
0010
0100
1000
0010
0100
0010
0100
0001
0010
0100
0001
0000
0000
0000
,
1000
0100
0001
0100
,
1000
0001
0010
0100
,
0110
0000
0110
0000
,
0001
0010
0001
0000
1000
0100
1000
0000
,
0001
0010
1000
0010
,
0001
1000
0100
0010
,
0110
0000
0110
0000
,
1000
0100
1000
0000
0001
0010
0001
0000
,
1000
0100
0001
0100
,
1000
0001
0010
0100
,
0110
0000
0110
0000
,
0001
0010
0001
0000
1000
0100
1000
0000
,
1000
0100
0001
0100
,
1000
0001
0010
0100
,
0002
0000
0000
0003
1000
0001
1000
0000
,
2000
0000
0000
3000
0001
1000
0001
0000
,
1000
0100
0001
0100
,
1000
0001
0010
0100
,
0110
0000
0110
0000
,
0001
0010
0001
0000
1000
0100
1000
0000
,
0001
0010
1000
0010
,
0001
1000
0100
0010
,
0110
0000
0110
0000
,
1000
0100
1000
0000
0001
0010
0001
0000
,
1000
0100
0001
0100
,
1000
0001
0010
0100
,
0110
0000
0110
0000
,
0001
0010
0001
0000
1000
0100
1000
0000
,
1000
0100
0001
0100
,
1000
0001
0010
0100
,
0011
0001
1100
1000
,
0001
0010
0001
0000
1000
0100
1000
0000
,
2000
0000
0000
0000
0100
0000
0000
0000
3020
0000
0000
0000
0001
0000
0000
0000
0032
0000
0000
0000
1000
0000
0000
0000
0013
0100
1000
0100
0010
0100
0001
0010
,
0002
0000
0000
0000
0000
0000
0010
0000
0000
0000
0000
0000
2003
0000
0000
0000
0000
0000
0001
0000
0000
0000
0000
0000
3020
0000
0000
0000
0000
0000
0100
0000
0000
0000
0000
0000
0031
1000
0000
1000
0010
0000
0100
0010
0000
0100
0001
0010
,
0100
1000
0000
1000
0000
0100
0010
0001
0000
0001
0000
0010
0100
1000
0000
1000
0000
0100
0010
0001
0000
0001
0000
0010
,
0001
0000
0001
1000
0000
0100
1000
0000
1000
0001
0000
0010
1000
0000
1000
0001
0000
0010
0001
0000
0001
1000
0000
0100
,
0010
0001
0000
0001
0000
0010
0100
1000
0000
1000
0000
0100
0010
0001
0000
0001
0000
0010
0100
1000
0000
1000
0000
0100
,
1000
0100
0000
0001
0000
0010
0001
0010
0000
1000
0000
0100
0001
0010
0001
1000
0010
0100
1000
0100
1000
0001
0100
0010
,
1000
0100
0000
0010
0100
0000
0100
0010
0000
0010
0001
0010
,
0001
0010
0000
0100
0010
0000
0010
0100
0000
0100
1000
0100
,
1000
0100
0000
0010
0100
0000
0100
0010
0000
0010
0001
0010
,
0001
0010
0000
0100
0010
0000
0010
0100
0000
0100
1000
0100
,
2000
0000
3002
0000
,
0023
0000
0230
0000
,
0310
0001
0000
0001
1000
0000
1000
0100
0000
0010
0100
0000
,
2002
0000
0000
0000
,
0000
3003
0110
0000
,
2002
0000
0000
3003
0220
0000
0000
0330
,
0010
0000
0010
0000
0001
1000
0001
0000
,
2002
0000
0000
3003
0220
0000
0000
0330
,
0100
0000
0100
0000
1000
0001
1000
0000
,
0022
0000
0000
0033
2200
0000
0000
3300
,
0001
0000
0001
0000
0100
0010
0001
0000
,
2200
0000
0000
3300
0022
0000
0000
0033
,
1100
0000
0000
0000
0021
0000
0000
0030
,
2002
0000
0000
3003
0220
0000
0000
0330
,
0010
0000
0010
0000
0001
1000
0001
0000
,
2002
0000
0000
3003
0220
0000
0000
0330
,
0100
0000
0100
0000
1000
0001
1000
0000
,
0022
0000
0000
0033
2200
0000
0000
3300
,
0001
0000
0001
0000
0100
0010
0001
0000
,
2200
0000
0000
3300
0022
0000
0000
0033
,
1100
0000
0000
0000
0021
0000
0000
0030
,
2002
0000
0000
3003
0220
0000
0000
0330
,
0010
0000
0010
0000
0001
1000
0001
0000
,
2002
0000
0000
3003
0220
0000
0000
0330
,
0100
0000
0100
0000
1000
0001
1000
0000
,
0022
0000
0000
0033
2200
0000
0000
3300
,
0001
0000
0001
0000
0100
0010
0001
0000
,
2200
0000
0000
3300
0022
0000
0000
0033
,
1100
0000
0000
0000
0021
0000
0000
0030
,
2002
0000
0000
3003
0220
0000
0000
0330
,
0010
0000
0010
0000
0001
1000
0001
0000
,
2002
0000
0000
3003
0220
0000
0000
0330
,
0100
0000
0100
0000
1000
0001
1000
0000
,
0022
0000
0000
0033
2200
0000
0000
3300
,
0001
0000
0001
0000
0100
0010
0001
0000
,
2200
0000
0000
3300
0022
0000
0000
0033
,
0010
0100
0010
0100
0010
0100
0010
0100
,
2000
0000
3002
0000
,
0203
0000
0320
0000
,
0032
0000
2003
0000
,
3020
0000
0230
0000
,
2300
0000
3002
0000
,
0203
0000
0320
0000
,
0032
0000
2003
0000
,
3020
0000
0230
0000
,
0310
0010
0010
0010
,
0010
0001
0010
0001
0010
0001
0010
0001
,
1000
1000
1000
1000
,
0100
1000
0100
1000
0100
1000
0100
1000
,
0001
0001
0001
0001
,
1000
0100
1000
0100
1000
0100
1000
0100
,
1000
1000
1000
1000
,
0001
0010
0001
0010
0001
0010
0001
0010
,
0001
1000
0001
1000
,
0110
0000
0000
0001
0000
0000
1100
0000
,
1000
0001
1000
0001
,
0110
0000
0000
1000
0000
0000
0011
0000
,
1000
1000
0001
0001
,
1000
0001
1000
0001
1000
0001
1000
0001
,
0100
0010
0100
0010
0100
0010
0100
0010
,
1000
0001
1000
0001
1000
0001
1000
0001
,
0220
0000
0000
0000
,
0330
0000
0000
0000
;

//---------------dance-single - ----------------
#NOTEDATA:;
#CHARTNAME:;
#STEPSTYPE:dance-single;
#DESCRIPTION:;
#CHARTSTYLE:;
#DIFFICULTY:Challenge;
#METER:18;
#RADARVALUES:1.056723,2.663803,0.694594,0.572861,0.665951,1033.000000,936.000000,97.000000,80.000000,0.000000,0.000000,0.000000,0.000000,0.000000,1.056723,2.663803,0.694594,0.572861,0.665951,1033.000000,936.000000,97.000000,80.000000,0.000000,0.000000,0.000000,0.000000,0.000000;
#CREDIT:;
#NOTES:
1001
0010
0100
0010
,
0200
0310
0200
0310
,
0002
0023
2030
3020
,
0230
0001
0301
0000
0200
1000
1300
0000
,
0002
2003
3200
0320
,
0031
0100
0010
0001
1000
0000
0010
0000
0001
0000
0000
0000
0001
0000
0000
0000
1000
0010
0100
1000
0001
0000
0100
0000
1000
0000
0000
0000
1000
0000
0000
0000
,
0010
0110
0100
0110
,
2001
0010
0001
0000
0001
0010
0001
0100
,
3001
1000
0100
0010
0100
0010
0001
0010
,
1100
0001
0010
0100
0010
0100
1000
0100
,
0011
1000
0100
0010
0100
0010
0001
0010
,
1100
0001
0010
0100
0010
0100
1000
0100
,
1001
0010
0100
0001
0010
0100
0001
0010
,
1001
0010
1000
0010
0100
0000
0010
0000
1001
0100
0001
0100
0010
0000
0100
0000
,
0010
0100
0001
1000
0010
0001
0100
1000
,
0010
0100
0010
1000
0001
0010
0100
0010
0100
1000
0010
0100
2002
0000
3003
0000
,
1001
0100
0011
0100
,
1010
0001
0010
0101
,
0010
0100
0010
0000
0100
0010
0100
0000
,
0001
0010
0001
0010
0100
1000
0100
0010
,
1001
0010
1100
0010
,
0101
1000
0100
1010
,
0100
0010
0100
0000
0010
0100
0010
0000
,
1000
0100
1000
0100
0010
0001
0010
0100
,
1001
0100
0011
0100
,
1010
0001
0010
0101
,
0010
0100
0010
0000
0100
0010
0100
0000
,
0001
0010
0001
0010
0100
1000
0100
0010
,
1001
0100
0011
0100
,
1010
0001
0010
0101
,
0002
0100
1000
0103
1000
0100
1000
0100
,
2000
0010
0001
3010
0001
0010
0001
0010
,
1001
0100
0011
0100
,
1010
0001
0010
0101
,
0010
0100
0010
0000
0100
0010
0100
0000
,
0001
0010
0001
0010
0100
1000
0100
0010
,
1001
0010
1100
0010
,
0101
1000
0100
1010
,
0100
0010
0100
0000
0010
0100
0010
0000
,
1000
0100
1000
0100
0010
0001
0010
0100
,
1001
0100
0011
0100
,
1010
0001
0010
0101
,
0010
0100
0010
0000
0100
0010
0100
0000
,
0001
0010
0001
0010
0100
1000
0100
0010
,
1001
0100
0011
0100
,
1010
0001
0010
0101
,
1000
0100
1000
0000
0001
0010
0001
0000
,
1000
0100
1000
0000
0001
0010
0001
0000
,
2000
0000
0000
0000
0001
0000
0000
0000
0100
0000
0000
0000
0001
0000
0000
0000
3020
0000
0000
0000
0100
0000
0000
0000
0001
0000
0000
0000
1000
0000
0000
0000
0032
0000
0000
0000
0100
0000
0000
0000
1000
0000
0000
0000
0100
0000
0000
0000
0013
0100
0010
0000
1000
0100
1000
0000
0010
0000
0100
0000
0001
0000
0010
0000
,
0002
0000
0000
0100
0000
0000
0010
0000
0000
0100
0000
0000
2003
0000
0000
0010
0000
0000
0001
0000
0000
0100
0000
0000
3020
0000
0000
0001
0000
0000
0100
0000
0000
1000
0000
0000
0031
1000
0100
1000
0010
0001
0100
0010
1000
0100
0001
0010
,
0100
0000
1000
0000
0100
0000
1000
0000
0100
1000
0100
0000
0010
0000
0001
0000
0010
0000
0001
0000
0010
0001
0010
0000
0100
0000
1000
0000
0100
0000
1000
0000
0100
1000
0100
0000
0010
0000
0001
0000
0010
0000
0001
0000
0010
0001
0010
0000
,
0001
0000
0010
0000
0001
0000
1000
0000
1000
0001
0100
0000
1000
0000
0100
0000
1000
0000
0001
0000
0001
1000
0010
0000
1000
0000
0100
0000
1000
0000
0001
0000
0001
1000
0010
0000
0001
0000
0010
0000
0001
0000
1000
0000
1000
0001
0100
0000
,
0010
0000
0001
0000
0010
0000
0001
0000
0001
1000
0010
0000
0100
0000
1000
0000
0100
0000
1000
0000
1000
0001
0100
0000
0010
0000
0001
0000
0010
0000
0001
0000
0001
1000
0010
0000
0100
0000
1000
0000
0100
0000
1000
0000
1000
0001
0100
0000
,
1000
0000
0100
0000
1000
0000
0001
0000
0001
1000
0010
0000
0001
0000
0010
0000
0001
0000
1000
0000
1000
0001
0100
0000
0001
0000
0010
0000
0001
0000
1000
0000
0010
0001
0100
0000
1000
0000
0100
0000
1000
0000
0001
0000
0100
1000
0010
0000
,
1000
0100
1000
0010
0100
0010
0100
0010
0001
0010
0001
0010
,
0001
0010
0001
0100
0010
0100
0010
0100
1000
0100
1000
0100
,
1000
0100
0001
0010
0100
1000
0100
0010
0001
0010
1000
0010
,
0001
0010
0001
0100
1000
0100
0001
0100
1000
0001
0010
0100
,
2000
0010
0000
0001
0000
0010
3002
0100
0000
1000
0000
1000
,
0023
1000
0000
0100
0000
1000
0230
0001
0000
0010
0000
0001
,
0310
0000
0001
0000
0010
0000
0001
0000
1000
0000
0001
0000
1000
0000
0100
0000
1000
0000
0010
0100
0010
0100
0010
0100
,
0001
1000
0001
1000
0001
1000
0001
1000
,
0001
1000
0001
1000
0110
0000
0000
0000
,
2001
0010
0001
3000
0120
0001
0100
0030
,
0010
0100
0010
0100
0001
1000
0001
1000
,
1002
0100
1000
0003
0210
1000
0010
0300
,
0100
0010
0100
0010
1000
0001
1000
0001
,
0021
1000
0001
0030
1200
0001
1000
0300
,
0001
0010
0001
0010
0100
0010
0001
0010
,
2100
0001
0100
3000
0012
1000
0010
0003
,
1000
0100
0000
0001
0020
0100
1000
0130
,
2001
0010
0001
3000
0120
1000
0100
0030
,
0010
0100
0010
0100
0001
1000
0001
1000
,
1002
0100
1000
0003
0210
0001
0010
0300
,
0100
0010
0100
0010
1000
0001
1000
0001
,
0021
0100
0001
0030
1200
0010
1000
0300
,
0001
0010
0001
0010
0100
0010
0001
0010
,
2100
0010
0100
3000
0012
0100
0010
0003
,
1000
0100
0000
0001
0020
0100
0000
0130
,
2001
0010
0001
3000
0120
1000
0100
0030
,
0010
0100
0010
0100
0001
1000
0001
1000
,
1002
0100
1000
0003
0210
0001
0010
0300
,
0100
0010
0100
0010
1000
0001
1000
0001
,
0021
1000
0001
0030
1200
0001
1000
0300
,
0001
0010
0001
0010
0100
0010
0001
0010
,
2100
0001
0100
3000
0012
1000
0010
0003
,
1000
0100
0000
0001
0020
0100
1000
0130
,
2001
0100
0001
3000
0120
0001
0100
0030
,
0010
0100
0010
0100
0001
1000
0001
1000
,
1002
0010
1000
0003
0210
1000
0010
0300
,
0100
0010
0100
0010
1000
0001
1000
0001
,
0021
1000
0001
0030
1200
0001
1000
0300
,
0001
0010
0001
0010
0100
0010
0001
0010
,
2100
0001
0100
3000
0012
1000
0010
0003
,
1001
0100
0010
0001
1001
0100
0010
0001
,
2000
0000
0010
0010
3002
0000
0000
0000
,
0203
0000
1000
1000
0320
0000
0000
0000
,
0032
0000
0100
0100
2003
0000
0000
0000
,
3020
0000
0001
0001
0230
0000
0001
0001
,
2300
0000
0010
0010
3002
0000
0000
0000
,
0203
0000
1000
1000
0320
0000
0000
0000
,
0032
0000
0100
0100
2003
0000
0000
0000
,
3020
0000
0001
0001
0230
0000
0001
0000
,
0310
0001
0010
1000
0010
0001
0010
0001
,
1001
0100
0010
0001
1001
0100
0010
0001
,
0100
1000
0100
0001
0100
1000
0100
1000
,
1001
0010
0100
1000
1001
0010
0100
1000
,
0010
0001
0010
1000
0010
0001
0010
0001
,
1010
0100
0010
0001
1010
0100
0010
0001
,
0100
1000
0100
0001
0100
1000
0100
1000
,
0101
0010
0100
1000
0101
0010
0100
1000
,
1001
0010
0001
1000
0001
0010
0001
1000
,
0110
0001
0000
0011
1000
0000
1100
0001
,
1001
0100
1000
0001
1000
0100
1000
0001
,
0110
1000
0000
1100
0001
0000
0011
1000
,
0101
0010
0100
0010
1000
0100
0010
0001
,
1010
0100
0010
0100
0010
1000
0100
0010
,
0001
0000
1000
0000
1000
0100
1000
0100
0001
0000
0010
0000
0010
0001
0010
0001
,
1000
0000
1000
0000
1000
0100
1000
0100
0001
0000
0010
0000
0010
0001
0010
0001
,
0220
0000
0000
0000
,
0330
0000
0000
0000
;

//---------------dance-single - Deluxe----------------
#NOTEDATA:;
#CHARTNAME:;
#STEPSTYPE:dance-single;
#DESCRIPTION:Deluxe;
#CHARTSTYLE:;
#DIFFICULTY:Edit;
#METER:21;
#RADARVALUES:1.235742,2.964554,1.074114,0.630147,1.117078,1208.000000,1058.000000,150.000000,88.000000,0.000000,0.000000,0.000000,0.000000,0.000000,1.235742,2.964554,1.074114,0.630147,1.117078,1208.000000,1058.000000,150.000000,88.000000,0.000000,0.000000,0.000000,0.000000,0.000000;
#CREDIT:;
#NOTES:
// measure 0
1001
0000
0010
0000
0100
0010
0100
0010
,  // measure 1
1200
0310
0201
0310
,  // measure 2
1002
0023
2030
3020
,  // measure 3
0230
0000
0001
0000
0301
0010
0001
0010
0200
0000
1000
0000
1300
0100
1000
0100
,  // measure 4
0002
2003
3200
0320
,  // measure 5
0031
0100
0010
0001
1000
0000
0010
0000
0001
0000
0000
0000
0001
0000
0000
0000
1000
0010
0100
1000
0001
0000
0100
0000
1000
0000
0000
0000
1000
0000
0000
0000
,  // measure 6
0010
0010
0110
0000
0100
0100
0110
0000
,  // measure 7
0001
1000
0010
1000
0001
0000
1010
0000
0001
0100
0010
0100
0001
0010
0100
0010
,  // measure 8
0001
0010
1000
0000
0100
0000
0010
0000
0100
0000
0010
0000
0001
0010
0001
0000
,  // measure 9
1100
0000
0001
0000
0010
0000
0100
0000
0010
0000
0100
0000
1000
0100
1000
0000
,  // measure 10
0011
0000
1000
0000
0100
0000
0010
0000
0100
0000
0010
0000
0001
0010
0001
0000
,  // measure 11
1100
0000
0001
0000
0010
0000
0100
0000
0010
0000
0100
0000
1000
0100
0010
0000
,  // measure 12
1001
0000
0010
0000
0100
0000
0001
0000
0010
0000
0100
0000
0010
0001
0010
0000
,  // measure 13
1001
0010
1000
0010
0100
0000
0010
0000
1001
0100
0001
0100
0010
0000
0100
0000
,  // measure 14
0010
1000
0100
0000
0001
0000
1000
0000
0010
0100
0001
0000
0100
0000
1000
0000
,  // measure 15
0010
0000
0000
0100
0000
0000
0010
0000
0000
1000
0000
0000
0001
0000
0000
0010
0000
0000
0100
0000
0000
0010
0000
0000
0100
0000
1000
0000
0010
0000
1000
0000
0010
0000
0100
0000
2002
0000
0000
0000
0000
0000
3003
0000
0000
0000
0000
0000
,  // measure 16
1001
0101
0011
0101
,  // measure 17
1010
1001
0011
0101
,  // measure 18
0010
0100
0010
0100
0010
0100
0010
0100
,  // measure 19
0001
0010
0001
0010
0100
1000
0100
0010
,  // measure 20
1001
1010
1100
1010
,  // measure 21
0101
1001
1100
1010
,  // measure 22
0100
0010
0100
0010
0100
0010
0100
0010
,  // measure 23
1000
0100
1000
0100
0010
0001
0010
0100
,  // measure 24
1001
0101
0011
0101
,  // measure 25
1010
1001
0011
0101
,  // measure 26
0010
0100
0010
0100
0010
0100
0010
0100
,  // measure 27
0001
0010
0001
0010
0100
1000
0100
0010
,  // measure 28
1001
0101
0011
0101
,  // measure 29
1010
1001
0011
0101
,  // measure 30
0002
0000
0000
0100
0000
0000
1000
0000
0000
0103
0000
0000
1000
0000
0000
0100
0000
0000
1000
0000
0010
0000
0100
0000
,  // measure 31
2000
0000
0000
0010
0000
0000
0001
0000
0000
3010
0000
0000
0001
0000
0000
0010
0000
0000
0001
0000
0100
0000
0010
0000
,  // measure 32
1001
0101
0011
0101
,  // measure 33
1010
1001
0011
0101
,  // measure 34
0010
0100
0010
0100
0010
0100
0010
0100
,  // measure 35
0001
0010
0001
0010
0100
1000
0100
0010
,  // measure 36
1001
1010
1100
1010
,  // measure 37
0101
1001
1100
1010
,  // measure 38
0100
0010
0100
0010
0100
0010
0100
0010
,  // measure 39
1000
0100
1000
0100
0010
0001
0010
0100
,  // measure 40
1001
0101
0011
0101
,  // measure 41
1010
1001
0011
0101
,  // measure 42
0010
0100
0010
0100
0010
0100
0010
0100
,  // measure 43
0001
0010
0001
0010
0100
1000
0100
0010
,  // measure 44
1001
0101
0011
0101
,  // measure 45
1010
1001
0011
0101
,  // measure 46
1000
0100
1000
0010
0001
0010
0001
0100
,  // measure 47
1000
0100
1000
0010
0001
0010
0001
0100
,  // measure 48
2000
0000
0001
0000
0001
0000
0001
0000
0100
0000
0000
0000
0001
0000
0000
0000
3020
0000
0100
0000
0100
0000
0100
0000
0001
0000
0000
0000
1000
0000
0000
0000
0032
0000
0100
0000
0100
0000
0100
0000
1000
0000
0000
0000
0100
0000
0000
0000
0013
0100
0010
0000
1000
0100
1000
0000
0010
0001
0100
0010
0001
0100
0010
0100
,  // measure 49
0002
0000
0000
0000
0000
0000
0100
0000
0000
0000
0000
0000
0100
0000
0000
0000
0000
0000
0100
0000
0000
0000
0000
0000
0010
0000
0000
0000
0000
0000
0000
0000
0000
0000
0000
0000
0100
0000
0000
0000
0000
0000
0000
0000
0000
0000
0000
0000
2003
0000
0000
0000
0000
0000
0010
0000
0000
0000
0000
0000
0010
0000
0000
0000
0000
0000
0010
0000
0000
0000
0000
0000
0001
0000
0000
0000
0000
0000
0000
0000
0000
0000
0000
0000
0100
0000
0000
0000
0000
0000
0000
0000
0000
0000
0000
0000
3020
0000
0000
0000
0000
0000
0001
0000
0000
0000
0000
0000
0001
0000
0000
0000
0000
0000
0001
0000
0000
0000
0000
0000
0100
0000
0000
0000
0000
0000
0000
0000
0000
0000
0000
0000
1000
0000
0000
0000
0000
0000
0000
0000
0000
0000
0000
0000
0031
0000
0000
0000
1000
0000
0000
0000
0100
0000
0000
0000
1000
0000
0000
0000
0010
0000
0000
0000
0001
0000
0000
0000
0100
0000
0000
0000
0010
0000
0000
0000
1000
0000
0000
0000
0100
0000
0000
0000
0001
0000
0000
0000
0010
0000
0000
0000
,  // measure 50
0100
0001
1000
0000
0100
0000
1000
0000
0100
1000
0100
0000
0010
1000
0001
0000
0010
0000
0001
0000
0010
0001
0010
0000
0100
0001
1000
0000
0100
0000
1000
0000
0100
1000
0100
0000
0010
1000
0001
0000
0010
0000
0001
0000
0010
0001
0010
0000
,  // measure 51
0001
1000
0010
0000
0001
0000
1000
0000
1000
0001
0100
0000
1000
0001
0100
0000
1000
0000
0001
0000
0001
1000
0010
0000
1000
0001
0100
0000
1000
0000
0001
0000
0001
1000
0010
0000
0001
1000
0010
0000
0001
0000
1000
0000
1000
0001
0100
0000
,  // measure 52
0010
1000
0001
0000
0010
0000
0001
0000
0001
1000
0010
0000
0100
0001
1000
0000
0100
0000
1000
0000
1000
0001
0100
0000
0010
1000
0001
0000
0010
0000
0001
0000
0001
1000
0010
0000
0100
0001
1000
0000
0100
0000
1000
0000
1000
0001
0100
0000
,  // measure 53
1000
0001
0100
0000
1000
0000
0001
0000
0001
1000
0010
0000
0001
1000
0010
0000
0001
0000
1000
0000
1000
0001
0100
0000
0001
0000
0010
0000
0001
0000
1000
0000
0010
0001
0100
0000
1000
0000
0100
0000
1000
0000
0001
0010
0100
1000
0010
0100
,  // measure 54
1001
0100
1000
0010
0100
0010
0110
0010
0001
0010
0001
0010
,  // measure 55
1001
0010
0001
0100
0010
0100
0110
0100
1000
0100
1000
0100
,  // measure 56
1001
0100
0001
0010
0100
1000
0110
0010
0001
0010
1000
0010
,  // measure 57
1001
0010
0001
0100
1000
0100
1001
0100
1000
0001
0010
0100
,  // measure 58
2000
0010
0000
0001
0000
0010
3002
0100
0000
1000
0000
1000
,  // measure 59
0023
1000
0000
0100
0000
1000
0230
0001
0000
0010
0000
0001
,  // measure 60
0310
0000
0001
0000
0010
0000
0001
0000
1000
0000
0001
0000
1000
0001
1000
0001
1000
0001
0010
0100
0010
0100
0010
0100
,  // measure 61
0001
1000
0001
1000
0001
1000
0001
1000
,  // measure 62
0001
1000
0001
1000
0001
1000
0110
0000
0000
0000
0000
0000
,  // measure 63
2001
0010
0001
3000
0120
0001
0100
0030
,  // measure 64
0010
0000
0000
0100
0000
0000
0010
0000
0000
0100
0000
0000
0001
0000
1000
0000
0001
0000
1000
0000
0001
0000
1000
0000
,  // measure 65
1002
0100
1000
0003
0210
1000
0010
0300
,  // measure 66
0100
0000
0000
0010
0000
0000
0100
0000
0000
0010
0000
0000
1000
0000
0001
0000
1000
0000
0001
0000
1000
0000
0001
0000
,  // measure 67
0021
1000
0001
0030
1200
0001
1000
0300
,  // measure 68
0001
0000
0000
0010
0000
0000
0001
0000
0000
0010
0000
0000
0100
0000
0010
0000
0001
0000
0010
0000
0100
0000
0010
0000
,  // measure 69
2100
0001
0100
3000
0012
1000
0010
0003
,  // measure 70
1000
0100
1000
0001
0020
0100
1000
0130
,  // measure 71
2001
0010
0001
3000
0120
1000
0100
0030
,  // measure 72
0010
0000
0000
0100
0000
0000
0010
0000
0000
0100
0000
0000
0001
0000
1000
0000
0001
0000
1000
0000
0001
0000
1000
0000
,  // measure 73
1002
0100
1000
0003
0210
0001
0010
0300
,  // measure 74
0100
0000
0000
0010
0000
0000
0100
0000
0000
0010
0000
0000
1000
0000
0001
0000
1000
0000
0001
0000
1000
0000
0001
0000
,  // measure 75
0021
0100
0001
0030
1200
0010
1000
0300
,  // measure 76
0001
0000
0000
0010
0000
0000
0001
0000
0000
0010
0000
0000
0100
0000
0010
0000
0001
0000
0010
0000
0100
0000
0010
0000
,  // measure 77
2100
0010
0100
3000
0012
0100
0010
0003
,  // measure 78
1000
0100
0000
0001
0020
0100
0000
0130
,  // measure 79
2001
0010
0001
3000
0120
1000
0100
0030
,  // measure 80
0010
0000
0000
0100
0000
0000
0010
0000
0000
0100
0000
0000
0001
0000
1000
0000
0001
0000
1000
0000
0001
0000
1000
0000
,  // measure 81
1002
0100
1000
0003
0210
0001
0010
0300
,  // measure 82
0100
0000
0000
0010
0000
0000
0100
0000
0000
0010
0000
0000
1000
0000
0001
0000
1000
0000
0001
0000
1000
0000
0001
0000
,  // measure 83
0021
1000
0001
0030
1200
0001
1000
0300
,  // measure 84
0001
0000
0000
0010
0000
0000
0001
0000
0000
0010
0000
0000
0100
0000
0010
0000
0001
0000
0010
0000
0100
0000
0010
0000
,  // measure 85
2100
0001
0100
3000
0012
1000
0010
0003
,  // measure 86
1000
0100
0000
0001
0020
0100
1000
0130
,  // measure 87
2001
0100
0001
3000
0120
0001
0100
0030
,  // measure 88
0010
0000
0000
0100
0000
0000
0010
0000
0000
0100
0000
0000
0001
0000
1000
0000
0001
0000
1000
0000
0001
0000
1000
0000
,  // measure 89
1002
0010
1000
0003
0210
1000
0010
0300
,  // measure 90
0100
0000
0000
0010
0000
0000
0100
0000
0000
0010
0000
0000
1000
0000
0001
0000
1000
0000
0001
0000
1000
0000
0001
0000
,  // measure 91
0021
1000
0001
0030
1200
0001
1000
0300
,  // measure 92
0001
0000
0000
0010
0000
0000
0001
0000
0000
0010
0000
0000
0100
0000
0010
0000
0001
0000
0010
0000
0100
0000
0010
0000
,  // measure 93
2100
0001
0100
3000
0012
1000
0010
0003
,  // measure 94
1001
1000
0110
0001
1001
1000
0110
0001
,  // measure 95
2000
0020
0030
0010
3002
0000
0000
0000
,  // measure 96
0203
2000
3000
1000
0320
0000
0000
0000
,  // measure 97
0032
0200
0300
0100
2003
0000
0000
0000
,  // measure 98
3020
0002
0003
0001
0230
0002
0003
0001
,  // measure 99
2300
0020
0030
0010
3002
0000
0000
0000
,  // measure 100
0203
2000
3000
1000
0320
0000
0000
0000
,  // measure 101
0032
0200
0300
0100
2003
0000
0000
0000
,  // measure 102
3020
0002
0003
0001
0230
0000
0001
0001
,  // measure 103
0310
0001
0010
1000
0010
0001
0010
0001
,  // measure 104
1001
1000
0110
0001
1001
1000
0110
0001
,  // measure 105
0100
1000
0100
0001
0100
1000
0100
1000
,  // measure 106
1001
0001
0110
1000
1001
0001
0110
1000
,  // measure 107
0010
0001
0010
1000
0010
0001
0010
0001
,  // measure 108
1010
0100
0011
0001
1010
0100
0011
0001
,  // measure 109
0100
1000
0100
0001
0100
1000
0100
1000
,  // measure 110
0101
0010
1100
1000
0101
0010
1100
1000
,  // measure 111
1001
0000
0000
0010
0000
0000
0001
0000
0000
1000
0000
0000
0001
0000
0010
0000
0001
0000
1000
0000
0001
0000
1000
0000
,  // measure 112
0110
0001
0010
0011
1000
0100
1100
0001
,  // measure 113
1001
0000
0000
0100
0000
0000
1000
0000
0000
0001
0000
0000
1000
0000
0100
0000
1000
0000
0001
0000
1000
0000
0001
0000
,  // measure 114
0110
1000
0100
1100
0001
0010
0011
1000
,  // measure 115
0101
0010
0100
0010
1000
0100
0010
0001
,  // measure 116
1010
0000
0000
0100
0000
0000
0010
0000
0000
0100
0000
0000
0010
0000
0100
0000
0010
0000
1000
0000
0100
0000
0010
0000
,  // measure 117
0001
0000
1000
0010
1000
0010
1000
0010
0001
0000
0010
0001
0010
0001
0010
0001
,  // measure 118
1000
0000
1000
0100
1000
0100
1000
0100
0001
0000
0010
1000
0010
1000
0010
1000
,  // measure 119
0220
0000
0000
0000
,  // measure 120
0330
0000
0000
0000
;
