#TITLE:Angelic Snow;
#SUBTITLE:;
#ARTIST:Est;
#TITLETRANSLIT:;
#SUBTITLETRANSLIT:;
#ARTISTTRANSLIT:;
#GENRE:TRANCE;
#CREDIT:;
#BANNER:;
#BACKGROUND:;
#LYRICSPATH:;
#CDTITLE:;
#MUSIC:Angelic Snow.ogg;
#OFFSET:0.000000;
#SAMPLESTART:40.540539;
#SAMPLELENGTH:15.000000;
#SELECTABLE:YES;
#BPMS:0.000000=148.000000
;
#STOPS:
;
#BGCHANGES:;
#KEYSOUNDS:;
#ATTACKS:;

//---------------dance-single - ----------------
#NOTES:
     dance-single:
     Old Normal:
     Edit:
     6:
     0.201112,0.292629,0.055362,0.189813,0.000000,178.000000,171.000000,7.000000,24.000000,0.000000,0.000000,0.201112,0.292629,0.055362,0.189813,0.000000,178.000000,171.000000,7.000000,24.000000,0.000000,0.000000:
0000
0000
0000
0000
,
0000
0000
0000
0000
,
0000
0000
0000
0000
,
0000
0000
0000
0000
,
0000
0000
0000
0000
,
0000
0000
0000
0000
,
0000
0000
0000
0000
,
0000
0000
0000
0000
,
0000
0000
0000
0000
,
1000
1000
0010
0000
,
0001
0001
1000
0000
,
0010
0100
0001
0000
,
0100
0010
1000
0000
,
0001
0001
0100
0000
,
1000
1000
0001
0000
,
0100
0010
1000
0000
,
0010
0100
0001
0000
,
1000
1000
0010
0000
,
0001
0001
1000
0000
,
0010
0100
0001
0000
,
0100
0010
1000
0000
,
0001
0001
0100
0000
,
1000
1000
0001
0000
,
1000
0001
1000
0001
,
0100
0000
0010
0000
0220
0000
0000
0330
,
2000
0000
3001
0001
,
0002
0000
1003
1000
,
0020
0000
0130
0100
,
0200
0000
0310
0010
,
2000
0000
3001
0001
,
0002
0000
1003
1000
,
0020
0000
0130
0100
,
0200
0000
0310
0010
,
2000
0000
3001
0001
,
0002
0000
1003
1000
,
0020
0000
0130
0100
,
0200
0000
0310
0010
,
2000
0000
3001
0001
,
0002
0000
1003
1000
,
1000
0001
1000
0001
,
0100
0000
0010
0000
0220
0000
0000
0330
,
0001
0000
0000
0000
,
1000
0000
0000
0000
,
0001
0000
0000
0000
,
1000
0000
0000
0000
,
0001
0000
0000
0000
,
1000
0000
0000
0000
,
0001
0000
0000
0000
,
1000
0000
0000
0000
,
0001
0000
0001
0000
,
1000
0000
1000
0000
,
0010
0000
0010
0000
,
0100
0000
0100
0000
,
1001
0000
0000
0000
,
1001
0000
0000
0000
,
1000
0001
1000
0001
,
0220
0000
0000
0000
0000
0000
0000
0330
,
1000
1000
0010
0000
,
0001
0001
1000
0000
,
0010
0100
0001
0000
,
0100
0010
1000
0000
,
0001
0001
0100
0000
,
1000
1000
0001
0000
,
0100
0010
1000
0000
,
0010
0100
0001
0000
,
1000
1000
0010
0000
,
0001
0001
1000
0000
,
0010
0100
0001
0000
,
0100
0010
1000
0000
,
0001
0001
0100
0000
,
1000
1000
0001
0000
,
1000
0001
1000
0001
,
0100
0000
0010
0000
0220
0000
0000
0330
,
2002
0000
0000
0000
,
3003
0000
0000
0000
;

//---------------dance-single - ----------------
#NOTES:
     dance-single:
     Old Easy:
     Edit:
     4:
     0.122023,0.234103,0.031636,0.126542,0.000000,108.000000,104.000000,4.000000,16.000000,0.000000,0.000000,0.122023,0.234103,0.031636,0.126542,0.000000,108.000000,104.000000,4.000000,16.000000,0.000000,0.000000:
0000
0000
0000
0000
,
0000
0000
0000
0000
,
0000
0000
0000
0000
,
0000
0000
0000
0000
,
0000
0000
0000
0000
,
0000
0000
0000
0000
,
0000
0000
0000
0000
,
0000
0000
0000
0000
,
0000
0000
0000
0000
,
1000
0000
0010
0000
,
0001
0000
1000
0000
,
0010
0000
0001
0000
,
0100
0000
1000
0000
,
0001
0000
0100
0000
,
1000
0000
0001
0000
,
0100
0000
1000
0000
,
0010
0000
0001
0000
,
1000
0000
0010
0000
,
0001
0000
1000
0000
,
0010
0000
0001
0000
,
0100
0000
1000
0000
,
0001
0000
0100
0000
,
1000
0000
0001
0000
,
1000
0000
0001
0000
,
0010
0010
0100
0100
,
2000
0000
3000
0000
,
0002
0000
0003
0000
,
0020
0000
0030
0000
,
0200
0000
0300
0000
,
2000
0000
3000
0000
,
0002
0000
0003
0000
,
0020
0000
0030
0000
,
0200
0000
0300
0000
,
2000
0000
3000
0000
,
0002
0000
0003
0000
,
0020
0000
0030
0000
,
0200
0000
0300
0000
,
2000
0000
3000
0000
,
0002
0000
0003
0000
,
1000
0000
0001
0000
,
0010
0010
0100
0100
,
0010
0000
0000
0000
,
0000
0000
0000
0000
,
0100
0000
0000
0000
,
0000
0000
0000
0000
,
0010
0000
0000
0000
,
0000
0000
0000
0000
,
0100
0000
0000
0000
,
0000
0000
0000
0000
,
0010
0000
0000
0000
,
0100
0000
0000
0000
,
0010
0000
0000
0000
,
0100
0000
0000
0000
,
1001
0000
0000
0000
,
1001
0000
0000
0000
,
1001
0000
0000
0000
,
0010
0100
0010
0100
,
1000
0000
0010
0000
,
0001
0000
1000
0000
,
0010
0000
0001
0000
,
0100
0000
1000
0000
,
0001
0000
0100
0000
,
1000
0000
0001
0000
,
0100
0000
1000
0000
,
0010
0000
0001
0000
,
1000
0000
0010
0000
,
0001
0000
1000
0000
,
0010
0000
0001
0000
,
0100
0000
1000
0000
,
0001
0000
0100
0000
,
1000
0000
0001
0000
,
1000
0000
0001
0000
,
0010
0010
0100
0100
,
2002
0000
0000
0000
,
3003
0000
0000
0000
;

//---------------dance-single - ----------------
#NOTES:
     dance-single:
     Old Hyper:
     Edit:
     7:
     0.262123,0.321892,0.023727,0.126542,0.000000,232.000000,229.000000,3.000000,16.000000,0.000000,0.000000,0.262123,0.321892,0.023727,0.126542,0.000000,232.000000,229.000000,3.000000,16.000000,0.000000,0.000000:
0000
0000
0000
0000
,
0000
0000
0000
0000
,
0000
0000
0000
0000
,
0000
0000
0000
0000
,
0000
0000
0000
0000
,
0000
0000
0000
0000
,
0000
0000
0000
0000
,
0000
0000
0000
0000
,
0000
0000
0000
0000
,
1000
1000
0010
0100
,
0001
0001
1000
0001
,
0010
0100
0001
0001
,
0100
0010
1000
1000
,
0001
0001
0100
0010
,
1000
1000
0001
1000
,
0100
0010
1000
1000
,
0010
0100
0001
0001
,
1000
1000
0010
0100
,
0001
0001
1000
0001
,
0010
0100
0001
0001
,
0100
0010
1000
1000
,
0001
0001
0100
0010
,
1000
1000
0001
1000
,
1000
0001
1000
0001
,
0100
0000
0010
0000
0100
0000
0010
0100
,
2000
0100
3001
0001
,
0002
0010
1003
1000
,
0020
0001
0130
0100
,
0200
1000
0310
0010
,
2000
0100
3001
0001
,
0002
0010
1003
1000
,
0020
0001
0130
0100
,
0200
1000
0310
0010
,
2000
0100
3001
0001
,
0002
0010
1003
1000
,
0020
0001
0130
0100
,
0200
1000
0310
0010
,
2000
0100
3001
0001
,
0002
0010
1003
1000
,
1000
0001
1000
0001
,
0100
0000
0010
0000
0100
0000
0010
0100
,
0001
0000
0000
0000
,
1000
0000
0000
0000
,
0001
0000
0000
0000
,
1000
0000
0001
0000
,
0001
0000
0000
0000
,
1000
0000
0000
0000
,
0001
0000
0000
0000
,
1000
0000
1000
0000
,
0001
0000
0001
0010
,
1000
0000
1000
0001
,
0010
0000
0010
0001
,
0100
0000
0100
1000
,
1001
0000
0000
0000
,
1001
0000
0000
0000
,
1000
0001
1000
0001
,
0010
0000
0100
0000
0010
0000
0100
0010
,
1000
1000
0010
0100
,
0001
0001
1000
0001
,
0010
0100
0001
0001
,
0100
0010
1000
1000
,
0001
0001
0100
0010
,
1000
1000
0001
1000
,
0100
0010
1000
1000
,
0010
0100
0001
0001
,
1000
1000
0010
0100
,
0001
0001
1000
0001
,
0010
0100
0001
0001
,
0100
0010
1000
1000
,
0001
0001
0100
0010
,
1000
1000
0001
1000
,
1000
0001
1000
0001
,
0100
0000
0010
0000
0100
0000
0010
0100
,
2002
0000
0000
0000
,
3003
0000
0000
0000
;

//---------------dance-single - ----------------
#NOTES:
     dance-single:
     Old Extra:
     Edit:
     9:
     0.329914,0.409680,0.023727,0.126542,0.000000,292.000000,289.000000,3.000000,16.000000,0.000000,0.000000,0.329914,0.409680,0.023727,0.126542,0.000000,292.000000,289.000000,3.000000,16.000000,0.000000,0.000000:
0000
0000
0000
0000
,
0000
0000
0000
0000
,
0000
0000
0000
0000
,
0000
0000
0000
0000
,
0000
0000
0000
0000
,
0000
0000
0000
0000
,
0000
0000
0000
0000
,
0000
0000
0000
0000
,
0000
0000
0000
0000
,
1000
0000
1000
0000
0010
0000
0100
0010
,
0001
0000
0001
0000
1000
0000
0001
1000
,
0010
0000
0100
0000
0001
0000
0001
0010
,
0100
0000
0010
0000
1000
0000
1000
0100
,
0001
0000
0001
0000
0100
0000
0010
0100
,
1000
0000
1000
0000
0001
0000
1000
0001
,
0100
0000
0010
0000
1000
0000
1000
0100
,
0010
0000
0100
0000
0001
0000
0001
0010
,
1000
0000
1000
0000
0010
0000
0100
0010
,
0001
0000
0001
0000
1000
0000
0001
1000
,
0010
0000
0100
0000
0001
0000
0001
0010
,
0100
0000
0010
0000
1000
0000
1000
0100
,
0001
0000
0001
0000
0100
0000
0010
0100
,
1000
0000
1000
0000
0001
0000
1000
0001
,
1000
0001
1000
0001
,
0100
0000
0010
0000
0100
0010
0100
0010
,
2000
0000
0100
0000
3001
0000
0001
0010
,
0002
0000
0010
0000
1003
0000
1000
0100
,
0020
0000
0001
0000
0130
0000
0100
1000
,
0200
0000
1000
0000
0310
0000
0010
0001
,
2000
0000
0100
0000
3001
0000
0001
0010
,
0002
0000
0010
0000
1003
0000
1000
0100
,
0020
0000
0001
0000
0130
0000
0100
1000
,
0200
0000
1000
0000
0310
0000
0010
0001
,
2000
0000
0100
0000
3001
0000
0001
0010
,
0002
0000
0010
0000
1003
0000
1000
0100
,
0020
0000
0001
0000
0130
0000
0100
1000
,
0200
0000
1000
0000
0310
0000
0010
0001
,
2000
0000
0100
0000
3001
0000
0001
0010
,
0002
0000
0010
0000
1003
0000
1000
0100
,
1000
0001
1000
0001
,
0100
0000
0010
0000
0100
0010
0100
0010
,
0001
0000
0001
0000
,
1000
0000
1000
0000
,
0001
0000
0001
0000
,
1000
0000
0001
0000
,
0001
0000
0001
0000
,
1000
0000
1000
0000
,
0001
0000
0001
0000
,
1000
0000
1000
0000
,
0001
1000
0001
0010
,
1000
0001
1000
0001
,
0010
0100
0010
0001
,
0100
0010
0100
1000
,
1001
0000
1000
0000
,
1001
0000
0001
0000
,
1000
0001
1000
0001
,
0010
0100
0010
0100
0010
0100
0010
0100
,
1000
0000
1000
0000
0010
0000
0100
0010
,
0001
0000
0001
0000
1000
0000
0001
1000
,
0010
0000
0100
0000
0001
0000
0001
0010
,
0100
0000
0010
0000
1000
0000
1000
0100
,
0001
0000
0001
0000
0100
0000
0010
0100
,
1000
0000
1000
0000
0001
0000
1000
0001
,
0100
0000
0010
0000
1000
0000
1000
0100
,
0010
0000
0100
0000
0001
0000
0001
0010
,
1000
0000
1000
0000
0010
0000
0100
0010
,
0001
0000
0001
0000
1000
0000
0001
1000
,
0010
0000
0100
0000
0001
0000
0001
0010
,
0100
0000
0010
0000
1000
0000
1000
0100
,
0001
0000
0001
0000
0100
0000
0010
0100
,
1000
0000
1000
0000
0001
0000
1000
0001
,
1000
0001
1000
0001
,
0100
0000
0010
0000
0100
0010
0100
0010
,
2002
0000
0000
0000
,
3003
0000
0000
0000
;

//---------------dance-single - Shock----------------
#NOTES:
     dance-single:
     Old S.A.:
     Edit:
     8:
     0.185294,0.292629,0.055362,0.189813,0.000000,164.000000,157.000000,7.000000,24.000000,176.000000,0.000000,0.185294,0.292629,0.055362,0.189813,0.000000,164.000000,157.000000,7.000000,24.000000,176.000000,0.000000:
0000
0000
0000
0000
,
0000
0000
0000
0000
,
0000
0000
0000
0000
,
0000
0000
0000
0000
,
0000
0000
0000
0000
,
0000
0000
0000
0000
,
0000
0000
0000
0000
,
0000
0000
0000
0000
,
0000
0000
0000
0000
,
0001
0001
0100
MMMM
,
1000
1000
0001
MMMM
,
0100
0010
1000
MMMM
,
0010
0100
0001
MMMM
,
1000
1000
0010
MMMM
,
0001
0001
1000
MMMM
,
0010
0100
0001
MMMM
,
0100
0010
1000
MMMM
,
0001
0001
0100
MMMM
,
1000
1000
0001
MMMM
,
0100
0010
1000
MMMM
,
0010
0100
0001
MMMM
,
1000
1000
0010
MMMM
,
0001
0001
1000
MMMM
,
0001
1000
0001
1000
,
0010
0000
0100
0000
0220
0000
0000
0330
,
0002
0000
1003
MMMM
,
2000
0000
3001
MMMM
,
0200
0000
0310
MMMM
,
0020
0000
0130
MMMM
,
0002
0000
1003
MMMM
,
2000
0000
3001
MMMM
,
0200
0000
0310
MMMM
,
0020
0000
0130
MMMM
,
0002
0000
1003
MMMM
,
2000
0000
3001
MMMM
,
0200
0000
0310
MMMM
,
0020
0000
0130
MMMM
,
0002
0000
1003
MMMM
,
2000
0000
3001
MMMM
,
0001
1000
0001
1000
,
0010
0000
0100
0000
0220
0000
0000
0330
,
1000
0000
0000
0000
,
0001
0000
0000
0000
,
1000
0000
0000
0000
,
0001
0000
0000
0000
,
1000
0000
0000
0000
,
0001
0000
0000
0000
,
1000
0000
0000
0000
,
0001
0000
0000
0000
,
1000
0000
1000
0000
,
0001
0000
0001
0000
,
0100
0000
0100
0000
,
0010
0000
0010
0000
,
1001
0000
MMMM
0000
,
1001
0000
MMMM
0000
,
0001
1000
0001
1000
,
0220
0000
0000
0000
0000
0000
0000
0330
,
0001
0001
0100
MMMM
,
1000
1000
0001
MMMM
,
0100
0010
1000
MMMM
,
0010
0100
0001
MMMM
,
1000
1000
0010
MMMM
,
0001
0001
1000
MMMM
,
0010
0100
0001
MMMM
,
0100
0010
1000
MMMM
,
0001
0001
0100
MMMM
,
1000
1000
0001
MMMM
,
0100
0010
1000
MMMM
,
0010
0100
0001
MMMM
,
1000
1000
0010
MMMM
,
0001
0001
1000
MMMM
,
0001
1000
0001
1000
,
0010
0000
0100
0000
0220
0000
0000
0330
,
2002
0000
0000
0000
,
3003
0000
0000
0000
;

//---------------dance-single - ----------------
#NOTES:
     dance-single:
     Old Special:
     Edit:
     10:
     0.385276,0.438943,0.142360,0.205631,0.000000,341.000000,323.000000,18.000000,26.000000,0.000000,0.000000,0.385276,0.438943,0.142360,0.205631,0.000000,341.000000,323.000000,18.000000,26.000000,0.000000,0.000000:
0000
0000
0000
0000
,
0000
0000
0000
0000
,
0000
0000
0000
0000
,
0000
0000
0000
0000
,
0000
0000
0000
0000
,
0000
0000
0000
0000
,
0000
0000
0000
0000
,
0000
0000
0000
0000
,
0000
0000
0000
0000
,
1000
0001
1000
0000
0010
0000
0100
0010
,
0001
1000
0001
0000
1000
0000
0001
1000
,
0010
0001
0100
0000
0001
0000
0001
0010
,
0100
1000
0010
0000
1000
0000
1000
0100
,
0001
1000
0001
0000
0100
0000
0010
0100
,
1000
0001
1000
0000
0001
0000
1000
0001
,
0100
1000
0010
0000
1000
0000
1000
0100
,
0010
0001
0100
0000
0001
0000
0001
0010
,
1000
0001
1000
0000
0010
0000
0100
0010
,
0001
1000
0001
0000
1000
0000
0001
1000
,
0010
0001
0100
0000
0001
0000
0001
0010
,
0100
1000
0010
0000
1000
0000
1000
0100
,
0001
1000
0001
0000
0100
0000
0010
0100
,
1000
0001
1000
0000
0001
0000
1000
0001
,
1000
0000
0001
0000
1000
0001
1000
0001
,
0100
0000
0010
0000
0100
0010
0100
0010
,
2001
0000
0100
0000
3001
0000
0001
0010
,
1002
0000
0010
0000
1003
0000
1000
0100
,
0120
0000
0001
0000
0130
0000
0100
1000
,
0210
0000
1000
0000
0310
0000
0010
0001
,
2001
0000
0100
0000
3001
0000
0001
0010
,
1002
0000
0010
0000
1003
0000
1000
0100
,
0120
0000
0001
0000
0130
0000
0100
1000
,
0210
0000
1000
0000
0310
0000
0010
0001
,
2001
0000
0100
0000
3001
0000
0001
0010
,
1002
0000
0010
0000
1003
0000
1000
0100
,
0120
0000
0001
0000
0130
0000
0100
1000
,
0210
0000
1000
0000
0310
0000
0010
0001
,
2001
0000
0100
0000
3001
0000
0001
0010
,
1002
0000
0010
0000
1003
0000
1000
0100
,
1000
0000
0001
0000
1000
0001
1000
0001
,
0100
0000
0010
0000
0100
0010
0100
0010
,
0002
0003
0001
0000
,
2000
3000
1000
0000
,
0002
0003
0001
0000
,
2000
3000
0002
0003
,
0002
0003
0001
0000
,
2000
3000
1000
0000
,
0002
0003
0001
0000
,
2000
3000
0002
0003
,
1001
1000
0001
0010
,
1000
0001
1000
0001
,
0010
0100
0010
0001
,
0100
0010
0100
1000
,
1001
0000
1000
0000
,
1001
0000
0001
0000
,
1000
0001
1000
0001
,
0010
0100
0010
0100
0010
0100
0010
0100
,
1000
0001
1000
0000
0010
0000
0100
0010
,
0001
1000
0001
0000
1000
0000
0001
1000
,
0010
0001
0100
0000
0001
0000
0001
0010
,
0100
1000
0010
0000
1000
0000
1000
0100
,
0001
1000
0001
0000
0100
0000
0010
0100
,
1000
0001
1000
0000
0001
0000
1000
0001
,
0100
1000
0010
0000
1000
0000
1000
0100
,
0010
0001
0100
0000
0001
0000
0001
0010
,
1000
0001
1000
0000
0010
0000
0100
0010
,
0001
1000
0001
0000
1000
0000
0001
1000
,
0010
0001
0100
0000
0001
0000
0001
0010
,
0100
1000
0010
0000
1000
0000
1000
0100
,
0001
1000
0001
0000
0100
0000
0010
0100
,
1000
0001
1000
0000
0001
0000
1000
0001
,
1000
0000
0001
0000
1000
0001
1000
0001
,
0100
0000
0010
0000
0100
0010
0100
0010
,
2002
0000
0000
0000
,
3003
0000
0000
0000
;

//---------------dance-single - Hell----------------
#NOTES:
     dance-single:
     Hell:
     Edit:
     18:
     0.873367,1.111990,0.150269,0.490351,1.427554,773.000000,754.000000,19.000000,62.000000,0.000000,0.000000,0.873367,1.111990,0.150269,0.490351,1.427554,773.000000,754.000000,19.000000,62.000000,0.000000,0.000000:
0000
0000
0000
0000
,
0000
0000
0000
0000
,
0000
0000
0000
0000
,
0000
0000
0000
0000
,
0000
0000
0000
0000
,
0000
0000
0000
0000
,
0000
0000
0000
0000
,
0000
0000
0000
0000
,
0000
0000
0000
0000
,
1000
0010
0100
1000
0100
0010
0100
0010
0001
1000
0000
0010
1000
0000
0010
0100
,
1000
0001
0010
0001
1000
0100
1000
0100
0010
0001
0000
0010
0100
0000
0100
1000
,
0001
0100
0010
0001
0010
0100
0010
0100
1000
0001
0000
0100
0001
0000
0100
0010
,
0001
1000
0100
1000
0001
0010
0001
0010
0100
1000
0000
0100
0010
0000
0010
0001
,
0010
0001
1000
0010
1000
0001
1000
0001
0100
0010
0000
0001
0010
0000
0001
1000
,
0010
0100
0001
0100
0010
1000
0010
1000
0001
0100
0000
0001
1000
0000
1000
0010
,
0100
1000
0001
0100
0001
1000
0001
1000
0010
0100
0000
1000
0100
0000
1000
0001
,
0100
0010
1000
0010
0100
0001
0100
0001
1000
0010
0000
1000
0001
0000
0001
0100
,
1000
0010
0100
1000
0100
0010
0100
0010
0001
1000
0000
0010
1000
0000
0010
0100
,
1000
0001
0010
0001
1000
0100
1000
0100
0010
0001
0000
0010
0100
0000
0100
1000
,
0001
0100
0010
0001
0010
0100
0010
0100
1000
0001
0000
0100
0001
0000
0100
0010
,
0001
1000
0100
1000
0001
0010
0001
0010
0100
1000
0000
0100
0010
0000
0010
0001
,
0010
0001
1000
0010
1000
0001
1000
0001
0100
0010
0000
0001
0010
0000
0001
1000
,
0010
0100
0001
0100
0010
1000
0010
1000
0001
0100
0000
0001
1000
0000
1000
0010
,
0100
1000
0001
0100
0001
1000
0001
1000
0010
0100
0000
1000
0100
0000
1000
0001
,
0100
0000
0000
0010
0000
0000
1000
0000
0000
0010
0000
0000
0100
0000
0000
0001
0000
0000
0100
0000
0000
0001
0000
0000
1000
0000
0010
0000
1000
0000
0010
0000
0100
0000
0001
0000
0010
0000
0100
0000
1000
0000
0100
0000
0010
0000
0001
0000
,
1000
0100
1000
0100
0021
0000
0001
0030
2000
0100
0000
0100
0001
0010
0100
3000
,
0001
0010
0001
0010
1200
0000
1000
0300
0002
0010
0000
0000
1000
0100
0010
0003
,
0010
1000
0010
1000
0102
0000
0100
0003
0020
1000
0000
1000
0100
0001
1000
0030
,
0100
0001
0100
0001
2010
0000
0010
3000
0200
0001
0000
0000
0010
1000
0001
0300
,
1000
0100
1000
0100
0021
0000
0001
0030
2000
0100
0000
0100
0001
0010
0100
3000
,
0001
0010
0001
0010
1200
0000
1000
0300
0002
0010
0000
0000
1000
0100
0010
0003
,
0010
1000
0010
1000
0102
0000
0100
0003
0020
1000
0000
1000
0100
0001
1000
0030
,
0100
0001
0100
0001
2010
0000
0010
3000
0200
0001
0000
0000
0010
1000
0001
0300
,
1000
0100
1000
0100
0021
0000
0001
0030
2000
0100
0000
0100
0001
0010
0100
3000
,
0001
0010
0001
0010
1200
0000
1000
0300
0002
0010
0000
0000
1000
0100
0010
0003
,
0010
1000
0010
1000
0102
0000
0100
0003
0020
1000
0000
1000
0100
0001
1000
0030
,
0100
0001
0100
0001
2010
0000
0010
3000
0200
0001
0000
0000
0010
1000
0001
0300
,
1000
0100
1000
0100
0021
0000
0001
0030
2000
0100
0000
0100
0001
0010
0100
3000
,
0001
0010
0001
0010
1200
0000
1000
0300
0002
0010
0000
0000
1000
0100
0010
0003
,
1000
0001
1000
0001
1000
0001
1000
0001
0100
0010
0100
0010
0100
0010
0100
0010
,
1000
0000
0000
0001
0000
0000
1000
0000
0000
0001
0000
0000
1000
0000
0000
0001
0000
0000
1000
0000
0000
0001
0000
0000
1000
0000
0001
0000
1000
0000
0001
0000
1000
0000
0001
0000
1000
0000
0001
0000
1000
0000
0001
0000
1000
0000
0001
0000
,
0220
0030
0002
0003
,
0020
0030
2000
3300
,
0220
0300
2000
3000
,
0200
0300
0002
0033
,
2002
0003
0200
0300
,
0002
0003
0020
3030
,
2002
3000
0020
0030
,
2000
3000
0200
0303
,
0020
0000
0000
0000
2030
0000
0000
0000
3020
0000
0000
0000
,
0032
0000
0000
0000
2003
0000
0000
0000
3002
0000
0000
0000
,
0203
0000
0000
0000
0302
0000
0000
0000
0203
0000
0000
0000
,
2300
0000
0000
0000
3002
0000
0000
0000
0203
0000
0000
0000
,
1300
0100
0010
0001
1000
0100
0010
0001
1000
0100
0010
0001
1000
0100
0010
0001
,
1000
0100
0010
0001
1000
0100
0010
0001
1000
0100
0010
0001
1000
0100
0010
0001
,
1000
0001
1000
0001
1000
0001
1000
0001
0100
0010
0100
0010
0100
0010
0100
0010
,
1000
0000
0000
0001
0000
0000
1000
0000
0000
0001
0000
0000
1000
0000
0000
0001
0000
0000
1000
0000
0000
0001
0000
0000
1000
0000
0001
0000
1000
0000
0001
0000
1000
0000
0001
0000
1000
0000
0001
0000
1000
0000
0001
0000
1000
0000
0001
0000
,
1000
0010
0100
1000
0100
0010
0100
0010
0001
1000
0000
0010
1000
0000
0010
0100
,
1000
0001
0010
0001
1000
0100
1000
0100
0010
0001
0000
0010
0100
0000
0100
1000
,
0001
0100
0010
0001
0010
0100
0010
0100
1000
0001
0000
0100
0001
0000
0100
0010
,
0001
1000
0100
1000
0001
0010
0001
0010
0100
1000
0000
0100
0010
0000
0010
0001
,
0010
0001
1000
0010
1000
0001
1000
0001
0100
0010
0000
0001
0010
0000
0001
1000
,
0010
0100
0001
0100
0010
1000
0010
1000
0001
0100
0000
0001
1000
0000
1000
0010
,
0100
1000
0001
0100
0001
1000
0001
1000
0010
0100
0000
1000
0100
0000
1000
0001
,
0100
0010
1000
0010
0100
0001
0100
0001
1000
0010
0000
1000
0001
0000
0001
0100
,
1000
0010
0100
1000
0100
0010
0100
0010
0001
1000
0000
0010
1000
0000
0010
0100
,
1000
0001
0010
0001
1000
0100
1000
0100
0010
0001
0000
0010
0100
0000
0100
1000
,
0001
0100
0010
0001
0010
0100
0010
0100
1000
0001
0000
0100
0001
0000
0100
0010
,
0001
1000
0100
1000
0001
0010
0001
0010
0100
1000
0000
0100
0010
0000
0010
0001
,
0010
0001
1000
0010
1000
0001
1000
0001
0100
0010
0000
0001
0010
0000
0001
1000
,
0010
0100
0001
0100
0010
1000
0010
1000
0001
0100
0000
0001
1000
0000
1000
0010
,
0100
1000
0001
0100
0001
1000
0001
1000
0010
0100
0000
1000
0100
0000
1000
0001
,
0100
0000
0000
0010
0000
0000
1000
0000
0000
0010
0000
0000
0100
0000
0000
0001
0000
0000
0100
0000
0000
0001
0000
0000
1000
0000
0010
0000
1000
0000
0010
0000
0100
0000
0001
0000
0010
0000
0100
0000
1000
0000
0100
0000
0010
0000
0001
0000
,
0220
0000
0000
0000
,
0330
0000
0000
0000
;

//---------------dance-single - Old Deluxe----------------
#NOTES:
     dance-single:
     Old Deluxe:
     Edit:
     11:
     0.460975,0.555995,0.142360,0.300538,0.011863,408.000000,390.000000,18.000000,38.000000,0.000000,0.000000,0.460975,0.555995,0.142360,0.300538,0.011863,408.000000,390.000000,18.000000,38.000000,0.000000,0.000000:
0000
0000
0000
0000
,
0000
0000
0000
0000
,
0000
0000
0000
0000
,
0000
0000
0000
0000
,
0000
0000
0000
0000
,
0000
0000
0000
0000
,
0000
0000
0000
0000
,
0000
0000
0000
0000
,
0000
0000
0000
0000
,
1000
0001
1000
0001
0010
0000
0100
0010
,
0001
1000
0001
0010
1000
0000
0001
1000
,
0010
0001
0100
1000
0001
0000
0001
0010
,
0100
1000
0010
0001
1000
0000
1000
0100
,
0001
1000
0001
1000
0100
0000
0010
0100
,
1000
0001
1000
0100
0001
0000
1000
0001
,
0100
1000
0010
0001
1000
0000
1000
0100
,
0010
0001
0100
1000
0001
0000
0001
0010
,
1000
0001
1000
0001
0010
0000
0100
0010
,
0001
1000
0001
0010
1000
0000
0001
1000
,
0010
0001
0100
1000
0001
0000
0001
0010
,
0100
1000
0010
0001
1000
0000
1000
0100
,
0001
1000
0001
1000
0100
0000
0010
0100
,
1000
0001
1000
0100
0001
0000
1000
0001
,
1000
0001
1000
0001
1000
0001
1000
0001
,
0100
0010
0100
0010
0100
0010
0100
0010
,
2001
0000
0100
0100
3001
0000
0001
0010
,
1002
0000
0010
0010
1003
0000
1000
0100
,
0120
0000
0001
0001
0130
0000
0100
1000
,
0210
0000
1000
1000
0310
0000
0010
0001
,
2001
0000
0100
0100
3001
0000
0001
0010
,
1002
0000
0010
0010
1003
0000
1000
0100
,
0120
0000
0001
0001
0130
0000
0100
1000
,
0210
0000
1000
1000
0310
0000
0010
0001
,
2001
0000
0100
0100
3001
0000
0001
0010
,
1002
0000
0010
0010
1003
0000
1000
0100
,
0120
0000
0001
0001
0130
0000
0100
1000
,
0210
0000
1000
1000
0310
0000
0010
0001
,
2001
0000
0100
0100
3001
0000
0001
0010
,
1002
0000
0010
0010
1003
0000
1000
0100
,
1000
0001
1000
0001
1000
0001
1000
0001
,
0100
0010
0100
0010
0100
0010
0100
0010
,
0002
0003
0002
0003
,
2000
3000
2000
3000
,
0002
0003
0002
0003
,
2000
3001
0002
1003
,
0002
0003
0002
0003
,
2000
3000
2000
3000
,
0002
0003
0002
0003
,
2000
3001
0002
1003
,
1002
1003
0001
0010
,
2000
3001
1000
0001
,
0020
0130
0010
0001
,
0200
0310
0100
1000
,
2001
3000
1000
1000
,
1002
0003
0001
0001
,
1000
0001
1000
0001
1000
0001
1000
0001
,
0010
0000
0100
0000
0010
0000
0100
0000
0010
0000
0100
0000
0010
0100
0010
0100
,
1000
0001
1000
0001
0010
0000
0100
0010
,
0001
1000
0001
0010
1000
0000
0001
1000
,
0010
0001
0100
1000
0001
0000
0001
0010
,
0100
1000
0010
0001
1000
0000
1000
0100
,
0001
1000
0001
1000
0100
0000
0010
0100
,
1000
0001
1000
0100
0001
0000
1000
0001
,
0100
1000
0010
0001
1000
0000
1000
0100
,
0010
0001
0100
1000
0001
0000
0001
0010
,
1000
0001
1000
0001
0010
0000
0100
0010
,
0001
1000
0001
0010
1000
0000
0001
1000
,
0010
0001
0100
1000
0001
0000
0001
0010
,
0100
1000
0010
0001
1000
0000
1000
0100
,
0001
1000
0001
1000
0100
0000
0010
0100
,
1000
0001
1000
0100
0001
0000
1000
0001
,
1000
0001
1000
0001
1000
0001
1000
0001
,
0100
0000
0010
0000
0100
0000
0010
0000
0100
0000
0010
0000
0100
0010
0100
0000
,
2002
0000
0000
0000
,
3003
0000
0000
0000
;

//---------------dance-single - Enjoy----------------
#NOTES:
     dance-single:
     Enjoy:
     Edit:
     1:
     0.013558,0.058526,0.007909,0.023727,0.000000,12.000000,11.000000,1.000000,3.000000,0.000000,0.000000,0.013558,0.058526,0.007909,0.023727,0.000000,12.000000,11.000000,1.000000,3.000000,0.000000,0.000000:
0000
0000
0000
0000
,
0000
0000
0000
0000
,
0000
0000
0000
0000
,
0000
0000
0000
0000
,
0000
0000
0000
0000
,
0000
0000
0000
0000
,
0000
0000
0000
0000
,
0000
0000
0000
0000
,
0000
0000
0000
0000
,
0010
0000
0000
0000
,
0000
0000
0000
0000
,
0000
0000
0000
0000
,
0000
0000
0000
0000
,
0100
0000
0000
0000
,
0000
0000
0000
0000
,
0000
0000
0000
0000
,
0000
0000
0000
0000
,
0010
0000
0000
0000
,
0000
0000
0000
0000
,
0000
0000
0000
0000
,
0000
0000
0000
0000
,
0100
0000
0000
0000
,
0000
0000
0000
0000
,
0000
0000
0000
0000
,
0000
0000
0000
0000
,
0020
0000
0000
0000
,
0000
0000
0000
0000
,
0000
0000
0000
0000
,
0000
0000
0000
0000
,
0000
0000
0000
0000
,
0000
0000
0000
0000
,
0000
0000
0000
0000
,
0000
0000
0000
0000
,
0000
0000
0000
0000
,
0000
0000
0000
0000
,
0000
0000
0000
0000
,
0000
0000
0000
0000
,
0000
0000
0000
0000
,
0000
0000
0000
0000
,
0000
0000
0000
0000
,
0000
0000
0000
0030
,
0010
0000
0000
0000
,
0000
0000
0000
0000
,
0000
0000
0000
0000
,
0000
0000
0000
0000
,
0000
0000
0000
0000
,
0000
0000
0000
0000
,
0000
0000
0000
0000
,
0000
0000
0000
0000
,
0000
0000
0000
0000
,
0000
0000
0000
0000
,
0000
0000
0000
0000
,
0000
0000
0000
0000
,
0000
0000
0000
0000
,
0000
0000
0000
0000
,
0000
0000
0000
0000
,
0000
0000
0000
0000
,
1000
0000
0000
0000
,
0000
0000
0000
0000
,
0000
0000
0000
0000
,
0000
0000
0000
0000
,
0001
0000
0000
0000
,
0000
0000
0000
0000
,
0000
0000
0000
0000
,
0000
0000
0000
0000
,
1000
0000
0000
0000
,
0000
0000
0000
0000
,
0000
0000
0000
0000
,
0000
0000
0000
0000
,
0001
0000
0000
0000
,
0000
0000
0000
0000
,
0000
0000
0000
0000
,
0000
0000
0000
0000
,
2002
0000
0000
0000
,
3003
0000
0000
0000
;

//---------------dance-double - ----------------
#NOTES:
     dance-double:
     Old Normal:
     Edit:
     6:
     0.201112,0.292629,0.055362,0.189813,0.000000,178.000000,171.000000,7.000000,24.000000,0.000000,0.000000,0.201112,0.292629,0.055362,0.189813,0.000000,178.000000,171.000000,7.000000,24.000000,0.000000,0.000000:
// measure 0
00000000
00000000
00000000
00000000
,  // measure 1
00000000
00000000
00000000
00000000
,  // measure 2
00000000
00000000
00000000
00000000
,  // measure 3
00000000
00000000
00000000
00000000
,  // measure 4
00000000
00000000
00000000
00000000
,  // measure 5
00000000
00000000
00000000
00000000
,  // measure 6
00000000
00000000
00000000
00000000
,  // measure 7
00000000
00000000
00000000
00000000
,  // measure 8
00000000
00000000
00000000
00000000
,  // measure 9
10000000
10000000
00100000
00000000
,  // measure 10
00010000
00010000
10000000
00000000
,  // measure 11
00100000
01000000
00010000
00000000
,  // measure 12
01000000
00100000
00001000
00000000
,  // measure 13
00000001
00000001
00000100
00000000
,  // measure 14
00001000
00001000
00000001
00000000
,  // measure 15
00000100
00000010
00001000
00000000
,  // measure 16
00000010
00000100
00010000
00000000
,  // measure 17
10000000
10000000
00100000
00000000
,  // measure 18
00010000
00010000
10000000
00000000
,  // measure 19
00100000
01000000
00010000
00000000
,  // measure 20
01000000
00100000
00001000
00000000
,  // measure 21
00000001
00000001
00000100
00000000
,  // measure 22
00001000
00001000
00010000
00000000
,  // measure 23
00010000
00001000
00010000
00001000
,  // measure 24
00010000
00000000
00001000
00000000
00022000
00000000
00000000
00033000
,  // measure 25
20000000
00000000
30010000
00010000
,  // measure 26
00020000
00000000
10030000
10000000
,  // measure 27
00200000
00000000
01300000
01000000
,  // measure 28
02000000
00000000
03100000
00100000
,  // measure 29
00000002
00000000
00001003
00001000
,  // measure 30
00002000
00000000
00003001
00000001
,  // measure 31
00000200
00000000
00000310
00000010
,  // measure 32
00000020
00000000
00000130
00000100
,  // measure 33
20000000
00000000
30010000
00010000
,  // measure 34
00020000
00000000
10030000
10000000
,  // measure 35
00200000
00000000
01300000
01000000
,  // measure 36
02000000
00000000
03100000
00100000
,  // measure 37
00000002
00000000
00001003
00001000
,  // measure 38
00002000
00000000
00003001
00000001
,  // measure 39
00010000
00001000
00010000
00001000
,  // measure 40
00010000
00000000
00001000
00000000
00022000
00000000
00000000
00033000
,  // measure 41
00010000
00000000
00000000
00000000
,  // measure 42
00001000
00000000
00000000
00000000
,  // measure 43
00010000
00000000
00000000
00000000
,  // measure 44
00001000
00000000
00000000
00000000
,  // measure 45
00010000
00000000
00000000
00000000
,  // measure 46
00001000
00000000
00000000
00000000
,  // measure 47
00010000
00000000
00000000
00000000
,  // measure 48
00001000
00000000
00000000
00000000
,  // measure 49
10000000
00000000
10000000
00000000
,  // measure 50
00100000
00000000
00100000
00000000
,  // measure 51
00000100
00000000
00000100
00000000
,  // measure 52
00000010
00000000
00000010
00000000
,  // measure 53
00011000
00000000
00000000
00000000
,  // measure 54
00011000
00000000
00000000
00000000
,  // measure 55
00001000
00010000
00001000
00010000
,  // measure 56
00022000
00000000
00000000
00000000
00000000
00000000
00000000
00033000
,  // measure 57
10000000
10000000
00100000
00000000
,  // measure 58
00010000
00010000
10000000
00000000
,  // measure 59
00100000
01000000
00010000
00000000
,  // measure 60
01000000
00100000
00001000
00000000
,  // measure 61
00000001
00000001
00000100
00000000
,  // measure 62
00001000
00001000
00000001
00000000
,  // measure 63
00000100
00000010
00001000
00000000
,  // measure 64
00000010
00000100
00010000
00000000
,  // measure 65
10000000
10000000
00100000
00000000
,  // measure 66
00010000
00010000
10000000
00000000
,  // measure 67
00100000
01000000
00010000
00000000
,  // measure 68
01000000
00100000
00001000
00000000
,  // measure 69
00000001
00000001
00000100
00000000
,  // measure 70
00001000
00001000
00010000
00000000
,  // measure 71
00010000
00001000
00010000
00001000
,  // measure 72
00010000
00000000
00001000
00000000
00022000
00000000
00000000
00033000
,  // measure 73
00022000
00000000
00000000
00000000
,  // measure 74
00033000
00000000
00000000
00000000
;

//---------------dance-double - ----------------
#NOTES:
     dance-double:
     Old Easy:
     Edit:
     4:
     0.122023,0.234103,0.031636,0.126542,0.000000,108.000000,104.000000,4.000000,16.000000,0.000000,0.000000,0.122023,0.234103,0.031636,0.126542,0.000000,108.000000,104.000000,4.000000,16.000000,0.000000,0.000000:
// measure 0
00000000
00000000
00000000
00000000
,  // measure 1
00000000
00000000
00000000
00000000
,  // measure 2
00000000
00000000
00000000
00000000
,  // measure 3
00000000
00000000
00000000
00000000
,  // measure 4
00000000
00000000
00000000
00000000
,  // measure 5
00000000
00000000
00000000
00000000
,  // measure 6
00000000
00000000
00000000
00000000
,  // measure 7
00000000
00000000
00000000
00000000
,  // measure 8
00000000
00000000
00000000
00000000
,  // measure 9
10000000
00000000
00100000
00000000
,  // measure 10
00010000
00000000
10000000
00000000
,  // measure 11
00100000
00000000
00010000
00000000
,  // measure 12
01000000
00000000
00001000
00000000
,  // measure 13
00000001
00000000
00000100
00000000
,  // measure 14
00001000
00000000
00000001
00000000
,  // measure 15
00000100
00000000
00001000
00000000
,  // measure 16
00000010
00000000
00010000
00000000
,  // measure 17
10000000
00000000
00100000
00000000
,  // measure 18
00010000
00000000
10000000
00000000
,  // measure 19
00100000
00000000
00010000
00000000
,  // measure 20
01000000
00000000
00001000
00000000
,  // measure 21
00000001
00000000
00000100
00000000
,  // measure 22
00001000
00000000
00010000
00000000
,  // measure 23
00010000
00000000
00001000
00000000
,  // measure 24
00010000
00010000
00001000
00001000
,  // measure 25
20000000
00000000
30000000
00000000
,  // measure 26
00020000
00000000
00030000
00000000
,  // measure 27
00200000
00000000
00300000
00000000
,  // measure 28
02000000
00000000
03000000
00000000
,  // measure 29
00002000
00000000
00003000
00000000
,  // measure 30
00000002
00000000
00000003
00000000
,  // measure 31
00000020
00000000
00000030
00000000
,  // measure 32
00000200
00000000
00000300
00000000
,  // measure 33
20000000
00000000
30000000
00000000
,  // measure 34
00020000
00000000
00030000
00000000
,  // measure 35
00200000
00000000
00300000
00000000
,  // measure 36
02000000
00000000
03000000
00000000
,  // measure 37
00020000
00000000
00030000
00000000
,  // measure 38
00002000
00000000
00003000
00000000
,  // measure 39
00010000
00000000
00001000
00000000
,  // measure 40
00010000
00010000
00001000
00001000
,  // measure 41
00010000
00000000
00000000
00000000
,  // measure 42
00000000
00000000
00000000
00000000
,  // measure 43
00001000
00000000
00000000
00000000
,  // measure 44
00000000
00000000
00000000
00000000
,  // measure 45
00010000
00000000
00000000
00000000
,  // measure 46
00000000
00000000
00000000
00000000
,  // measure 47
00001000
00000000
00000000
00000000
,  // measure 48
00000000
00000000
00000000
00000000
,  // measure 49
10000000
00000000
00000000
00000000
,  // measure 50
00100000
00000000
00000000
00000000
,  // measure 51
00000100
00000000
00000000
00000000
,  // measure 52
00000010
00000000
00000000
00000000
,  // measure 53
00011000
00000000
00000000
00000000
,  // measure 54
00011000
00000000
00000000
00000000
,  // measure 55
00011000
00000000
00000000
00000000
,  // measure 56
00001000
00010000
00001000
00010000
,  // measure 57
10000000
00000000
00100000
00000000
,  // measure 58
00010000
00000000
10000000
00000000
,  // measure 59
00100000
00000000
00010000
00000000
,  // measure 60
01000000
00000000
00001000
00000000
,  // measure 61
00000001
00000000
00000100
00000000
,  // measure 62
00001000
00000000
00000001
00000000
,  // measure 63
00000100
00000000
00001000
00000000
,  // measure 64
00000010
00000000
00010000
00000000
,  // measure 65
10000000
00000000
00100000
00000000
,  // measure 66
00010000
00000000
10000000
00000000
,  // measure 67
00100000
00000000
00010000
00000000
,  // measure 68
01000000
00000000
00001000
00000000
,  // measure 69
00000001
00000000
00000100
00000000
,  // measure 70
00001000
00000000
00010000
00000000
,  // measure 71
00010000
00000000
00001000
00000000
,  // measure 72
00010000
00010000
00001000
00001000
,  // measure 73
00022000
00000000
00000000
00000000
,  // measure 74
00033000
00000000
00000000
00000000
;

//---------------dance-double - ----------------
#NOTES:
     dance-double:
     Old Hyper:
     Edit:
     7:
     0.262123,0.321892,0.023727,0.126542,0.000000,232.000000,229.000000,3.000000,16.000000,0.000000,0.000000,0.262123,0.321892,0.023727,0.126542,0.000000,232.000000,229.000000,3.000000,16.000000,0.000000,0.000000:
// measure 0
00000000
00000000
00000000
00000000
,  // measure 1
00000000
00000000
00000000
00000000
,  // measure 2
00000000
00000000
00000000
00000000
,  // measure 3
00000000
00000000
00000000
00000000
,  // measure 4
00000000
00000000
00000000
00000000
,  // measure 5
00000000
00000000
00000000
00000000
,  // measure 6
00000000
00000000
00000000
00000000
,  // measure 7
00000000
00000000
00000000
00000000
,  // measure 8
00000000
00000000
00000000
00000000
,  // measure 9
10000000
10000000
00100000
01000000
,  // measure 10
00010000
00010000
10000000
00010000
,  // measure 11
00100000
01000000
00010000
00010000
,  // measure 12
01000000
00100000
00001000
00001000
,  // measure 13
00000001
00000001
00000100
00000010
,  // measure 14
00001000
00001000
00000001
00001000
,  // measure 15
00000100
00000010
00001000
00001000
,  // measure 16
00000010
00000100
00010000
00010000
,  // measure 17
10000000
10000000
00100000
01000000
,  // measure 18
00010000
00010000
10000000
00010000
,  // measure 19
00100000
01000000
00010000
00010000
,  // measure 20
01000000
00100000
00001000
00001000
,  // measure 21
00000001
00000001
00000100
00000010
,  // measure 22
00001000
00001000
00010000
00001000
,  // measure 23
00010000
00001000
00010000
00001000
,  // measure 24
00010000
00000000
00001000
00000000
00010000
00000000
00001000
00010000
,  // measure 25
20000000
01000000
30010000
00010000
,  // measure 26
00020000
00100000
10030000
10000000
,  // measure 27
00200000
00010000
01300000
01000000
,  // measure 28
02000000
00001000
03100000
00100000
,  // measure 29
00000002
00000010
00001003
00001000
,  // measure 30
00002000
00000100
00003001
00000001
,  // measure 31
00000200
00001000
00000310
00000010
,  // measure 32
00000020
00010000
00000130
00000100
,  // measure 33
20000000
01000000
30010000
00010000
,  // measure 34
00020000
00100000
10030000
10000000
,  // measure 35
00200000
00010000
01300000
01000000
,  // measure 36
02000000
00001000
03100000
00100000
,  // measure 37
00000002
00000010
00001003
00001000
,  // measure 38
00002000
00000100
00003001
00000001
,  // measure 39
00010000
00001000
00010000
00001000
,  // measure 40
00010000
00000000
00001000
00000000
00010000
00000000
00001000
00010000
,  // measure 41
00010000
00000000
00000000
00000000
,  // measure 42
00001000
00000000
00000000
00000000
,  // measure 43
00010000
00000000
00000000
00000000
,  // measure 44
00001000
00000000
00010000
00000000
,  // measure 45
00010000
00000000
00000000
00000000
,  // measure 46
00001000
00000000
00000000
00000000
,  // measure 47
00010000
00000000
00000000
00000000
,  // measure 48
00001000
00000000
00001000
00000000
,  // measure 49
10000000
00000000
10000000
01000000
,  // measure 50
00100000
00000000
00100000
00010000
,  // measure 51
00000100
00000000
00000100
00001000
,  // measure 52
00000010
00000000
00000010
00000001
,  // measure 53
00011000
00000000
00000000
00000000
,  // measure 54
00011000
00000000
00000000
00000000
,  // measure 55
00001000
00010000
00001000
00010000
,  // measure 56
00001000
00000000
00010000
00000000
00001000
00000000
00010000
00001000
,  // measure 57
10000000
10000000
00100000
01000000
,  // measure 58
00010000
00010000
10000000
00010000
,  // measure 59
00100000
01000000
00010000
00010000
,  // measure 60
01000000
00100000
00001000
00001000
,  // measure 61
00000001
00000001
00000100
00000010
,  // measure 62
00001000
00001000
00000001
00001000
,  // measure 63
00000100
00000010
00001000
00001000
,  // measure 64
00000010
00000100
00010000
00010000
,  // measure 65
10000000
10000000
00100000
01000000
,  // measure 66
00010000
00010000
10000000
00010000
,  // measure 67
00100000
01000000
00010000
00010000
,  // measure 68
01000000
00100000
00001000
00001000
,  // measure 69
00000001
00000001
00000100
00000010
,  // measure 70
00001000
00001000
00010000
00001000
,  // measure 71
00010000
00001000
00010000
00001000
,  // measure 72
00010000
00000000
00001000
00000000
00010000
00000000
00001000
00010000
,  // measure 73
00022000
00000000
00000000
00000000
,  // measure 74
00033000
00000000
00000000
00000000
;

//---------------dance-double - ----------------
#NOTES:
     dance-double:
     Old Extra:
     Edit:
     9:
     0.329914,0.409680,0.023727,0.126542,0.000000,292.000000,289.000000,3.000000,16.000000,0.000000,0.000000,0.329914,0.409680,0.023727,0.126542,0.000000,292.000000,289.000000,3.000000,16.000000,0.000000,0.000000:
// measure 0
00000000
00000000
00000000
00000000
,  // measure 1
00000000
00000000
00000000
00000000
,  // measure 2
00000000
00000000
00000000
00000000
,  // measure 3
00000000
00000000
00000000
00000000
,  // measure 4
00000000
00000000
00000000
00000000
,  // measure 5
00000000
00000000
00000000
00000000
,  // measure 6
00000000
00000000
00000000
00000000
,  // measure 7
00000000
00000000
00000000
00000000
,  // measure 8
00000000
00000000
00000000
00000000
,  // measure 9
10000000
00000000
10000000
00000000
00100000
00000000
01000000
00100000
,  // measure 10
00010000
00000000
00010000
00000000
10000000
00000000
00010000
10000000
,  // measure 11
00100000
00000000
01000000
00000000
00010000
00000000
00010000
00100000
,  // measure 12
01000000
00000000
00100000
00000000
00001000
00000000
00001000
00000100
,  // measure 13
00000001
00000000
00000001
00000000
00000100
00000000
00000010
00000100
,  // measure 14
00001000
00000000
00001000
00000000
00000001
00000000
00001000
00000001
,  // measure 15
00000100
00000000
00000010
00000000
00001000
00000000
00001000
00000100
,  // measure 16
00000010
00000000
00000100
00000000
00010000
00000000
00010000
00100000
,  // measure 17
10000000
00000000
10000000
00000000
00100000
00000000
01000000
00100000
,  // measure 18
00010000
00000000
00010000
00000000
10000000
00000000
00010000
10000000
,  // measure 19
00100000
00000000
01000000
00000000
00010000
00000000
00010000
00100000
,  // measure 20
01000000
00000000
00100000
00000000
00001000
00000000
00001000
00000100
,  // measure 21
00000001
00000000
00000001
00000000
00000100
00000000
00000010
00000100
,  // measure 22
00001000
00000000
00001000
00000000
00010000
00000000
00001000
00010000
,  // measure 23
00010000
00001000
00010000
00001000
,  // measure 24
00010000
00000000
00001000
00000000
00010000
00001000
00010000
00001000
,  // measure 25
20000000
00000000
01000000
00000000
30010000
00000000
00010000
00100000
,  // measure 26
00020000
00000000
00100000
00000000
10030000
00000000
10000000
01000000
,  // measure 27
00200000
00000000
00010000
00000000
01300000
00000000
01000000
10000000
,  // measure 28
02000000
00000000
00001000
00000000
03100000
00000000
00100000
00010000
,  // measure 29
00000002
00000000
00000010
00000000
00001003
00000000
00001000
00000100
,  // measure 30
00002000
00000000
00000100
00000000
00003001
00000000
00000001
00000010
,  // measure 31
00000200
00000000
00001000
00000000
00000310
00000000
00000010
00000001
,  // measure 32
00000020
00000000
00010000
00000000
00000130
00000000
00000100
00001000
,  // measure 33
20000000
00000000
01000000
00000000
30010000
00000000
00010000
00100000
,  // measure 34
00020000
00000000
00100000
00000000
10030000
00000000
10000000
01000000
,  // measure 35
00200000
00000000
00010000
00000000
01300000
00000000
01000000
10000000
,  // measure 36
02000000
00000000
00001000
00000000
03100000
00000000
00100000
00010000
,  // measure 37
00000002
00000000
00000010
00000000
00001003
00000000
00001000
00000100
,  // measure 38
00002000
00000000
00000100
00000000
00003001
00000000
00000001
00000010
,  // measure 39
00010000
00001000
00010000
00001000
,  // measure 40
00010000
00000000
00001000
00000000
00010000
00001000
00010000
00001000
,  // measure 41
00010000
00000000
00010000
00000000
,  // measure 42
00001000
00000000
00001000
00000000
,  // measure 43
00010000
00000000
00010000
00000000
,  // measure 44
00001000
00000000
00010000
00000000
,  // measure 45
00010000
00000000
00010000
00000000
,  // measure 46
00001000
00000000
00001000
00000000
,  // measure 47
00010000
00000000
00010000
00000000
,  // measure 48
00001000
00000000
00001000
00000000
,  // measure 49
10000000
00010000
10000000
01000000
,  // measure 50
00100000
00010000
00100000
00010000
,  // measure 51
00000100
00000010
00000100
00001000
,  // measure 52
00000010
00000100
00000010
00000001
,  // measure 53
00011000
00000000
00010000
00000000
,  // measure 54
00011000
00000000
00001000
00000000
,  // measure 55
00001000
00010000
00001000
00010000
,  // measure 56
00001000
00010000
00001000
00010000
00001000
00010000
00001000
00010000
,  // measure 57
10000000
00000000
10000000
00000000
00100000
00000000
01000000
00100000
,  // measure 58
00010000
00000000
00010000
00000000
10000000
00000000
00010000
10000000
,  // measure 59
00100000
00000000
01000000
00000000
00010000
00000000
00010000
00100000
,  // measure 60
01000000
00000000
00100000
00000000
00001000
00000000
00001000
00000100
,  // measure 61
00000001
00000000
00000001
00000000
00000100
00000000
00000010
00000100
,  // measure 62
00001000
00000000
00001000
00000000
00000001
00000000
00001000
00000001
,  // measure 63
00000100
00000000
00000010
00000000
00001000
00000000
00001000
00000100
,  // measure 64
00000010
00000000
00000100
00000000
00010000
00000000
00010000
00100000
,  // measure 65
10000000
00000000
10000000
00000000
00100000
00000000
01000000
00100000
,  // measure 66
00010000
00000000
00010000
00000000
10000000
00000000
00010000
10000000
,  // measure 67
00100000
00000000
01000000
00000000
00010000
00000000
00010000
00100000
,  // measure 68
01000000
00000000
00100000
00000000
00001000
00000000
00001000
00000100
,  // measure 69
00000001
00000000
00000001
00000000
00000100
00000000
00000010
00000100
,  // measure 70
00001000
00000000
00001000
00000000
00010000
00000000
00001000
00010000
,  // measure 71
00010000
00001000
00010000
00001000
,  // measure 72
00010000
00000000
00001000
00000000
00010000
00001000
00010000
00001000
,  // measure 73
00022000
00000000
00000000
00000000
,  // measure 74
00033000
00000000
00000000
00000000
;

//---------------dance-double - ----------------
#NOTES:
     dance-double:
     Old Special:
     Edit:
     10:
     0.385276,0.438943,0.142360,0.205631,0.000000,341.000000,323.000000,18.000000,26.000000,0.000000,0.000000,0.385276,0.438943,0.142360,0.205631,0.000000,341.000000,323.000000,18.000000,26.000000,0.000000,0.000000:
// measure 0
00000000
00000000
00000000
00000000
,  // measure 1
00000000
00000000
00000000
00000000
,  // measure 2
00000000
00000000
00000000
00000000
,  // measure 3
00000000
00000000
00000000
00000000
,  // measure 4
00000000
00000000
00000000
00000000
,  // measure 5
00000000
00000000
00000000
00000000
,  // measure 6
00000000
00000000
00000000
00000000
,  // measure 7
00000000
00000000
00000000
00000000
,  // measure 8
00000000
00000000
00000000
00000000
,  // measure 9
10000000
00010000
10000000
00000000
00100000
00000000
01000000
00100000
,  // measure 10
00010000
10000000
00010000
00000000
10000000
00000000
00010000
10000000
,  // measure 11
00100000
00010000
01000000
00000000
00010000
00000000
00010000
00100000
,  // measure 12
01000000
00010000
00100000
00000000
00001000
00000000
00001000
00000100
,  // measure 13
00000001
00001000
00000001
00000000
00000100
00000000
00000010
00000100
,  // measure 14
00001000
00000001
00001000
00000000
00000001
00000000
00001000
00000001
,  // measure 15
00000100
00001000
00000010
00000000
00001000
00000000
00001000
00000100
,  // measure 16
00000010
00001000
00000100
00000000
00010000
00000000
00010000
00100000
,  // measure 17
10000000
00010000
10000000
00000000
00100000
00000000
01000000
00100000
,  // measure 18
00010000
10000000
00010000
00000000
10000000
00000000
00010000
10000000
,  // measure 19
00100000
00010000
01000000
00000000
00010000
00000000
00010000
00100000
,  // measure 20
01000000
00010000
00100000
00000000
00001000
00000000
00001000
00000100
,  // measure 21
00000001
00001000
00000001
00000000
00000100
00000000
00000010
00000100
,  // measure 22
00001000
00010000
00001000
00000000
00010000
00000000
00001000
00010000
,  // measure 23
00001000
00000000
00010000
00000000
00001000
00010000
00001000
00010000
,  // measure 24
00010000
00000000
00001000
00000000
00010000
00001000
00010000
00001000
,  // measure 25
20010000
00000000
01000000
00000000
30010000
00000000
00010000
00100000
,  // measure 26
10020000
00000000
00100000
00000000
10030000
00000000
10000000
01000000
,  // measure 27
01200000
00000000
00010000
00000000
01300000
00000000
01000000
10000000
,  // measure 28
02100000
00000000
00001000
00000000
03100000
00000000
00100000
00010000
,  // measure 29
00001002
00000000
00000010
00000000
00001003
00000000
00001000
00000100
,  // measure 30
00002001
00000000
00000100
00000000
00003001
00000000
00000001
00000010
,  // measure 31
00000210
00000000
00001000
00000000
00000310
00000000
00000010
00000001
,  // measure 32
00000120
00000000
00010000
00000000
00000130
00000000
00000100
00001000
,  // measure 33
20010000
00000000
01000000
00000000
30010000
00000000
00010000
00100000
,  // measure 34
10020000
00000000
00100000
00000000
10030000
00000000
10000000
01000000
,  // measure 35
01200000
00000000
00010000
00000000
01300000
00000000
01000000
10000000
,  // measure 36
02100000
00000000
00001000
00000000
03100000
00000000
00100000
00010000
,  // measure 37
00001002
00000000
00000010
00000000
00001003
00000000
00001000
00000100
,  // measure 38
00002001
00000000
00000100
00000000
00003001
00000000
00000001
00000010
,  // measure 39
00001000
00000000
00010000
00000000
00001000
00010000
00001000
00010000
,  // measure 40
00010000
00000000
00001000
00000000
00010000
00001000
00010000
00001000
,  // measure 41
00020000
00030000
00010000
00000000
,  // measure 42
00002000
00003000
00001000
00000000
,  // measure 43
00020000
00030000
00010000
00000000
,  // measure 44
00002000
00003000
00020000
00030000
,  // measure 45
00020000
00030000
00010000
00000000
,  // measure 46
00002000
00003000
00001000
00000000
,  // measure 47
00020000
00030000
00010000
00000000
,  // measure 48
00002000
00003000
00020000
00030000
,  // measure 49
10010000
00010000
10000000
01000000
,  // measure 50
00100000
00010000
00100000
00010000
,  // measure 51
00000100
00000010
00000100
00001000
,  // measure 52
00000010
00000100
00000010
00000001
,  // measure 53
00011000
00000000
00010000
00000000
,  // measure 54
00011000
00000000
00001000
00000000
,  // measure 55
00001000
00010000
00001000
00010000
,  // measure 56
00001000
00010000
00001000
00010000
00001000
00010000
00001000
00010000
,  // measure 57
10000000
00010000
10000000
00000000
00100000
00000000
01000000
00100000
,  // measure 58
00010000
10000000
00010000
00000000
10000000
00000000
00010000
10000000
,  // measure 59
00100000
00010000
01000000
00000000
00010000
00000000
00010000
00100000
,  // measure 60
01000000
00010000
00100000
00000000
00001000
00000000
00001000
00000100
,  // measure 61
00000001
00001000
00000001
00000000
00000100
00000000
00000010
00000100
,  // measure 62
00001000
00000001
00001000
00000000
00000001
00000000
00001000
00000001
,  // measure 63
00000100
00001000
00000010
00000000
00001000
00000000
00001000
00000100
,  // measure 64
00000010
00001000
00000100
00000000
00010000
00000000
00010000
00100000
,  // measure 65
10000000
00010000
10000000
00000000
00100000
00000000
01000000
00100000
,  // measure 66
00010000
10000000
00010000
00000000
10000000
00000000
00010000
10000000
,  // measure 67
00100000
00010000
01000000
00000000
00010000
00000000
00010000
00100000
,  // measure 68
01000000
00010000
00100000
00000000
00001000
00000000
00001000
00000100
,  // measure 69
00000001
00001000
00000001
00000000
00000100
00000000
00000010
00000100
,  // measure 70
00001000
00010000
00001000
00000000
00010000
00000000
00001000
00010000
,  // measure 71
00001000
00000000
00010000
00000000
00001000
00010000
00001000
00010000
,  // measure 72
00010000
00000000
00001000
00000000
00010000
00001000
00010000
00001000
,  // measure 73
00022000
00000000
00000000
00000000
,  // measure 74
00033000
00000000
00000000
00000000
;

//---------------dance-double - Old S.A.----------------
#NOTES:
     dance-double:
     Old S.A.:
     Edit:
     8:
     0.185294,0.292629,0.055362,0.189813,0.000000,164.000000,157.000000,7.000000,24.000000,352.000000,0.000000,0.185294,0.292629,0.055362,0.189813,0.000000,164.000000,157.000000,7.000000,24.000000,352.000000,0.000000:
// measure 0
00000000
00000000
00000000
00000000
,  // measure 1
00000000
00000000
00000000
00000000
,  // measure 2
00000000
00000000
00000000
00000000
,  // measure 3
00000000
00000000
00000000
00000000
,  // measure 4
00000000
00000000
00000000
00000000
,  // measure 5
00000000
00000000
00000000
00000000
,  // measure 6
00000000
00000000
00000000
00000000
,  // measure 7
00000000
00000000
00000000
00000000
,  // measure 8
00000000
00000000
00000000
00000000
,  // measure 9
00010000
00010000
01000000
MMMMMMMM
,  // measure 10
10000000
10000000
00010000
MMMMMMMM
,  // measure 11
01000000
00100000
10000000
MMMMMMMM
,  // measure 12
00100000
01000000
00000100
MMMMMMMM
,  // measure 13
00001000
00001000
00000010
MMMMMMMM
,  // measure 14
00000001
00000001
00001000
MMMMMMMM
,  // measure 15
00000010
00000100
00000001
MMMMMMMM
,  // measure 16
00000100
00000010
00100000
MMMMMMMM
,  // measure 17
00010000
00010000
01000000
MMMMMMMM
,  // measure 18
10000000
10000000
00010000
MMMMMMMM
,  // measure 19
01000000
00100000
10000000
MMMMMMMM
,  // measure 20
00100000
01000000
00000100
MMMMMMMM
,  // measure 21
00001000
00001000
00000010
MMMMMMMM
,  // measure 22
00010000
00010000
00001000
MMMMMMMM
,  // measure 23
00010000
00001000
00010000
00001000
,  // measure 24
00010000
00000000
00001000
00000000
00022000
00000000
00000000
00033000
,  // measure 25
00020000
00000000
10030000
MMMMMMMM
,  // measure 26
20000000
00000000
30010000
MMMMMMMM
,  // measure 27
02000000
00000000
03100000
MMMMMMMM
,  // measure 28
00200000
00000000
01300000
MMMMMMMM
,  // measure 29
00002000
00000000
00003001
MMMMMMMM
,  // measure 30
00000002
00000000
00001003
MMMMMMMM
,  // measure 31
00000020
00000000
00000130
MMMMMMMM
,  // measure 32
00000200
00000000
00000310
MMMMMMMM
,  // measure 33
00020000
00000000
10030000
MMMMMMMM
,  // measure 34
20000000
00000000
30010000
MMMMMMMM
,  // measure 35
02000000
00000000
03100000
MMMMMMMM
,  // measure 36
00200000
00000000
01300000
MMMMMMMM
,  // measure 37
00002000
00000000
00003001
MMMMMMMM
,  // measure 38
00000002
00000000
00001003
MMMMMMMM
,  // measure 39
00010000
00001000
00010000
00001000
,  // measure 40
00010000
00000000
00001000
00000000
00022000
00000000
00000000
00033000
,  // measure 41
00010000
00000000
00000000
00000000
,  // measure 42
00001000
00000000
00000000
00000000
,  // measure 43
00010000
00000000
00000000
00000000
,  // measure 44
00001000
00000000
00000000
00000000
,  // measure 45
00010000
00000000
00000000
00000000
,  // measure 46
00001000
00000000
00000000
00000000
,  // measure 47
00010000
00000000
00000000
00000000
,  // measure 48
00001000
00000000
00000000
00000000
,  // measure 49
10000000
00000000
10000000
00000000
,  // measure 50
00100000
00000000
00100000
00000000
,  // measure 51
00000100
00000000
00000100
00000000
,  // measure 52
00000010
00000000
00000010
00000000
,  // measure 53
00011000
00000000
MMMMMMMM
00000000
,  // measure 54
00011000
00000000
MMMMMMMM
00000000
,  // measure 55
00001000
00010000
00001000
00010000
,  // measure 56
00022000
00000000
00000000
00000000
00000000
00000000
00000000
00033000
,  // measure 57
00010000
00010000
01000000
MMMMMMMM
,  // measure 58
10000000
10000000
00010000
MMMMMMMM
,  // measure 59
01000000
00100000
10000000
MMMMMMMM
,  // measure 60
00100000
01000000
00000100
MMMMMMMM
,  // measure 61
00001000
00001000
00000010
MMMMMMMM
,  // measure 62
00000001
00000001
00001000
MMMMMMMM
,  // measure 63
00000010
00000100
00000001
MMMMMMMM
,  // measure 64
00000100
00000010
00100000
MMMMMMMM
,  // measure 65
00010000
00010000
01000000
MMMMMMMM
,  // measure 66
10000000
10000000
00010000
MMMMMMMM
,  // measure 67
01000000
00100000
10000000
MMMMMMMM
,  // measure 68
00100000
01000000
00000100
MMMMMMMM
,  // measure 69
00001000
00001000
00000010
MMMMMMMM
,  // measure 70
00010000
00010000
00001000
MMMMMMMM
,  // measure 71
00010000
00001000
00010000
00001000
,  // measure 72
00010000
00000000
00001000
00000000
00022000
00000000
00000000
00033000
,  // measure 73
00022000
00000000
00000000
00000000
,  // measure 74
00033000
00000000
00000000
00000000
;

//---------------dance-double - Enjoy----------------
#NOTES:
     dance-double:
     Enjoy:
     Edit:
     1:
     0.013558,0.058526,0.007909,0.023727,0.000000,12.000000,11.000000,1.000000,3.000000,0.000000,0.000000,0.013558,0.058526,0.007909,0.023727,0.000000,12.000000,11.000000,1.000000,3.000000,0.000000,0.000000:
// measure 0
00000000
00000000
00000000
00000000
,  // measure 1
00000000
00000000
00000000
00000000
,  // measure 2
00000000
00000000
00000000
00000000
,  // measure 3
00000000
00000000
00000000
00000000
,  // measure 4
00000000
00000000
00000000
00000000
,  // measure 5
00000000
00000000
00000000
00000000
,  // measure 6
00000000
00000000
00000000
00000000
,  // measure 7
00000000
00000000
00000000
00000000
,  // measure 8
00000000
00000000
00000000
00000000
,  // measure 9
00100000
00000000
00000000
00000000
,  // measure 10
00000000
00000000
00000000
00000000
,  // measure 11
00000000
00000000
00000000
00000000
,  // measure 12
00000000
00000000
00000000
00000000
,  // measure 13
01000000
00000000
00000000
00000000
,  // measure 14
00000000
00000000
00000000
00000000
,  // measure 15
00000000
00000000
00000000
00000000
,  // measure 16
00000000
00000000
00000000
00000000
,  // measure 17
00000100
00000000
00000000
00000000
,  // measure 18
00000000
00000000
00000000
00000000
,  // measure 19
00000000
00000000
00000000
00000000
,  // measure 20
00000000
00000000
00000000
00000000
,  // measure 21
00000010
00000000
00000000
00000000
,  // measure 22
00000000
00000000
00000000
00000000
,  // measure 23
00000000
00000000
00000000
00000000
,  // measure 24
00000000
00000000
00000000
00000000
,  // measure 25
00020000
00000000
00000000
00000000
,  // measure 26
00000000
00000000
00000000
00000000
,  // measure 27
00000000
00000000
00000000
00000000
,  // measure 28
00000000
00000000
00000000
00000000
,  // measure 29
00000000
00000000
00000000
00000000
,  // measure 30
00000000
00000000
00000000
00000000
,  // measure 31
00000000
00000000
00000000
00000000
,  // measure 32
00000000
00000000
00000000
00000000
,  // measure 33
00000000
00000000
00000000
00000000
,  // measure 34
00000000
00000000
00000000
00000000
,  // measure 35
00000000
00000000
00000000
00000000
,  // measure 36
00000000
00000000
00000000
00000000
,  // measure 37
00000000
00000000
00000000
00000000
,  // measure 38
00000000
00000000
00000000
00000000
,  // measure 39
00000000
00000000
00000000
00000000
,  // measure 40
00000000
00000000
00000000
00030000
,  // measure 41
00001000
00000000
00000000
00000000
,  // measure 42
00000000
00000000
00000000
00000000
,  // measure 43
00000000
00000000
00000000
00000000
,  // measure 44
00000000
00000000
00000000
00000000
,  // measure 45
00000000
00000000
00000000
00000000
,  // measure 46
00000000
00000000
00000000
00000000
,  // measure 47
00000000
00000000
00000000
00000000
,  // measure 48
00000000
00000000
00000000
00000000
,  // measure 49
00000000
00000000
00000000
00000000
,  // measure 50
00000000
00000000
00000000
00000000
,  // measure 51
00000000
00000000
00000000
00000000
,  // measure 52
00000000
00000000
00000000
00000000
,  // measure 53
00000000
00000000
00000000
00000000
,  // measure 54
00000000
00000000
00000000
00000000
,  // measure 55
00000000
00000000
00000000
00000000
,  // measure 56
00000000
00000000
00000000
00000000
,  // measure 57
10000000
00000000
00000000
00000000
,  // measure 58
00000000
00000000
00000000
00000000
,  // measure 59
00000000
00000000
00000000
00000000
,  // measure 60
00000000
00000000
00000000
00000000
,  // measure 61
00010000
00000000
00000000
00000000
,  // measure 62
00000000
00000000
00000000
00000000
,  // measure 63
00000000
00000000
00000000
00000000
,  // measure 64
00000000
00000000
00000000
00000000
,  // measure 65
00001000
00000000
00000000
00000000
,  // measure 66
00000000
00000000
00000000
00000000
,  // measure 67
00000000
00000000
00000000
00000000
,  // measure 68
00000000
00000000
00000000
00000000
,  // measure 69
00000001
00000000
00000000
00000000
,  // measure 70
00000000
00000000
00000000
00000000
,  // measure 71
00000000
00000000
00000000
00000000
,  // measure 72
00000000
00000000
00000000
00000000
,  // measure 73
00022000
00000000
00000000
00000000
,  // measure 74
00033000
00000000
00000000
00000000
;

//---------------dance-double - Old Deluxe----------------
#NOTES:
     dance-double:
     Old Deluxe:
     Edit:
     11:
     0.460975,0.555995,0.142360,0.300538,0.011863,408.000000,390.000000,18.000000,38.000000,0.000000,0.000000,0.460975,0.555995,0.142360,0.300538,0.011863,408.000000,390.000000,18.000000,38.000000,0.000000,0.000000:
// measure 0
00000000
00000000
00000000
00000000
,  // measure 1
00000000
00000000
00000000
00000000
,  // measure 2
00000000
00000000
00000000
00000000
,  // measure 3
00000000
00000000
00000000
00000000
,  // measure 4
00000000
00000000
00000000
00000000
,  // measure 5
00000000
00000000
00000000
00000000
,  // measure 6
00000000
00000000
00000000
00000000
,  // measure 7
00000000
00000000
00000000
00000000
,  // measure 8
00000000
00000000
00000000
00000000
,  // measure 9
10000000
00010000
10000000
00010000
00100000
00000000
01000000
00100000
,  // measure 10
00010000
10000000
00010000
00100000
10000000
00000000
00010000
10000000
,  // measure 11
00100000
00010000
01000000
10000000
00010000
00000000
00010000
00100000
,  // measure 12
01000000
10000000
00100000
00010000
00001000
00000000
00001000
00000100
,  // measure 13
00000001
00001000
00000001
00001000
00000100
00000000
00000010
00000100
,  // measure 14
00001000
00000001
00001000
00000100
00000001
00000000
00001000
00000001
,  // measure 15
00000100
00001000
00000010
00000001
00001000
00000000
00001000
00000100
,  // measure 16
00000010
00000001
00000100
00001000
00010000
00000000
00010000
00100000
,  // measure 17
10000000
00010000
10000000
00010000
00100000
00000000
01000000
00100000
,  // measure 18
00010000
10000000
00010000
00100000
10000000
00000000
00010000
10000000
,  // measure 19
00100000
00010000
01000000
10000000
00010000
00000000
00010000
00100000
,  // measure 20
01000000
10000000
00100000
00010000
00001000
00000000
00001000
00000100
,  // measure 21
00000001
00001000
00000001
00001000
00000100
00000000
00000010
00000100
,  // measure 22
00001000
00010000
00001000
00001000
00010000
00000000
00001000
00010000
,  // measure 23
00001000
00010000
00001000
00010000
00001000
00010000
00001000
00010000
,  // measure 24
00010000
00001000
00010000
00001000
00010000
00001000
00010000
00001000
,  // measure 25
20010000
00000000
01000000
01000000
30010000
00000000
00010000
00100000
,  // measure 26
10020000
00000000
00100000
00100000
10030000
00000000
10000000
01000000
,  // measure 27
01200000
00000000
00010000
00010000
01300000
00000000
01000000
10000000
,  // measure 28
02100000
00000000
00001000
00001000
03100000
00000000
00100000
00010000
,  // measure 29
00001002
00000000
00000010
00000010
00001003
00000000
00001000
00000100
,  // measure 30
00002001
00000000
00000100
00000100
00003001
00000000
00000001
00000010
,  // measure 31
00000210
00000000
00001000
00001000
00000310
00000000
00000010
00000001
,  // measure 32
00000120
00000000
00010000
00010000
00000130
00000000
00000100
00001000
,  // measure 33
20010000
00000000
01000000
01000000
30010000
00000000
00010000
00100000
,  // measure 34
10020000
00000000
00100000
00100000
10030000
00000000
10000000
01000000
,  // measure 35
01200000
00000000
00010000
00010000
01300000
00000000
01000000
10000000
,  // measure 36
02100000
00000000
00001000
00001000
03100000
00000000
00100000
00010000
,  // measure 37
00001002
00000000
00000010
00000010
00001003
00000000
00001000
00000100
,  // measure 38
00002001
00000000
00000100
00000100
00003001
00000000
00000001
00000010
,  // measure 39
00001000
00010000
00001000
00010000
00001000
00010000
00001000
00010000
,  // measure 40
00010000
00001000
00010000
00001000
00010000
00001000
00010000
00001000
,  // measure 41
00020000
00030000
00020000
00030000
,  // measure 42
00002000
00003000
00002000
00003000
,  // measure 43
00020000
00030000
00020000
00030000
,  // measure 44
00002000
00013000
00020000
00031000
,  // measure 45
00020000
00030000
00020000
00030000
,  // measure 46
00002000
00003000
00002000
00003000
,  // measure 47
00020000
00030000
00020000
00030000
,  // measure 48
00002000
00013000
00020000
00031000
,  // measure 49
20010000
30010000
10000000
01000000
,  // measure 50
00200000
00310000
00100000
00010000
,  // measure 51
00000200
00000310
00000100
00001000
,  // measure 52
00000020
00000130
00000010
00000001
,  // measure 53
00021000
00030000
00010000
00010000
,  // measure 54
00012000
00003000
00001000
00001000
,  // measure 55
00001000
00010000
00001000
00010000
00001000
00010000
00001000
00010000
,  // measure 56
00001000
00000000
00010000
00000000
00001000
00000000
00010000
00000000
00001000
00000000
00010000
00000000
00001000
00010000
00001000
00010000
,  // measure 57
10000000
00010000
10000000
00010000
00100000
00000000
01000000
00100000
,  // measure 58
00010000
10000000
00010000
00100000
10000000
00000000
00010000
10000000
,  // measure 59
00100000
00010000
01000000
10000000
00010000
00000000
00010000
00100000
,  // measure 60
01000000
10000000
00100000
00010000
00001000
00000000
00001000
00000100
,  // measure 61
00000001
00001000
00000001
00001000
00000100
00000000
00000010
00000100
,  // measure 62
00001000
00000001
00001000
00000100
00000001
00000000
00001000
00000001
,  // measure 63
00000100
00001000
00000010
00000001
00001000
00000000
00001000
00000100
,  // measure 64
00000010
00000001
00000100
00001000
00010000
00000000
00010000
00100000
,  // measure 65
10000000
00010000
10000000
00010000
00100000
00000000
01000000
00100000
,  // measure 66
00010000
10000000
00010000
00100000
10000000
00000000
00010000
10000000
,  // measure 67
00100000
00010000
01000000
10000000
00010000
00000000
00010000
00100000
,  // measure 68
01000000
10000000
00100000
00010000
00001000
00000000
00001000
00000100
,  // measure 69
00000001
00001000
00000001
00001000
00000100
00000000
00000010
00000100
,  // measure 70
00001000
00010000
00001000
00001000
00010000
00000000
00001000
00010000
,  // measure 71
00001000
00010000
00001000
00010000
00001000
00010000
00001000
00010000
,  // measure 72
00010000
00000000
00001000
00000000
00010000
00000000
00001000
00000000
00010000
00000000
00001000
00000000
00010000
00001000
00010000
00000000
,  // measure 73
00022000
00000000
00000000
00000000
,  // measure 74
00033000
00000000
00000000
00000000
;

//---------------dance-double - Hell----------------
#NOTES:
     dance-double:
     Hell:
     Edit:
     18:
     0.873367,1.111990,0.150269,0.490351,1.427554,773.000000,754.000000,19.000000,62.000000,0.000000,0.000000,0.873367,1.111990,0.150269,0.490351,1.427554,773.000000,754.000000,19.000000,62.000000,0.000000,0.000000:
// measure 0
00000000
00000000
00000000
00000000
,  // measure 1
00000000
00000000
00000000
00000000
,  // measure 2
00000000
00000000
00000000
00000000
,  // measure 3
00000000
00000000
00000000
00000000
,  // measure 4
00000000
00000000
00000000
00000000
,  // measure 5
00000000
00000000
00000000
00000000
,  // measure 6
00000000
00000000
00000000
00000000
,  // measure 7
00000000
00000000
00000000
00000000
,  // measure 8
00000000
00000000
00000000
00000000
,  // measure 9
10000000
00100000
01000000
10000000
01000000
00100000
01000000
00100000
00010000
10000000
00000000
00100000
10000000
00000000
00100000
01000000
,  // measure 10
10000000
00010000
00100000
00010000
10000000
01000000
10000000
01000000
00100000
00010000
00000000
00100000
00000100
00000000
00000100
00001000
,  // measure 11
00000001
00000100
00000010
00000001
00000010
00000100
00000010
00000100
00001000
00000001
00000000
00000100
00000001
00000000
00000100
00000010
,  // measure 12
00000001
00001000
00000100
00001000
00000001
00000010
00000001
00000010
00000100
00001000
00000000
00000100
00100000
00000000
00100000
00010000
,  // measure 13
00100000
00010000
10000000
00100000
10000000
00010000
10000000
00010000
01000000
00100000
00000000
00010000
00100000
00000000
00010000
10000000
,  // measure 14
00100000
01000000
00010000
01000000
00100000
10000000
00100000
10000000
00010000
01000000
00000000
00010000
00001000
00000000
00001000
00000010
,  // measure 15
00000100
00001000
00000001
00000100
00000001
00001000
00000001
00001000
00000010
00000100
00000000
00001000
00000100
00000000
00001000
00000001
,  // measure 16
00000100
00000010
00001000
00000010
00000100
00000001
00000100
00000001
00001000
00000010
00000000
00001000
00010000
00000000
00010000
01000000
,  // measure 17
10000000
00100000
01000000
10000000
01000000
00100000
01000000
00100000
00010000
10000000
00000000
00100000
10000000
00000000
00100000
01000000
,  // measure 18
10000000
00010000
00100000
00010000
10000000
01000000
10000000
01000000
00100000
00010000
00000000
00100000
00000100
00000000
00000100
00001000
,  // measure 19
00000001
00000100
00000010
00000001
00000010
00000100
00000010
00000100
00001000
00000001
00000000
00000100
00000001
00000000
00000100
00000010
,  // measure 20
00000001
00001000
00000100
00001000
00000001
00000010
00000001
00000010
00000100
00001000
00000000
00000100
00100000
00000000
00100000
00010000
,  // measure 21
00100000
00010000
10000000
00100000
10000000
00010000
10000000
00010000
01000000
00100000
00000000
00010000
00100000
00000000
00010000
10000000
,  // measure 22
00100000
01000000
00010000
01000000
00100000
10000000
00100000
10000000
00010000
01000000
00000000
00010000
00001000
00000000
00001000
00000010
,  // measure 23
00000100
00001000
00000001
00000100
00000001
00001000
00000001
00001000
00000010
00000100
00000000
00001000
00000100
00000000
00001000
00000001
,  // measure 24
00000100
00000000
00000000
00000010
00000000
00000000
00001000
00000000
00000000
00000010
00000000
00000000
00000100
00000000
00000000
00000001
00000000
00000000
00000100
00000000
00000000
00000001
00000000
00000000
00001000
00000000
00000010
00000000
00001000
00000000
00000010
00000000
00001000
00000000
00000010
00000000
00010000
00000000
00100000
00000000
00010000
00000000
00100000
00000000
00010000
00000000
00100000
00000000
,  // measure 25
10000000
01000000
10000000
01000000
00210000
00000000
00010000
00300000
20000000
01000000
00000000
01000000
00010000
00100000
01000000
30000000
,  // measure 26
00010000
00100000
00010000
00100000
12000000
00000000
10000000
03000000
00020000
00100000
00000000
00000000
10000000
01000000
00100000
00030000
,  // measure 27
00100000
10000000
00100000
10000000
01020000
00000000
01000000
00030000
00200000
10000000
00000000
10000000
01000000
00010000
10000000
00300000
,  // measure 28
01000000
00010000
01000000
00010000
20100000
00000000
00100000
30000000
02000000
00010000
00000000
00000000
00100000
10000000
00010000
03000000
,  // measure 29
00000001
00000010
00000001
00000010
00001200
00000000
00001000
00000300
00000002
00000010
00000000
00000010
00001000
00000100
00000010
00000003
,  // measure 30
00001000
00000100
00001000
00000100
00000021
00000000
00000001
00000030
00002000
00000100
00000000
00000000
00000001
00000010
00000100
00003000
,  // measure 31
00000100
00000001
00000100
00000001
00002010
00000000
00000010
00003000
00000200
00000001
00000000
00000001
00000010
00001000
00000001
00000300
,  // measure 32
00000010
00001000
00000010
00001000
00000102
00000000
00000100
00000003
00000020
00001000
00000000
00000000
00000100
00010000
00001000
00000030
,  // measure 33
10000000
01000000
10000000
01000000
00210000
00000000
00010000
00300000
20000000
01000000
00000000
01000000
00010000
00100000
01000000
30000000
,  // measure 34
00010000
00100000
00010000
00100000
12000000
00000000
10000000
03000000
00020000
00100000
00000000
00000000
10000000
01000000
00100000
00030000
,  // measure 35
00100000
10000000
00100000
10000000
01020000
00000000
01000000
00030000
00200000
10000000
00000000
10000000
01000000
00010000
10000000
00300000
,  // measure 36
01000000
00010000
01000000
00010000
20100000
00000000
00100000
30000000
02000000
00010000
00000000
00000000
00100000
00001000
00010000
03000000
,  // measure 37
00000001
00000010
00000001
00000010
00001200
00000000
00001000
00000300
00000002
00000010
00000000
00000010
00001000
00000100
00000010
00000003
,  // measure 38
00001000
00000100
00001000
00000100
00000021
00000000
00000001
00000030
00002000
00000100
00000000
00000000
00000001
00000010
00000100
00003000
,  // measure 39
00010000
00001000
00010000
00001000
00010000
00001000
00010000
00001000
00010000
00001000
00010000
00001000
00010000
00001000
00010000
00001000
,  // measure 40
00010000
00000000
00000000
00001000
00000000
00000000
00010000
00000000
00000000
00001000
00000000
00000000
00010000
00000000
00000000
00001000
00000000
00000000
00010000
00000000
00000000
00001000
00000000
00000000
00010000
00000000
00001000
00000000
00010000
00000000
00001000
00000000
00010000
00000000
00001000
00000000
00010000
00000000
00001000
00000000
00010000
00000000
00001000
00000000
00010000
00000000
00001000
00000000
,  // measure 41
02200000
00300000
00020000
00030000
,  // measure 42
00200000
00300000
00002000
03003000
,  // measure 43
00000220
00000300
00002000
00003000
,  // measure 44
00000200
00000300
00002000
00003030
,  // measure 45
20020000
00030000
02000000
03000000
,  // measure 46
00020000
00030000
00200000
30300000
,  // measure 47
00002002
00003000
00000020
00000030
,  // measure 48
00002000
00003000
00000200
00000303
,  // measure 49
00200000
00000000
00000000
00000000
20300000
00000000
00000000
00000000
30200000
00000000
00000000
00000000
,  // measure 50
00320000
00000000
00000000
00000000
20030000
00000000
00000000
00000000
30020000
00000000
00000000
00000000
,  // measure 51
02030000
00000000
00000000
00000000
03020000
00000000
00000000
00000000
02030000
00000000
00000000
00000000
,  // measure 52
23000000
00000000
00000000
00000000
30020000
00000000
00000000
00000000
02030000
00000000
00000000
00000000
,  // measure 53
13000000
01000000
10000000
01000000
00100000
00010000
00100000
00010000
00001000
00000100
00001000
00000100
00000010
00000001
00000010
00000001
,  // measure 54
00001000
00000010
00000001
00000010
00000100
00001000
00000100
00001000
00010000
00100000
00010000
00100000
01000000
10000000
01000000
10000000
,  // measure 55
00010000
00001000
00010000
00001000
00010000
00001000
00010000
00001000
00010000
00001000
00010000
00001000
00010000
00001000
00010000
00001000
,  // measure 56
00010000
00000000
00000000
00001000
00000000
00000000
00010000
00000000
00000000
00001000
00000000
00000000
00010000
00000000
00000000
00001000
00000000
00000000
00010000
00000000
00000000
00001000
00000000
00000000
00010000
00000000
00001000
00000000
00010000
00000000
00001000
00000000
00010000
00000000
00001000
00000000
00010000
00000000
00001000
00000000
00010000
00000000
00001000
00000000
00010000
00000000
00001000
00000000
,  // measure 57
10000000
00100000
01000000
10000000
01000000
00100000
01000000
00100000
00010000
10000000
00000000
00100000
10000000
00000000
00100000
01000000
,  // measure 58
10000000
00010000
00100000
00010000
10000000
01000000
10000000
01000000
00100000
00010000
00000000
00100000
00000100
00000000
00000100
00001000
,  // measure 59
00000001
00000100
00000010
00000001
00000010
00000100
00000010
00000100
00001000
00000001
00000000
00000100
00000001
00000000
00000100
00000010
,  // measure 60
00000001
00001000
00000100
00001000
00000001
00000010
00000001
00000010
00000100
00001000
00000000
00000100
00100000
00000000
00100000
00010000
,  // measure 61
00100000
00010000
10000000
00100000
10000000
00010000
10000000
00010000
01000000
00100000
00000000
00010000
00100000
00000000
00010000
10000000
,  // measure 62
00100000
01000000
00010000
01000000
00100000
10000000
00100000
10000000
00010000
01000000
00000000
00010000
00001000
00000000
00001000
00000010
,  // measure 63
00000100
00001000
00000001
00000100
00000001
00001000
00000001
00001000
00000010
00000100
00000000
00001000
00000100
00000000
00001000
00000001
,  // measure 64
00000100
00000010
00001000
00000010
00000100
00000001
00000100
00000001
00001000
00000010
00000000
00001000
00010000
00000000
00010000
01000000
,  // measure 65
10000000
00100000
01000000
10000000
01000000
00100000
01000000
00100000
00010000
10000000
00000000
00100000
10000000
00000000
00100000
01000000
,  // measure 66
10000000
00010000
00100000
00010000
10000000
01000000
10000000
01000000
00100000
00010000
00000000
00100000
00000100
00000000
00000100
00001000
,  // measure 67
00000001
00000100
00000010
00000001
00000010
00000100
00000010
00000100
00001000
00000001
00000000
00000100
00000001
00000000
00000100
00000010
,  // measure 68
00000001
00001000
00000100
00001000
00000001
00000010
00000001
00000010
00000100
00001000
00000000
00000100
00100000
00000000
00100000
00010000
,  // measure 69
00100000
00010000
10000000
00100000
10000000
00010000
10000000
00010000
01000000
00100000
00000000
00010000
00100000
00000000
00010000
10000000
,  // measure 70
00100000
01000000
00010000
01000000
00100000
10000000
00100000
10000000
00010000
01000000
00000000
00010000
00001000
00000000
00001000
00000010
,  // measure 71
00000100
00001000
00000001
00000100
00000001
00001000
00000001
00001000
00000010
00000100
00000000
00001000
00000100
00000000
00001000
00000001
,  // measure 72
00000100
00000000
00000000
00000010
00000000
00000000
00001000
00000000
00000000
00000010
00000000
00000000
00000100
00000000
00000000
00000001
00000000
00000000
00000100
00000000
00000000
00000001
00000000
00000000
00001000
00000000
00000010
00000000
00001000
00000000
00000010
00000000
00001000
00000000
00000010
00000000
00010000
00000000
00100000
00000000
00010000
00000000
00100000
00000000
00010000
00000000
00100000
00000000
,  // measure 73
20020000
00000000
00000000
00000000
,  // measure 74
30030000
00000000
00000000
00000000
;

//---------------dance-single - Old Casual----------------
#NOTES:
     dance-single:
     Old Casual:
     Edit:
     3:
     0.079089,0.175577,0.031636,0.126542,0.000000,70.000000,66.000000,4.000000,16.000000,0.000000,0.000000,0.079089,0.175577,0.031636,0.126542,0.000000,70.000000,66.000000,4.000000,16.000000,0.000000,0.000000:
0000
0000
0000
0000
,
0000
0000
0000
0000
,
0000
0000
0000
0000
,
0000
0000
0000
0000
,
0000
0000
0000
0000
,
0000
0000
0000
0000
,
0000
0000
0000
0000
,
0000
0000
0000
0000
,
0000
0000
0000
0000
,
1000
0000
0000
0000
,
0001
0000
0000
0000
,
0010
0000
0000
0000
,
0100
0000
0000
0000
,
0001
0000
0000
0000
,
1000
0000
0000
0000
,
0100
0000
0000
0000
,
0010
0000
0000
0000
,
1000
0000
0000
0000
,
0001
0000
0000
0000
,
0010
0000
0000
0000
,
0100
0000
0000
0000
,
0001
0000
0000
0000
,
1000
0000
0000
0000
,
1000
0000
0001
0000
,
0010
0000
0100
0000
,
2000
0000
3000
0000
,
0002
0000
0003
0000
,
0020
0000
0030
0000
,
0200
0000
0300
0000
,
2000
0000
3000
0000
,
0002
0000
0003
0000
,
0020
0000
0030
0000
,
0200
0000
0300
0000
,
2000
0000
3000
0000
,
0002
0000
0003
0000
,
0020
0000
0030
0000
,
0200
0000
0300
0000
,
2000
0000
3000
0000
,
0002
0000
0003
0000
,
1000
0000
0000
0000
,
0010
0000
0100
0000
,
0010
0000
0000
0000
,
0000
0000
0000
0000
,
0100
0000
0000
0000
,
0000
0000
0000
0000
,
0010
0000
0000
0000
,
0000
0000
0000
0000
,
0100
0000
0000
0000
,
0000
0000
0000
0000
,
0010
0000
0000
0000
,
0100
0000
0000
0000
,
0010
0000
0000
0000
,
0100
0000
0000
0000
,
1001
0000
0000
0000
,
1001
0000
0000
0000
,
1001
0000
0000
0000
,
0010
0000
0000
0000
,
1000
0000
0000
0000
,
0001
0000
0000
0000
,
0010
0000
0000
0000
,
0100
0000
0000
0000
,
0001
0000
0000
0000
,
1000
0000
0000
0000
,
0100
0000
0000
0000
,
0010
0000
0000
0000
,
1000
0000
0000
0000
,
0001
0000
0000
0000
,
0010
0000
0000
0000
,
0100
0000
0000
0000
,
0001
0000
0000
0000
,
1000
0000
0000
0000
,
1000
0000
0001
0000
,
0010
0000
0100
0000
,
2002
0000
0000
0000
,
3003
0000
0000
0000
;

//---------------dance-double - Old Casual----------------
#NOTES:
     dance-double:
     Old Casual:
     Edit:
     3:
     0.079089,0.175577,0.031636,0.126542,0.000000,70.000000,66.000000,4.000000,16.000000,0.000000,0.000000,0.079089,0.175577,0.031636,0.126542,0.000000,70.000000,66.000000,4.000000,16.000000,0.000000,0.000000:
// measure 0
00000000
00000000
00000000
00000000
,  // measure 1
00000000
00000000
00000000
00000000
,  // measure 2
00000000
00000000
00000000
00000000
,  // measure 3
00000000
00000000
00000000
00000000
,  // measure 4
00000000
00000000
00000000
00000000
,  // measure 5
00000000
00000000
00000000
00000000
,  // measure 6
00000000
00000000
00000000
00000000
,  // measure 7
00000000
00000000
00000000
00000000
,  // measure 8
00000000
00000000
00000000
00000000
,  // measure 9
10000000
00000000
00000000
00000000
,  // measure 10
00010000
00000000
00000000
00000000
,  // measure 11
00100000
00000000
00000000
00000000
,  // measure 12
01000000
00000000
00000000
00000000
,  // measure 13
00000001
00000000
00000000
00000000
,  // measure 14
00001000
00000000
00000000
00000000
,  // measure 15
00000100
00000000
00000000
00000000
,  // measure 16
00000010
00000000
00000000
00000000
,  // measure 17
10000000
00000000
00000000
00000000
,  // measure 18
00010000
00000000
00000000
00000000
,  // measure 19
00100000
00000000
00000000
00000000
,  // measure 20
01000000
00000000
00000000
00000000
,  // measure 21
00000001
00000000
00000000
00000000
,  // measure 22
00001000
00000000
00000000
00000000
,  // measure 23
00010000
00000000
00001000
00000000
,  // measure 24
00010000
00000000
00001000
00000000
,  // measure 25
20000000
00000000
30000000
00000000
,  // measure 26
00020000
00000000
00030000
00000000
,  // measure 27
00200000
00000000
00300000
00000000
,  // measure 28
02000000
00000000
03000000
00000000
,  // measure 29
00002000
00000000
00003000
00000000
,  // measure 30
00000002
00000000
00000003
00000000
,  // measure 31
00000020
00000000
00000030
00000000
,  // measure 32
00000200
00000000
00000300
00000000
,  // measure 33
20000000
00000000
30000000
00000000
,  // measure 34
00020000
00000000
00030000
00000000
,  // measure 35
00200000
00000000
00300000
00000000
,  // measure 36
02000000
00000000
03000000
00000000
,  // measure 37
00020000
00000000
00030000
00000000
,  // measure 38
00002000
00000000
00003000
00000000
,  // measure 39
00010000
00000000
00000000
00000000
,  // measure 40
00010000
00000000
00001000
00000000
,  // measure 41
00010000
00000000
00000000
00000000
,  // measure 42
00000000
00000000
00000000
00000000
,  // measure 43
00001000
00000000
00000000
00000000
,  // measure 44
00000000
00000000
00000000
00000000
,  // measure 45
00010000
00000000
00000000
00000000
,  // measure 46
00000000
00000000
00000000
00000000
,  // measure 47
00001000
00000000
00000000
00000000
,  // measure 48
00000000
00000000
00000000
00000000
,  // measure 49
10000000
00000000
00000000
00000000
,  // measure 50
00100000
00000000
00000000
00000000
,  // measure 51
00000100
00000000
00000000
00000000
,  // measure 52
00000010
00000000
00000000
00000000
,  // measure 53
00011000
00000000
00000000
00000000
,  // measure 54
00011000
00000000
00000000
00000000
,  // measure 55
00011000
00000000
00000000
00000000
,  // measure 56
00001000
00000000
00000000
00000000
,  // measure 57
10000000
00000000
00000000
00000000
,  // measure 58
00010000
00000000
00000000
00000000
,  // measure 59
00100000
00000000
00000000
00000000
,  // measure 60
01000000
00000000
00000000
00000000
,  // measure 61
00000001
00000000
00000000
00000000
,  // measure 62
00001000
00000000
00000000
00000000
,  // measure 63
00000100
00000000
00000000
00000000
,  // measure 64
00000010
00000000
00000000
00000000
,  // measure 65
10000000
00000000
00000000
00000000
,  // measure 66
00010000
00000000
00000000
00000000
,  // measure 67
00100000
00000000
00000000
00000000
,  // measure 68
01000000
00000000
00000000
00000000
,  // measure 69
00000001
00000000
00000000
00000000
,  // measure 70
00001000
00000000
00000000
00000000
,  // measure 71
00010000
00000000
00001000
00000000
,  // measure 72
00010000
00000000
00001000
00000000
,  // measure 73
00022000
00000000
00000000
00000000
,  // measure 74
00033000
00000000
00000000
00000000
;

//---------------dance-single - ----------------
#NOTES:
     dance-single:
     :
     Easy:
     3:
     0.109595,0.180323,0.047453,0.063271,0.000000,97.000000,91.000000,6.000000,8.000000,0.000000,0.000000,0.109595,0.180323,0.047453,0.063271,0.000000,97.000000,91.000000,6.000000,8.000000,0.000000,0.000000:
0000
0000
0000
0000
,
0000
0000
0000
0000
,
0000
0000
0000
0000
,
0000
0000
0000
0000
,
0000
0000
0000
0000
,
0000
0000
0000
0000
,
0000
0000
0000
0000
,
0000
0000
0000
0000
,
0000
0000
0000
0000
,
0010
0000
0010
0000
,
1000
0000
0001
0000
,
1000
0000
1000
0000
,
0001
0000
0001
0000
,
0100
0000
0100
0000
,
0001
0000
1000
0000
,
0001
0000
0001
0000
,
1000
0000
1000
0000
,
0001
0000
0001
0000
,
0010
0000
0100
0000
,
0010
0000
0010
0000
,
0100
0000
0100
0000
,
1000
0000
1000
0000
,
0100
0000
0010
0000
,
0100
0000
0100
0000
,
0001
0000
1000
0000
,
0120
0000
0000
0000
,
0100
0000
0000
0000
,
0001
0000
0000
0000
,
0100
0000
0000
0030
,
0210
0000
0000
0000
,
0010
0000
0000
0000
,
1000
0000
0000
0000
,
0010
0000
0000
0300
,
1002
0000
0000
0000
,
1000
0000
0000
0000
,
0100
0000
0000
0000
,
1000
0000
0000
0003
,
2001
0000
0000
0000
,
0001
0000
0000
0000
,
0010
0000
0000
0000
,
0001
0000
0000
3000
,
2002
0000
0000
0000
,
0000
0000
0000
0000
,
0000
0000
0000
0000
,
0000
0000
0000
0000
,
0000
0000
0000
0000
,
0000
0000
0000
0000
,
0000
0000
0000
0000
,
0000
0000
0000
3003
,
1000
0000
0000
0000
,
1000
0000
0000
0000
,
0001
0000
0000
0000
,
0001
0000
0000
0000
,
1000
0000
0000
0000
,
1000
0000
0000
0000
,
0001
0000
0000
0000
,
0001
0000
1000
0000
,
0100
0000
0100
0000
,
0001
0000
1000
0000
,
0001
0000
0001
0000
,
1000
0000
1000
0000
,
0010
0000
0010
0000
,
1000
0000
0001
0000
,
1000
0000
1000
0000
,
0001
0000
0001
0000
,
1000
0000
1000
0000
,
0100
0000
0010
0000
,
0100
0000
0100
0000
,
0010
0000
0010
0000
,
0001
0000
0001
0000
,
0010
0000
0100
0000
,
0010
0000
0010
0000
,
1000
0000
0001
0000
,
2002
0000
0000
0000
,
0000
0000
0000
0000
,
0000
0000
0000
0000
,
3003
0000
0000
0000
;

//---------------dance-single - ----------------
#NOTES:
     dance-single:
     :
     Beginner:
     3:
     0.096037,0.180323,0.015818,0.063271,0.000000,85.000000,83.000000,2.000000,8.000000,0.000000,0.000000,0.096037,0.180323,0.015818,0.063271,0.000000,85.000000,83.000000,2.000000,8.000000,0.000000,0.000000:
0000
0000
0000
0000
,
0000
0000
0000
0000
,
0000
0000
0000
0000
,
0000
0000
0000
0000
,
0000
0000
0000
0000
,
0000
0000
0000
0000
,
0000
0000
0000
0000
,
0000
0000
0000
0000
,
0000
0000
0000
0000
,
0010
0000
0000
0000
,
1000
0000
0001
0000
,
1000
0000
1000
0000
,
0001
0000
0001
0000
,
0100
0000
0000
0000
,
0001
0000
1000
0000
,
0001
0000
0001
0000
,
1000
0000
1000
0000
,
0001
0000
0000
0000
,
0010
0000
0100
0000
,
0010
0000
0010
0000
,
0100
0000
0100
0000
,
1000
0000
0000
0000
,
0100
0000
0010
0000
,
0100
0000
0100
0000
,
0001
0000
1000
0000
,
0020
0000
0000
0000
,
0100
0000
0000
0000
,
0001
0000
0000
0000
,
0100
0000
0000
0030
,
0200
0000
0000
0000
,
0010
0000
0000
0000
,
1000
0000
0000
0000
,
0010
0000
0000
0300
,
0002
0000
0000
0000
,
1000
0000
0000
0000
,
0100
0000
0000
0000
,
1000
0000
0000
0003
,
2000
0000
0000
0000
,
0001
0000
0000
0000
,
0010
0000
0000
0000
,
0001
0000
0000
3000
,
2002
0000
0000
0000
,
0000
0000
0000
0000
,
0000
0000
0000
0000
,
0000
0000
0000
0000
,
0000
0000
0000
0000
,
0000
0000
0000
0000
,
0000
0000
0000
0000
,
0000
0000
0000
3003
,
1000
0000
0000
0000
,
1000
0000
0000
0000
,
0001
0000
0000
0000
,
0001
0000
0000
0000
,
1000
0000
0000
0000
,
1000
0000
0000
0000
,
0001
0000
0000
0000
,
0001
0000
1000
0000
,
0100
0000
0000
0000
,
0001
0000
1000
0000
,
0001
0000
0001
0000
,
1000
0000
1000
0000
,
0010
0000
0000
0000
,
1000
0000
0001
0000
,
1000
0000
1000
0000
,
0001
0000
0001
0000
,
1000
0000
0000
0000
,
0100
0000
0010
0000
,
0100
0000
0100
0000
,
0010
0000
0010
0000
,
0001
0000
0000
0000
,
0010
0000
0100
0000
,
0010
0000
0010
0000
,
1000
0000
0001
0000
,
2002
0000
0000
0000
,
0000
0000
0000
0000
,
0000
0000
0000
0000
,
3003
0000
0000
0000
;

//---------------dance-single - ----------------
#NOTES:
     dance-single:
     :
     Medium:
     3:
     0.118633,0.210376,0.047453,0.063271,0.000000,105.000000,99.000000,6.000000,8.000000,0.000000,0.000000,0.118633,0.210376,0.047453,0.063271,0.000000,105.000000,99.000000,6.000000,8.000000,0.000000,0.000000:
0000
0000
0000
0000
,
0000
0000
0000
0000
,
0000
0000
0000
0000
,
0000
0000
0000
0000
,
0000
0000
0000
0000
,
0000
0000
0000
0000
,
0000
0000
0000
0000
,
0000
0000
0000
0000
,
0000
0000
0000
0000
,
0010
0000
0010
0000
,
1000
0000
0001
0000
,
1000
0000
1000
0000
,
0001
0000
0001
0000
,
0100
0000
0100
0000
,
0001
0000
1000
0000
,
0001
0000
0001
0000
,
1000
0000
1000
0000
,
0001
0000
0001
0000
,
0010
0000
0100
0000
,
0010
0000
0010
0000
,
0100
0000
0100
0000
,
1000
0000
1000
0000
,
0100
0000
0010
0000
,
0100
0000
0100
0000
,
0001
1000
0001
0000
,
0120
0000
0100
0000
,
0100
0000
0000
0000
,
0001
0000
0000
0000
,
0100
0000
0000
0030
,
0210
0000
0010
0000
,
0010
0000
0000
0000
,
1000
0000
0000
0000
,
0010
0000
0000
0300
,
1002
0000
1000
0000
,
1000
0000
0000
0000
,
0100
0000
0000
0000
,
1000
0000
0000
0003
,
2001
0000
0001
0000
,
0001
0000
0000
0000
,
0010
0000
0000
0000
,
0001
0000
0000
3000
,
2002
0000
0000
0000
,
0000
0000
0000
0000
,
0000
0000
0000
0000
,
0000
0000
0000
0000
,
0000
0000
0000
0000
,
0000
0000
0000
0000
,
0000
0000
0000
0000
,
0000
0000
0000
3003
,
1000
0000
0000
0000
,
1000
0000
0000
0000
,
0001
0000
0000
0000
,
0001
0000
0000
0000
,
1000
0000
0000
0000
,
1000
0000
0000
0000
,
0001
0000
0001
0000
,
0001
1000
0001
0000
,
0100
0000
0100
0000
,
0001
0000
1000
0000
,
0001
0000
0001
0000
,
1000
0000
1000
0000
,
0010
0000
0010
0000
,
1000
0000
0001
0000
,
1000
0000
1000
0000
,
0001
0000
0001
0000
,
1000
0000
1000
0000
,
0100
0000
0010
0000
,
0100
0000
0100
0000
,
0010
0000
0010
0000
,
0001
0000
0001
0000
,
0010
0000
0100
0000
,
0010
0000
0010
0000
,
1000
0001
1000
0000
,
2002
0000
0000
0000
,
0000
0000
0000
0000
,
0000
0000
0000
0000
,
3003
0000
0000
0000
;

//---------------dance-single - ----------------
#NOTES:
     dance-single:
     :
     Hard:
     4:
     0.126542,0.240430,0.047453,0.063271,0.000000,112.000000,106.000000,6.000000,8.000000,0.000000,0.000000,0.126542,0.240430,0.047453,0.063271,0.000000,112.000000,106.000000,6.000000,8.000000,0.000000,0.000000:
0000
0000
0000
0000
,
0000
0000
0000
0000
,
0000
0000
0000
0000
,
0000
0000
0000
0000
,
0000
0000
0000
0000
,
0000
0000
0000
0000
,
0000
0000
0000
0000
,
0000
0000
0000
0000
,
0000
0000
0000
0000
,
0010
0000
0010
0000
,
1000
0000
0001
0000
,
1000
0000
1000
0000
,
0001
0000
0001
0000
,
0100
0000
0100
0000
,
0001
0000
1000
0000
,
0001
0000
0001
0000
,
1000
0000
1000
0000
,
0001
0000
0001
0000
,
0010
0000
0100
0000
,
0010
0000
0010
0000
,
0100
0000
0100
0000
,
1000
0000
1000
0000
,
0100
0000
0010
0000
,
0100
0000
0100
0000
,
0001
1000
0001
1000
,
0120
0000
0100
0000
,
0100
0000
0000
0000
,
0001
0000
0000
0000
,
0100
0000
0100
0030
,
0210
0000
0010
0000
,
0010
0000
0000
0000
,
1000
0000
0000
0000
,
0010
0000
0010
0300
,
1002
0000
1000
0000
,
1000
0000
0000
0000
,
0100
0000
0000
0000
,
1000
0000
1000
0003
,
2001
0000
0001
0000
,
0001
0000
0000
0000
,
0010
0000
0000
0000
,
0001
0000
0001
3000
,
2002
0000
0000
0000
,
0000
0000
0000
0000
,
0000
0000
0000
0000
,
0000
0000
0000
0000
,
0000
0000
0000
0000
,
0000
0000
0000
0000
,
0000
0000
0000
0000
,
0000
0000
0000
3003
,
1000
0000
0000
0000
,
1000
0000
0000
0000
,
0001
0000
0000
0000
,
0001
0000
0000
0000
,
1000
0000
0000
0000
,
1000
0000
0000
0000
,
0001
0000
0001
0000
,
0001
1000
0001
1000
,
0100
0000
0100
0000
,
0001
0000
1000
0000
,
0001
0000
0001
0000
,
1000
0000
1000
0000
,
0010
0000
0010
0000
,
1000
0000
0001
0000
,
1000
0000
1000
0000
,
0001
0000
0001
0000
,
1000
0000
1000
0000
,
0100
0000
0010
0000
,
0100
0000
0100
0000
,
0010
0000
0010
0000
,
0001
0000
0001
0000
,
0010
0000
0100
0000
,
0010
0000
0010
0000
,
1000
0001
1000
0001
,
2002
0000
0000
0000
,
0000
0000
0000
0000
,
0000
0000
0000
0000
,
3003
0000
0000
0000
;

//---------------dance-single - ----------------
#NOTES:
     dance-single:
     :
     Challenge:
     4:
     0.136711,0.240430,0.047453,0.063271,0.000000,121.000000,115.000000,6.000000,8.000000,0.000000,0.000000,0.136711,0.240430,0.047453,0.063271,0.000000,121.000000,115.000000,6.000000,8.000000,0.000000,0.000000:
0000
0000
0000
0000
,
0000
0000
0000
0000
,
0000
0000
0000
0000
,
0000
0000
0000
0000
,
0000
0000
0000
0000
,
0000
0000
0000
0000
,
0000
0000
0000
0000
,
0000
0000
0000
0000
,
0000
0000
0000
0000
,
0010
0000
0010
0000
,
1000
0000
0001
0000
,
1000
0000
1000
0000
,
0001
0000
0001
0001
,
0100
0000
0100
0000
,
0001
0000
1000
0000
,
0001
0000
0001
0000
,
1000
0000
1000
1000
,
0001
0000
0001
0000
,
0010
0000
0100
0000
,
0010
0000
0010
0000
,
0100
0000
0100
0100
,
1000
0000
1000
0000
,
0100
0000
0010
0000
,
0100
0000
0100
0000
,
0001
1000
0001
1000
,
0120
0000
0100
0000
,
0100
0000
0000
0000
,
0001
0000
0000
0000
,
0100
0000
0100
0030
,
0210
0000
0010
0000
,
0010
0000
0000
0000
,
1000
0000
0000
0000
,
0010
0000
0010
0300
,
1002
0000
1000
0000
,
1000
0000
0000
0000
,
0100
0000
0000
0000
,
1000
0000
1000
0003
,
2001
0000
0001
0000
,
0001
0000
0000
0000
,
0010
0000
0000
0000
,
0001
0000
0001
3000
,
2002
0000
0000
0000
,
0000
0000
0000
0000
,
0000
0000
0000
0000
,
0000
0000
0000
0000
,
0000
0000
0000
0000
,
0000
0000
0000
0000
,
0000
0000
0000
0000
,
0000
0000
0000
3003
,
1000
0000
1000
0000
,
1000
0000
0000
0000
,
0001
0000
0001
0000
,
0001
0000
0000
0000
,
1000
0000
1000
0000
,
1000
0000
0000
0000
,
0001
0000
0001
0000
,
0001
1000
0001
1000
,
0100
0000
0100
0000
,
0001
0000
1000
0000
,
0001
0000
0001
0000
,
1000
0000
1000
1000
,
0010
0000
0010
0000
,
1000
0000
0001
0000
,
1000
0000
1000
0000
,
0001
0000
0001
0001
,
1000
0000
1000
0000
,
0100
0000
0010
0000
,
0100
0000
0100
0000
,
0010
0000
0010
0010
,
0001
0000
0001
0000
,
0010
0000
0100
0000
,
0010
0000
0010
0000
,
1000
0001
1000
0001
,
2002
0000
0000
0000
,
0000
0000
0000
0000
,
0000
0000
0000
0000
,
3003
0000
0000
0000
;

//---------------dance-double - ----------------
#NOTES:
     dance-double:
     :
     Easy:
     3:
     0.109595,0.180323,0.047453,0.063271,0.000000,97.000000,91.000000,6.000000,8.000000,0.000000,0.000000,0.109595,0.180323,0.047453,0.063271,0.000000,97.000000,91.000000,6.000000,8.000000,0.000000,0.000000:
// measure 0
00000000
00000000
00000000
00000000
,  // measure 1
00000000
00000000
00000000
00000000
,  // measure 2
00000000
00000000
00000000
00000000
,  // measure 3
00000000
00000000
00000000
00000000
,  // measure 4
00000000
00000000
00000000
00000000
,  // measure 5
00000000
00000000
00000000
00000000
,  // measure 6
00000000
00000000
00000000
00000000
,  // measure 7
00000000
00000000
00000000
00000000
,  // measure 8
00000000
00000000
00000000
00000000
,  // measure 9
00100000
00000000
00100000
00000000
,  // measure 10
10000000
00000000
00010000
00000000
,  // measure 11
10000000
00000000
10000000
00000000
,  // measure 12
00010000
00000000
00010000
00000000
,  // measure 13
01000000
00000000
01000000
00000000
,  // measure 14
00010000
00000000
10000000
00000000
,  // measure 15
00010000
00000000
00010000
00000000
,  // measure 16
00001000
00000000
00001000
00000000
,  // measure 17
00000100
00000000
00000100
00000000
,  // measure 18
00000001
00000000
00001000
00000000
,  // measure 19
00000001
00000000
00000001
00000000
,  // measure 20
00001000
00000000
00001000
00000000
,  // measure 21
00000010
00000000
00000010
00000000
,  // measure 22
00001000
00000000
00000001
00000000
,  // measure 23
00001000
00000000
00001000
00000000
,  // measure 24
00010000
00000000
00001000
00000000
,  // measure 25
00210000
00000000
00000000
00000000
,  // measure 26
01000000
00000000
00000000
00000000
,  // measure 27
00010000
00000000
00000000
00000000
,  // measure 28
01000000
00000000
00000000
00300000
,  // measure 29
02100000
00000000
00000000
00000000
,  // measure 30
00100000
00000000
00000000
00000000
,  // measure 31
10000000
00000000
00000000
00000000
,  // measure 32
00100000
00000000
00000000
03000000
,  // measure 33
00001200
00000000
00000000
00000000
,  // measure 34
00000010
00000000
00000000
00000000
,  // measure 35
00001000
00000000
00000000
00000000
,  // measure 36
00000010
00000000
00000000
00000300
,  // measure 37
00000120
00000000
00000000
00000000
,  // measure 38
00000100
00000000
00000000
00000000
,  // measure 39
00000001
00000000
00000000
00000000
,  // measure 40
00000100
00000000
00000000
00000030
,  // measure 41
00022000
00000000
00000000
00000000
,  // measure 42
00000000
00000000
00000000
00000000
,  // measure 43
00000000
00000000
00000000
00000000
,  // measure 44
00000000
00000000
00000000
00000000
,  // measure 45
00000000
00000000
00000000
00000000
,  // measure 46
00000000
00000000
00000000
00000000
,  // measure 47
00000000
00000000
00000000
00000000
,  // measure 48
00000000
00000000
00000000
00033000
,  // measure 49
00010000
00000000
00000000
00000000
,  // measure 50
00010000
00000000
00000000
00000000
,  // measure 51
00001000
00000000
00000000
00000000
,  // measure 52
00001000
00000000
00000000
00000000
,  // measure 53
00010000
00000000
00000000
00000000
,  // measure 54
00010000
00000000
00000000
00000000
,  // measure 55
00001000
00000000
00000000
00000000
,  // measure 56
00001000
00000000
00010000
00000000
,  // measure 57
00100000
00000000
00100000
00000000
,  // measure 58
10000000
00000000
00010000
00000000
,  // measure 59
10000000
00000000
10000000
00000000
,  // measure 60
00010000
00000000
00010000
00000000
,  // measure 61
01000000
00000000
01000000
00000000
,  // measure 62
00010000
00000000
10000000
00000000
,  // measure 63
00010000
00000000
00010000
00000000
,  // measure 64
00001000
00000000
00001000
00000000
,  // measure 65
00000100
00000000
00000100
00000000
,  // measure 66
00000001
00000000
00001000
00000000
,  // measure 67
00000001
00000000
00000001
00000000
,  // measure 68
00001000
00000000
00001000
00000000
,  // measure 69
00000010
00000000
00000010
00000000
,  // measure 70
00001000
00000000
00000001
00000000
,  // measure 71
00001000
00000000
00001000
00000000
,  // measure 72
00010000
00000000
00001000
00000000
,  // measure 73
00022000
00000000
00000000
00000000
,  // measure 74
00000000
00000000
00000000
00000000
,  // measure 75
00000000
00000000
00000000
00000000
,  // measure 76
00033000
00000000
00000000
00000000
;

//---------------dance-double - ----------------
#NOTES:
     dance-double:
     :
     Medium:
     3:
     0.118633,0.210376,0.047453,0.063271,0.000000,105.000000,99.000000,6.000000,8.000000,0.000000,0.000000,0.118633,0.210376,0.047453,0.063271,0.000000,105.000000,99.000000,6.000000,8.000000,0.000000,0.000000:
// measure 0
00000000
00000000
00000000
00000000
,  // measure 1
00000000
00000000
00000000
00000000
,  // measure 2
00000000
00000000
00000000
00000000
,  // measure 3
00000000
00000000
00000000
00000000
,  // measure 4
00000000
00000000
00000000
00000000
,  // measure 5
00000000
00000000
00000000
00000000
,  // measure 6
00000000
00000000
00000000
00000000
,  // measure 7
00000000
00000000
00000000
00000000
,  // measure 8
00000000
00000000
00000000
00000000
,  // measure 9
00100000
00000000
00100000
00000000
,  // measure 10
10000000
00000000
00010000
00000000
,  // measure 11
10000000
00000000
10000000
00000000
,  // measure 12
00010000
00000000
00010000
00000000
,  // measure 13
01000000
00000000
01000000
00000000
,  // measure 14
00010000
00000000
10000000
00000000
,  // measure 15
00010000
00000000
00010000
00000000
,  // measure 16
00001000
00000000
00001000
00000000
,  // measure 17
00000100
00000000
00000100
00000000
,  // measure 18
00000001
00000000
00001000
00000000
,  // measure 19
00000001
00000000
00000001
00000000
,  // measure 20
00001000
00000000
00001000
00000000
,  // measure 21
00000010
00000000
00000010
00000000
,  // measure 22
00001000
00000000
00000001
00000000
,  // measure 23
00001000
00000000
00001000
00000000
,  // measure 24
00010000
00001000
00010000
00000000
,  // measure 25
00210000
00000000
00010000
00000000
,  // measure 26
01000000
00000000
00000000
00000000
,  // measure 27
00010000
00000000
00000000
00000000
,  // measure 28
01000000
00000000
00000000
00300000
,  // measure 29
02100000
00000000
00100000
00000000
,  // measure 30
00100000
00000000
00000000
00000000
,  // measure 31
10000000
00000000
00000000
00000000
,  // measure 32
00100000
00000000
00000000
03000000
,  // measure 33
00001200
00000000
00001000
00000000
,  // measure 34
00000010
00000000
00000000
00000000
,  // measure 35
00001000
00000000
00000000
00000000
,  // measure 36
00000010
00000000
00000000
00000300
,  // measure 37
00000120
00000000
00000100
00000000
,  // measure 38
00000100
00000000
00000000
00000000
,  // measure 39
00000001
00000000
00000000
00000000
,  // measure 40
00000100
00000000
00000000
00000030
,  // measure 41
00022000
00000000
00000000
00000000
,  // measure 42
00000000
00000000
00000000
00000000
,  // measure 43
00000000
00000000
00000000
00000000
,  // measure 44
00000000
00000000
00000000
00000000
,  // measure 45
00000000
00000000
00000000
00000000
,  // measure 46
00000000
00000000
00000000
00000000
,  // measure 47
00000000
00000000
00000000
00000000
,  // measure 48
00000000
00000000
00000000
00033000
,  // measure 49
00010000
00000000
00000000
00000000
,  // measure 50
00010000
00000000
00000000
00000000
,  // measure 51
00001000
00000000
00000000
00000000
,  // measure 52
00001000
00000000
00000000
00000000
,  // measure 53
00010000
00000000
00000000
00000000
,  // measure 54
00010000
00000000
00000000
00000000
,  // measure 55
00001000
00000000
00001000
00000000
,  // measure 56
00001000
00010000
00001000
00000000
,  // measure 57
00100000
00000000
00100000
00000000
,  // measure 58
10000000
00000000
00010000
00000000
,  // measure 59
10000000
00000000
10000000
00000000
,  // measure 60
00010000
00000000
00010000
00000000
,  // measure 61
01000000
00000000
01000000
00000000
,  // measure 62
00010000
00000000
10000000
00000000
,  // measure 63
00010000
00000000
00010000
00000000
,  // measure 64
00001000
00000000
00001000
00000000
,  // measure 65
00000100
00000000
00000100
00000000
,  // measure 66
00000001
00000000
00001000
00000000
,  // measure 67
00000001
00000000
00000001
00000000
,  // measure 68
00001000
00000000
00001000
00000000
,  // measure 69
00000010
00000000
00000010
00000000
,  // measure 70
00001000
00000000
00000001
00000000
,  // measure 71
00001000
00000000
00001000
00000000
,  // measure 72
00010000
00001000
00010000
00000000
,  // measure 73
00022000
00000000
00000000
00000000
,  // measure 74
00000000
00000000
00000000
00000000
,  // measure 75
00000000
00000000
00000000
00000000
,  // measure 76
00033000
00000000
00000000
00000000
;

//---------------dance-double - ----------------
#NOTES:
     dance-double:
     :
     Beginner:
     3:
     0.096037,0.180323,0.015818,0.063271,0.000000,85.000000,83.000000,2.000000,8.000000,0.000000,0.000000,0.096037,0.180323,0.015818,0.063271,0.000000,85.000000,83.000000,2.000000,8.000000,0.000000,0.000000:
// measure 0
00000000
00000000
00000000
00000000
,  // measure 1
00000000
00000000
00000000
00000000
,  // measure 2
00000000
00000000
00000000
00000000
,  // measure 3
00000000
00000000
00000000
00000000
,  // measure 4
00000000
00000000
00000000
00000000
,  // measure 5
00000000
00000000
00000000
00000000
,  // measure 6
00000000
00000000
00000000
00000000
,  // measure 7
00000000
00000000
00000000
00000000
,  // measure 8
00000000
00000000
00000000
00000000
,  // measure 9
00100000
00000000
00000000
00000000
,  // measure 10
10000000
00000000
00010000
00000000
,  // measure 11
10000000
00000000
10000000
00000000
,  // measure 12
00010000
00000000
00010000
00000000
,  // measure 13
01000000
00000000
00000000
00000000
,  // measure 14
00010000
00000000
10000000
00000000
,  // measure 15
00010000
00000000
00010000
00000000
,  // measure 16
00001000
00000000
00001000
00000000
,  // measure 17
00000100
00000000
00000000
00000000
,  // measure 18
00000001
00000000
00001000
00000000
,  // measure 19
00000001
00000000
00000001
00000000
,  // measure 20
00001000
00000000
00001000
00000000
,  // measure 21
00000010
00000000
00000000
00000000
,  // measure 22
00001000
00000000
00000001
00000000
,  // measure 23
00001000
00000000
00001000
00000000
,  // measure 24
00010000
00000000
00001000
00000000
,  // measure 25
00200000
00000000
00000000
00000000
,  // measure 26
01000000
00000000
00000000
00000000
,  // measure 27
00010000
00000000
00000000
00000000
,  // measure 28
01000000
00000000
00000000
00300000
,  // measure 29
02000000
00000000
00000000
00000000
,  // measure 30
00100000
00000000
00000000
00000000
,  // measure 31
10000000
00000000
00000000
00000000
,  // measure 32
00100000
00000000
00000000
03000000
,  // measure 33
00000200
00000000
00000000
00000000
,  // measure 34
00000010
00000000
00000000
00000000
,  // measure 35
00001000
00000000
00000000
00000000
,  // measure 36
00000010
00000000
00000000
00000300
,  // measure 37
00000020
00000000
00000000
00000000
,  // measure 38
00000100
00000000
00000000
00000000
,  // measure 39
00000001
00000000
00000000
00000000
,  // measure 40
00000100
00000000
00000000
00000030
,  // measure 41
00022000
00000000
00000000
00000000
,  // measure 42
00000000
00000000
00000000
00000000
,  // measure 43
00000000
00000000
00000000
00000000
,  // measure 44
00000000
00000000
00000000
00000000
,  // measure 45
00000000
00000000
00000000
00000000
,  // measure 46
00000000
00000000
00000000
00000000
,  // measure 47
00000000
00000000
00000000
00000000
,  // measure 48
00000000
00000000
00000000
00033000
,  // measure 49
00010000
00000000
00000000
00000000
,  // measure 50
00010000
00000000
00000000
00000000
,  // measure 51
00001000
00000000
00000000
00000000
,  // measure 52
00001000
00000000
00000000
00000000
,  // measure 53
00010000
00000000
00000000
00000000
,  // measure 54
00010000
00000000
00000000
00000000
,  // measure 55
00001000
00000000
00000000
00000000
,  // measure 56
00001000
00000000
00010000
00000000
,  // measure 57
00100000
00000000
00000000
00000000
,  // measure 58
10000000
00000000
00010000
00000000
,  // measure 59
10000000
00000000
10000000
00000000
,  // measure 60
00010000
00000000
00010000
00000000
,  // measure 61
01000000
00000000
00000000
00000000
,  // measure 62
00010000
00000000
10000000
00000000
,  // measure 63
00010000
00000000
00010000
00000000
,  // measure 64
00001000
00000000
00001000
00000000
,  // measure 65
00000100
00000000
00000000
00000000
,  // measure 66
00000001
00000000
00001000
00000000
,  // measure 67
00000001
00000000
00000001
00000000
,  // measure 68
00001000
00000000
00001000
00000000
,  // measure 69
00000010
00000000
00000000
00000000
,  // measure 70
00001000
00000000
00000001
00000000
,  // measure 71
00001000
00000000
00001000
00000000
,  // measure 72
00010000
00000000
00001000
00000000
,  // measure 73
00022000
00000000
00000000
00000000
,  // measure 74
00000000
00000000
00000000
00000000
,  // measure 75
00000000
00000000
00000000
00000000
,  // measure 76
00033000
00000000
00000000
00000000
;

//---------------dance-double - ----------------
#NOTES:
     dance-double:
     :
     Hard:
     4:
     0.126542,0.240430,0.047453,0.063271,0.000000,112.000000,106.000000,6.000000,8.000000,0.000000,0.000000,0.126542,0.240430,0.047453,0.063271,0.000000,112.000000,106.000000,6.000000,8.000000,0.000000,0.000000:
// measure 0
00000000
00000000
00000000
00000000
,  // measure 1
00000000
00000000
00000000
00000000
,  // measure 2
00000000
00000000
00000000
00000000
,  // measure 3
00000000
00000000
00000000
00000000
,  // measure 4
00000000
00000000
00000000
00000000
,  // measure 5
00000000
00000000
00000000
00000000
,  // measure 6
00000000
00000000
00000000
00000000
,  // measure 7
00000000
00000000
00000000
00000000
,  // measure 8
00000000
00000000
00000000
00000000
,  // measure 9
00100000
00000000
00100000
00000000
,  // measure 10
10000000
00000000
00010000
00000000
,  // measure 11
10000000
00000000
10000000
00000000
,  // measure 12
00010000
00000000
00010000
00000000
,  // measure 13
01000000
00000000
01000000
00000000
,  // measure 14
00010000
00000000
10000000
00000000
,  // measure 15
00010000
00000000
00010000
00000000
,  // measure 16
00001000
00000000
00001000
00000000
,  // measure 17
00000100
00000000
00000100
00000000
,  // measure 18
00000001
00000000
00001000
00000000
,  // measure 19
00000001
00000000
00000001
00000000
,  // measure 20
00001000
00000000
00001000
00000000
,  // measure 21
00000010
00000000
00000010
00000000
,  // measure 22
00001000
00000000
00000001
00000000
,  // measure 23
00001000
00000000
00001000
00000000
,  // measure 24
00010000
00001000
00010000
00001000
,  // measure 25
00210000
00000000
00010000
00000000
,  // measure 26
01000000
00000000
00000000
00000000
,  // measure 27
00010000
00000000
00000000
00000000
,  // measure 28
01000000
00000000
01000000
00300000
,  // measure 29
02100000
00000000
00100000
00000000
,  // measure 30
00100000
00000000
00000000
00000000
,  // measure 31
10000000
00000000
00000000
00000000
,  // measure 32
00100000
00000000
00010000
03000000
,  // measure 33
00001200
00000000
00001000
00000000
,  // measure 34
00000010
00000000
00000000
00000000
,  // measure 35
00001000
00000000
00000000
00000000
,  // measure 36
00000010
00000000
00000010
00000300
,  // measure 37
00000120
00000000
00000100
00000000
,  // measure 38
00000100
00000000
00000000
00000000
,  // measure 39
00000001
00000000
00000000
00000000
,  // measure 40
00000100
00000000
00001000
00000030
,  // measure 41
00022000
00000000
00000000
00000000
,  // measure 42
00000000
00000000
00000000
00000000
,  // measure 43
00000000
00000000
00000000
00000000
,  // measure 44
00000000
00000000
00000000
00000000
,  // measure 45
00000000
00000000
00000000
00000000
,  // measure 46
00000000
00000000
00000000
00000000
,  // measure 47
00000000
00000000
00000000
00000000
,  // measure 48
00000000
00000000
00000000
00033000
,  // measure 49
00010000
00000000
00000000
00000000
,  // measure 50
00010000
00000000
00000000
00000000
,  // measure 51
00001000
00000000
00000000
00000000
,  // measure 52
00001000
00000000
00000000
00000000
,  // measure 53
00010000
00000000
00000000
00000000
,  // measure 54
00010000
00000000
00000000
00000000
,  // measure 55
00001000
00000000
00001000
00000000
,  // measure 56
00001000
00010000
00001000
00010000
,  // measure 57
00100000
00000000
00100000
00000000
,  // measure 58
10000000
00000000
00010000
00000000
,  // measure 59
10000000
00000000
10000000
00000000
,  // measure 60
00010000
00000000
00010000
00000000
,  // measure 61
01000000
00000000
01000000
00000000
,  // measure 62
00010000
00000000
10000000
00000000
,  // measure 63
00010000
00000000
00010000
00000000
,  // measure 64
00001000
00000000
00001000
00000000
,  // measure 65
00000100
00000000
00000100
00000000
,  // measure 66
00000001
00000000
00001000
00000000
,  // measure 67
00000001
00000000
00000001
00000000
,  // measure 68
00001000
00000000
00001000
00000000
,  // measure 69
00000010
00000000
00000010
00000000
,  // measure 70
00001000
00000000
00000001
00000000
,  // measure 71
00001000
00000000
00001000
00000000
,  // measure 72
00010000
00001000
00010000
00001000
,  // measure 73
00022000
00000000
00000000
00000000
,  // measure 74
00000000
00000000
00000000
00000000
,  // measure 75
00000000
00000000
00000000
00000000
,  // measure 76
00033000
00000000
00000000
00000000
;

//---------------dance-double - ----------------
#NOTES:
     dance-double:
     :
     Challenge:
     4:
     0.136711,0.240430,0.047453,0.063271,0.000000,121.000000,115.000000,6.000000,8.000000,0.000000,0.000000,0.136711,0.240430,0.047453,0.063271,0.000000,121.000000,115.000000,6.000000,8.000000,0.000000,0.000000:
// measure 0
00000000
00000000
00000000
00000000
,  // measure 1
00000000
00000000
00000000
00000000
,  // measure 2
00000000
00000000
00000000
00000000
,  // measure 3
00000000
00000000
00000000
00000000
,  // measure 4
00000000
00000000
00000000
00000000
,  // measure 5
00000000
00000000
00000000
00000000
,  // measure 6
00000000
00000000
00000000
00000000
,  // measure 7
00000000
00000000
00000000
00000000
,  // measure 8
00000000
00000000
00000000
00000000
,  // measure 9
00100000
00000000
00100000
00000000
,  // measure 10
10000000
00000000
00010000
00000000
,  // measure 11
10000000
00000000
10000000
00000000
,  // measure 12
00010000
00000000
00010000
00010000
,  // measure 13
01000000
00000000
01000000
00000000
,  // measure 14
00010000
00000000
10000000
00000000
,  // measure 15
00010000
00000000
00010000
00000000
,  // measure 16
00001000
00000000
00001000
00001000
,  // measure 17
00000100
00000000
00000100
00000000
,  // measure 18
00000001
00000000
00001000
00000000
,  // measure 19
00000001
00000000
00000001
00000000
,  // measure 20
00001000
00000000
00001000
00001000
,  // measure 21
00000010
00000000
00000010
00000000
,  // measure 22
00001000
00000000
00000001
00000000
,  // measure 23
00001000
00000000
00001000
00000000
,  // measure 24
00010000
00001000
00010000
00001000
,  // measure 25
00210000
00000000
00010000
00000000
,  // measure 26
01000000
00000000
00000000
00000000
,  // measure 27
00010000
00000000
00000000
00000000
,  // measure 28
01000000
00000000
01000000
00300000
,  // measure 29
02100000
00000000
00100000
00000000
,  // measure 30
00100000
00000000
00000000
00000000
,  // measure 31
10000000
00000000
00000000
00000000
,  // measure 32
00100000
00000000
00010000
03000000
,  // measure 33
00001200
00000000
00001000
00000000
,  // measure 34
00000010
00000000
00000000
00000000
,  // measure 35
00001000
00000000
00000000
00000000
,  // measure 36
00000010
00000000
00000010
00000300
,  // measure 37
00000120
00000000
00000100
00000000
,  // measure 38
00000100
00000000
00000000
00000000
,  // measure 39
00000001
00000000
00000000
00000000
,  // measure 40
00000100
00000000
00001000
00000030
,  // measure 41
00022000
00000000
00000000
00000000
,  // measure 42
00000000
00000000
00000000
00000000
,  // measure 43
00000000
00000000
00000000
00000000
,  // measure 44
00000000
00000000
00000000
00000000
,  // measure 45
00000000
00000000
00000000
00000000
,  // measure 46
00000000
00000000
00000000
00000000
,  // measure 47
00000000
00000000
00000000
00000000
,  // measure 48
00000000
00000000
00000000
00033000
,  // measure 49
00010000
00000000
00010000
00000000
,  // measure 50
00010000
00000000
00000000
00000000
,  // measure 51
00001000
00000000
00001000
00000000
,  // measure 52
00001000
00000000
00000000
00000000
,  // measure 53
00010000
00000000
00010000
00000000
,  // measure 54
00010000
00000000
00000000
00000000
,  // measure 55
00001000
00000000
00001000
00000000
,  // measure 56
00001000
00010000
00001000
00010000
,  // measure 57
00100000
00000000
00100000
00000000
,  // measure 58
10000000
00000000
00010000
00000000
,  // measure 59
10000000
00000000
10000000
00000000
,  // measure 60
00010000
00000000
00010000
00010000
,  // measure 61
01000000
00000000
01000000
00000000
,  // measure 62
00010000
00000000
10000000
00000000
,  // measure 63
00010000
00000000
00010000
00000000
,  // measure 64
00001000
00000000
00001000
00001000
,  // measure 65
00000100
00000000
00000100
00000000
,  // measure 66
00000001
00000000
00001000
00000000
,  // measure 67
00000001
00000000
00000001
00000000
,  // measure 68
00001000
00000000
00001000
00001000
,  // measure 69
00000010
00000000
00000010
00000000
,  // measure 70
00001000
00000000
00000001
00000000
,  // measure 71
00001000
00000000
00001000
00000000
,  // measure 72
00010000
00001000
00010000
00001000
,  // measure 73
00022000
00000000
00000000
00000000
,  // measure 74
00000000
00000000
00000000
00000000
,  // measure 75
00000000
00000000
00000000
00000000
,  // measure 76
00033000
00000000
00000000
00000000
;

//---------------dance-single - Casual----------------
#NOTES:
     dance-single:
     Casual:
     Edit:
     2:
     0.079089,0.120215,0.015818,0.063271,0.000000,70.000000,68.000000,2.000000,8.000000,0.000000,0.000000,0.079089,0.120215,0.015818,0.063271,0.000000,70.000000,68.000000,2.000000,8.000000,0.000000,0.000000:
0000
0000
0000
0000
,
0000
0000
0000
0000
,
0000
0000
0000
0000
,
0000
0000
0000
0000
,
0000
0000
0000
0000
,
0000
0000
0000
0000
,
0000
0000
0000
0000
,
0000
0000
0000
0000
,
0000
0000
0000
0000
,
0010
0000
0000
0000
,
1000
0000
0001
0000
,
1000
0000
0000
0000
,
0001
0000
0001
0000
,
0100
0000
0000
0000
,
0001
0000
1000
0000
,
0001
0000
0000
0000
,
1000
0000
1000
0000
,
0001
0000
0000
0000
,
0010
0000
0100
0000
,
0010
0000
0000
0000
,
0100
0000
0100
0000
,
1000
0000
0000
0000
,
0100
0000
0010
0000
,
0100
0000
0000
0000
,
0001
0000
0000
0000
,
0020
0000
0000
0000
,
0100
0000
0000
0000
,
0001
0000
0000
0000
,
0000
0000
0000
0030
,
0200
0000
0000
0000
,
0010
0000
0000
0000
,
1000
0000
0000
0000
,
0000
0000
0000
0300
,
0002
0000
0000
0000
,
1000
0000
0000
0000
,
0100
0000
0000
0000
,
0000
0000
0000
0003
,
2000
0000
0000
0000
,
0001
0000
0000
0000
,
0010
0000
0000
0000
,
0000
0000
0000
3000
,
2002
0000
0000
0000
,
0000
0000
0000
0000
,
0000
0000
0000
0000
,
0000
0000
0000
0000
,
0000
0000
0000
0000
,
0000
0000
0000
0000
,
0000
0000
0000
0000
,
0000
0000
0000
3003
,
1000
0000
0000
0000
,
1000
0000
0000
0000
,
0001
0000
0000
0000
,
0001
0000
0000
0000
,
1000
0000
0000
0000
,
1000
0000
0000
0000
,
0001
0000
0000
0000
,
0001
0000
0000
0000
,
0100
0000
0000
0000
,
0001
0000
1000
0000
,
0001
0000
0000
0000
,
1000
0000
1000
0000
,
0010
0000
0000
0000
,
1000
0000
0001
0000
,
1000
0000
0000
0000
,
0001
0000
0001
0000
,
1000
0000
0000
0000
,
0100
0000
0010
0000
,
0100
0000
0000
0000
,
0010
0000
0010
0000
,
0001
0000
0000
0000
,
0010
0000
0100
0000
,
0010
0000
0000
0000
,
1000
0000
0000
0000
,
2002
0000
0000
0000
,
0000
0000
0000
0000
,
0000
0000
0000
0000
,
3003
0000
0000
0000
;

//---------------dance-double - Casual----------------
#NOTES:
     dance-double:
     Casual:
     Edit:
     2:
     0.079089,0.120215,0.015818,0.063271,0.000000,70.000000,68.000000,2.000000,8.000000,0.000000,0.000000,0.079089,0.120215,0.015818,0.063271,0.000000,70.000000,68.000000,2.000000,8.000000,0.000000,0.000000:
// measure 0
00000000
00000000
00000000
00000000
,  // measure 1
00000000
00000000
00000000
00000000
,  // measure 2
00000000
00000000
00000000
00000000
,  // measure 3
00000000
00000000
00000000
00000000
,  // measure 4
00000000
00000000
00000000
00000000
,  // measure 5
00000000
00000000
00000000
00000000
,  // measure 6
00000000
00000000
00000000
00000000
,  // measure 7
00000000
00000000
00000000
00000000
,  // measure 8
00000000
00000000
00000000
00000000
,  // measure 9
00100000
00000000
00000000
00000000
,  // measure 10
10000000
00000000
00010000
00000000
,  // measure 11
10000000
00000000
00000000
00000000
,  // measure 12
00010000
00000000
00010000
00000000
,  // measure 13
01000000
00000000
00000000
00000000
,  // measure 14
00010000
00000000
10000000
00000000
,  // measure 15
00010000
00000000
00000000
00000000
,  // measure 16
00001000
00000000
00001000
00000000
,  // measure 17
00000100
00000000
00000000
00000000
,  // measure 18
00000001
00000000
00001000
00000000
,  // measure 19
00000001
00000000
00000000
00000000
,  // measure 20
00001000
00000000
00001000
00000000
,  // measure 21
00000010
00000000
00000000
00000000
,  // measure 22
00001000
00000000
00000001
00000000
,  // measure 23
00001000
00000000
00000000
00000000
,  // measure 24
00010000
00000000
00000000
00000000
,  // measure 25
00200000
00000000
00000000
00000000
,  // measure 26
01000000
00000000
00000000
00000000
,  // measure 27
00010000
00000000
00000000
00000000
,  // measure 28
00000000
00000000
00000000
00300000
,  // measure 29
02000000
00000000
00000000
00000000
,  // measure 30
00100000
00000000
00000000
00000000
,  // measure 31
10000000
00000000
00000000
00000000
,  // measure 32
00000000
00000000
00000000
03000000
,  // measure 33
00000200
00000000
00000000
00000000
,  // measure 34
00000010
00000000
00000000
00000000
,  // measure 35
00001000
00000000
00000000
00000000
,  // measure 36
00000000
00000000
00000000
00000300
,  // measure 37
00000020
00000000
00000000
00000000
,  // measure 38
00000100
00000000
00000000
00000000
,  // measure 39
00000001
00000000
00000000
00000000
,  // measure 40
00000000
00000000
00000000
00000030
,  // measure 41
00022000
00000000
00000000
00000000
,  // measure 42
00000000
00000000
00000000
00000000
,  // measure 43
00000000
00000000
00000000
00000000
,  // measure 44
00000000
00000000
00000000
00000000
,  // measure 45
00000000
00000000
00000000
00000000
,  // measure 46
00000000
00000000
00000000
00000000
,  // measure 47
00000000
00000000
00000000
00000000
,  // measure 48
00000000
00000000
00000000
00033000
,  // measure 49
00010000
00000000
00000000
00000000
,  // measure 50
00010000
00000000
00000000
00000000
,  // measure 51
00001000
00000000
00000000
00000000
,  // measure 52
00001000
00000000
00000000
00000000
,  // measure 53
00010000
00000000
00000000
00000000
,  // measure 54
00010000
00000000
00000000
00000000
,  // measure 55
00001000
00000000
00000000
00000000
,  // measure 56
00001000
00000000
00000000
00000000
,  // measure 57
00100000
00000000
00000000
00000000
,  // measure 58
10000000
00000000
00010000
00000000
,  // measure 59
10000000
00000000
00000000
00000000
,  // measure 60
00010000
00000000
00010000
00000000
,  // measure 61
01000000
00000000
00000000
00000000
,  // measure 62
00010000
00000000
10000000
00000000
,  // measure 63
00010000
00000000
00000000
00000000
,  // measure 64
00001000
00000000
00001000
00000000
,  // measure 65
00000100
00000000
00000000
00000000
,  // measure 66
00000001
00000000
00001000
00000000
,  // measure 67
00000001
00000000
00000000
00000000
,  // measure 68
00001000
00000000
00001000
00000000
,  // measure 69
00000010
00000000
00000000
00000000
,  // measure 70
00001000
00000000
00000001
00000000
,  // measure 71
00001000
00000000
00000000
00000000
,  // measure 72
00010000
00000000
00000000
00000000
,  // measure 73
00022000
00000000
00000000
00000000
,  // measure 74
00000000
00000000
00000000
00000000
,  // measure 75
00000000
00000000
00000000
00000000
,  // measure 76
00033000
00000000
00000000
00000000
;

//---------------dance-single - Deluxe----------------
#NOTES:
     dance-single:
     Deluxe:
     Edit:
     4:
     0.151399,0.240430,0.047453,0.063271,0.000000,134.000000,128.000000,6.000000,8.000000,0.000000,0.000000,0.151399,0.240430,0.047453,0.063271,0.000000,134.000000,128.000000,6.000000,8.000000,0.000000,0.000000:
0000
0000
0000
0000
,
0000
0000
0000
0000
,
0000
0000
0000
0000
,
0000
0000
0000
0000
,
0000
0000
0000
0000
,
0000
0000
0000
0000
,
0000
0000
0000
0000
,
0000
0000
0000
0000
,
0000
0000
0000
0000
,
0010
0000
0010
0010
,
1000
0000
0001
0000
,
1000
0000
1000
0000
,
0001
0000
0001
0001
,
0100
0000
0100
0100
,
0001
0000
1000
0000
,
0001
0000
0001
0000
,
1000
0000
1000
1000
,
0001
0000
0001
0001
,
0010
0000
0100
0000
,
0010
0000
0010
0000
,
0100
0000
0100
0100
,
1000
0000
1000
1000
,
0100
0000
0010
0000
,
0100
0000
0100
0000
,
0001
1000
0001
1000
,
0120
0000
0100
0000
,
0100
0000
0000
0000
,
0001
0000
0001
0000
,
0100
0000
0100
0030
,
0210
0000
0010
0000
,
0010
0000
0000
0000
,
1000
0000
1000
0000
,
0010
0000
0010
0300
,
1002
0000
1000
0000
,
1000
0000
0000
0000
,
0100
0000
0100
0000
,
1000
0000
1000
0003
,
2001
0000
0001
0000
,
0001
0000
0000
0000
,
0010
0000
0010
0000
,
0001
0000
0001
3000
,
2002
0000
0000
0000
,
0000
0000
0000
0000
,
0000
0000
0000
0000
,
0000
0000
0000
0000
,
0000
0000
0000
0000
,
0000
0000
0000
0000
,
0000
0000
0000
0000
,
0000
0000
0000
3003
,
1000
0000
1000
0000
,
1000
0000
0000
0000
,
0001
0000
0001
0000
,
0001
0000
0000
0000
,
1000
0000
1000
0000
,
1000
0000
1000
0000
,
0001
0000
0001
0000
,
0001
1000
0001
1000
,
0100
0000
0100
0100
,
0001
0000
1000
0000
,
0001
0000
0001
0000
,
1000
0000
1000
1000
,
0010
0000
0010
0010
,
1000
0000
0001
0000
,
1000
0000
1000
0000
,
0001
0000
0001
0001
,
1000
0000
1000
1000
,
0100
0000
0010
0000
,
0100
0000
0100
0000
,
0010
0000
0010
0010
,
0001
0000
0001
0001
,
0010
0000
0100
0000
,
0010
0000
0010
0000
,
1000
0001
1000
0001
,
2002
0000
0000
0000
,
0000
0000
0000
0000
,
0000
0000
0000
0000
,
3003
0000
0000
0000
;

//---------------dance-double - Deluxe----------------
#NOTES:
     dance-double:
     Deluxe:
     Edit:
     4:
     0.151399,0.240430,0.047453,0.063271,0.000000,134.000000,128.000000,6.000000,8.000000,0.000000,0.000000,0.151399,0.240430,0.047453,0.063271,0.000000,134.000000,128.000000,6.000000,8.000000,0.000000,0.000000:
// measure 0
00000000
00000000
00000000
00000000
,  // measure 1
00000000
00000000
00000000
00000000
,  // measure 2
00000000
00000000
00000000
00000000
,  // measure 3
00000000
00000000
00000000
00000000
,  // measure 4
00000000
00000000
00000000
00000000
,  // measure 5
00000000
00000000
00000000
00000000
,  // measure 6
00000000
00000000
00000000
00000000
,  // measure 7
00000000
00000000
00000000
00000000
,  // measure 8
00000000
00000000
00000000
00000000
,  // measure 9
00100000
00000000
00100000
00100000
,  // measure 10
10000000
00000000
00010000
00000000
,  // measure 11
10000000
00000000
10000000
00000000
,  // measure 12
00010000
00000000
00010000
00010000
,  // measure 13
01000000
00000000
01000000
01000000
,  // measure 14
00010000
00000000
10000000
00000000
,  // measure 15
00010000
00000000
00010000
00000000
,  // measure 16
00001000
00000000
00001000
00001000
,  // measure 17
00000100
00000000
00000100
00000100
,  // measure 18
00000001
00000000
00001000
00000000
,  // measure 19
00000001
00000000
00000001
00000000
,  // measure 20
00001000
00000000
00001000
00001000
,  // measure 21
00000010
00000000
00000010
00000010
,  // measure 22
00001000
00000000
00000001
00000000
,  // measure 23
00001000
00000000
00001000
00000000
,  // measure 24
00010000
00001000
00010000
00001000
,  // measure 25
00210000
00000000
00010000
00000000
,  // measure 26
01000000
00000000
00000000
00000000
,  // measure 27
00010000
00000000
00010000
00000000
,  // measure 28
01000000
00000000
01000000
00300000
,  // measure 29
02100000
00000000
00100000
00000000
,  // measure 30
00100000
00000000
00000000
00000000
,  // measure 31
10000000
00000000
10000000
00000000
,  // measure 32
00100000
00000000
00010000
03000000
,  // measure 33
00001200
00000000
00001000
00000000
,  // measure 34
00000010
00000000
00000000
00000000
,  // measure 35
00001000
00000000
00001000
00000000
,  // measure 36
00000010
00000000
00000010
00000300
,  // measure 37
00000120
00000000
00000100
00000000
,  // measure 38
00000100
00000000
00000000
00000000
,  // measure 39
00000001
00000000
00000001
00000000
,  // measure 40
00000100
00000000
00001000
00000030
,  // measure 41
00022000
00000000
00000000
00000000
,  // measure 42
00000000
00000000
00000000
00000000
,  // measure 43
00000000
00000000
00000000
00000000
,  // measure 44
00000000
00000000
00000000
00000000
,  // measure 45
00000000
00000000
00000000
00000000
,  // measure 46
00000000
00000000
00000000
00000000
,  // measure 47
00000000
00000000
00000000
00000000
,  // measure 48
00000000
00000000
00000000
00033000
,  // measure 49
00010000
00000000
00010000
00000000
,  // measure 50
00010000
00000000
00000000
00000000
,  // measure 51
00001000
00000000
00001000
00000000
,  // measure 52
00001000
00000000
00000000
00000000
,  // measure 53
00010000
00000000
00010000
00000000
,  // measure 54
00010000
00000000
00010000
00000000
,  // measure 55
00001000
00000000
00001000
00000000
,  // measure 56
00001000
00010000
00001000
00010000
,  // measure 57
00100000
00000000
00100000
00100000
,  // measure 58
10000000
00000000
00010000
00000000
,  // measure 59
10000000
00000000
10000000
00000000
,  // measure 60
00010000
00000000
00010000
00010000
,  // measure 61
01000000
00000000
01000000
01000000
,  // measure 62
00010000
00000000
10000000
00000000
,  // measure 63
00010000
00000000
00010000
00000000
,  // measure 64
00001000
00000000
00001000
00001000
,  // measure 65
00000100
00000000
00000100
00000100
,  // measure 66
00000001
00000000
00001000
00000000
,  // measure 67
00000001
00000000
00000001
00000000
,  // measure 68
00001000
00000000
00001000
00001000
,  // measure 69
00000010
00000000
00000010
00000010
,  // measure 70
00001000
00000000
00000001
00000000
,  // measure 71
00001000
00000000
00001000
00000000
,  // measure 72
00010000
00001000
00010000
00001000
,  // measure 73
00022000
00000000
00000000
00000000
,  // measure 74
00000000
00000000
00000000
00000000
,  // measure 75
00000000
00000000
00000000
00000000
,  // measure 76
00033000
00000000
00000000
00000000
;

//---------------dance-single - S.A.----------------
#NOTES:
     dance-single:
     S.A.:
     Edit:
     3:
     0.102816,0.150269,0.047453,0.063271,0.000000,91.000000,85.000000,6.000000,8.000000,24.000000,0.000000,0.102816,0.150269,0.047453,0.063271,0.000000,91.000000,85.000000,6.000000,8.000000,24.000000,0.000000:
0000
0000
0000
0000
,
0000
0000
0000
0000
,
0000
0000
0000
0000
,
0000
0000
0000
0000
,
0000
0000
0000
0000
,
0000
0000
0000
0000
,
0000
0000
0000
0000
,
0000
0000
0000
0000
,
0000
0000
0000
0000
,
0010
0000
0010
0000
,
1000
0000
0001
0000
,
1000
0000
1000
0000
,
0001
0000
0001
0000
,
0100
0000
0100
0000
,
0001
0000
1000
0000
,
0001
0000
0001
0000
,
1000
0000
1000
0000
,
0001
0000
0001
0000
,
0010
0000
0100
0000
,
0010
0000
0010
0000
,
0100
0000
0100
0000
,
1000
0000
1000
0000
,
0100
0000
0010
0000
,
0100
0000
0100
0000
,
MMMM
0000
MMMM
0000
,
0120
0000
0000
0000
,
0100
0000
0000
0000
,
0001
0000
0000
0000
,
0100
0000
0000
0030
,
0210
0000
0000
0000
,
0010
0000
0000
0000
,
1000
0000
0000
0000
,
0010
0000
0000
0300
,
1002
0000
0000
0000
,
1000
0000
0000
0000
,
0100
0000
0000
0000
,
1000
0000
0000
0003
,
2001
0000
0000
0000
,
0001
0000
0000
0000
,
0010
0000
0000
0000
,
0001
0000
0000
3000
,
2002
0000
0000
0000
,
0000
0000
0000
0000
,
0000
0000
0000
0000
,
0000
0000
0000
0000
,
0000
0000
0000
0000
,
0000
0000
0000
0000
,
0000
0000
0000
0000
,
0000
0000
0000
3003
,
1000
0000
0000
0000
,
1000
0000
0000
0000
,
0001
0000
0000
0000
,
0001
0000
0000
0000
,
1000
0000
0000
0000
,
1000
0000
0000
0000
,
0001
0000
0000
0000
,
MMMM
0000
MMMM
0000
,
0100
0000
0100
0000
,
0001
0000
1000
0000
,
0001
0000
0001
0000
,
1000
0000
1000
0000
,
0010
0000
0010
0000
,
1000
0000
0001
0000
,
1000
0000
1000
0000
,
0001
0000
0001
0000
,
1000
0000
1000
0000
,
0100
0000
0010
0000
,
0100
0000
0100
0000
,
0010
0000
0010
0000
,
0001
0000
0001
0000
,
0010
0000
0100
0000
,
0010
0000
0010
0000
,
MMMM
0000
MMMM
0000
,
2002
0000
0000
0000
,
0000
0000
0000
0000
,
0000
0000
0000
0000
,
3003
0000
0000
0000
;

//---------------dance-double - S.A.----------------
#NOTES:
     dance-double:
     S.A.:
     Edit:
     3:
     0.109595,0.180323,0.047453,0.063271,0.000000,97.000000,91.000000,6.000000,8.000000,24.000000,0.000000,0.109595,0.180323,0.047453,0.063271,0.000000,97.000000,91.000000,6.000000,8.000000,24.000000,0.000000:
// measure 0
00000000
00000000
00000000
00000000
,  // measure 1
00000000
00000000
00000000
00000000
,  // measure 2
00000000
00000000
00000000
00000000
,  // measure 3
00000000
00000000
00000000
00000000
,  // measure 4
00000000
00000000
00000000
00000000
,  // measure 5
00000000
00000000
00000000
00000000
,  // measure 6
00000000
00000000
00000000
00000000
,  // measure 7
00000000
00000000
00000000
00000000
,  // measure 8
00000000
00000000
00000000
00000000
,  // measure 9
00100000
00000000
00100000
00000000
,  // measure 10
10000000
00000000
00010000
00000000
,  // measure 11
10000000
00000000
10000000
00000000
,  // measure 12
00010000
00000000
00010000
00000000
,  // measure 13
01000000
00000000
01000000
00000000
,  // measure 14
00010000
00000000
10000000
00000000
,  // measure 15
00010000
00000000
00010000
00000000
,  // measure 16
00001000
00000000
00001000
00000000
,  // measure 17
00000100
00000000
00000100
00000000
,  // measure 18
00000001
00000000
00001000
00000000
,  // measure 19
00000001
00000000
00000001
00000000
,  // measure 20
00001000
00000000
00001000
00000000
,  // measure 21
00000010
00000000
00000010
00000000
,  // measure 22
00001000
00000000
00000001
00000000
,  // measure 23
00001000
00000000
00001000
00000000
,  // measure 24
MMMM1000
00000000
0001MMMM
00000000
,  // measure 25
00210000
00000000
00000000
00000000
,  // measure 26
01000000
00000000
00000000
00000000
,  // measure 27
00010000
00000000
00000000
00000000
,  // measure 28
01000000
00000000
00000000
00300000
,  // measure 29
02100000
00000000
00000000
00000000
,  // measure 30
00100000
00000000
00000000
00000000
,  // measure 31
10000000
00000000
00000000
00000000
,  // measure 32
00100000
00000000
00000000
03000000
,  // measure 33
00001200
00000000
00000000
00000000
,  // measure 34
00000010
00000000
00000000
00000000
,  // measure 35
00001000
00000000
00000000
00000000
,  // measure 36
00000010
00000000
00000000
00000300
,  // measure 37
00000120
00000000
00000000
00000000
,  // measure 38
00000100
00000000
00000000
00000000
,  // measure 39
00000001
00000000
00000000
00000000
,  // measure 40
00000100
00000000
00000000
00000030
,  // measure 41
00022000
00000000
00000000
00000000
,  // measure 42
00000000
00000000
00000000
00000000
,  // measure 43
00000000
00000000
00000000
00000000
,  // measure 44
00000000
00000000
00000000
00000000
,  // measure 45
00000000
00000000
00000000
00000000
,  // measure 46
00000000
00000000
00000000
00000000
,  // measure 47
00000000
00000000
00000000
00000000
,  // measure 48
00000000
00000000
00000000
00033000
,  // measure 49
00010000
00000000
00000000
00000000
,  // measure 50
00010000
00000000
00000000
00000000
,  // measure 51
00001000
00000000
00000000
00000000
,  // measure 52
00001000
00000000
00000000
00000000
,  // measure 53
00010000
00000000
00000000
00000000
,  // measure 54
00010000
00000000
00000000
00000000
,  // measure 55
00001000
00000000
00000000
00000000
,  // measure 56
MMMM1000
00000000
0001MMMM
00000000
,  // measure 57
00100000
00000000
00100000
00000000
,  // measure 58
10000000
00000000
00010000
00000000
,  // measure 59
10000000
00000000
10000000
00000000
,  // measure 60
00010000
00000000
00010000
00000000
,  // measure 61
01000000
00000000
01000000
00000000
,  // measure 62
00010000
00000000
10000000
00000000
,  // measure 63
00010000
00000000
00010000
00000000
,  // measure 64
00001000
00000000
00001000
00000000
,  // measure 65
00000100
00000000
00000100
00000000
,  // measure 66
00000001
00000000
00001000
00000000
,  // measure 67
00000001
00000000
00000001
00000000
,  // measure 68
00001000
00000000
00001000
00000000
,  // measure 69
00000010
00000000
00000010
00000000
,  // measure 70
00001000
00000000
00000001
00000000
,  // measure 71
00001000
00000000
00001000
00000000
,  // measure 72
0001MMMM
00000000
MMMM1000
00000000
,  // measure 73
00022000
00000000
00000000
00000000
,  // measure 74
00000000
00000000
00000000
00000000
,  // measure 75
00000000
00000000
00000000
00000000
,  // measure 76
00033000
00000000
00000000
00000000
;
