#TITLE:Aegis;
#SUBTITLE:;
#ARTIST:IT medalion;
#TITLETRANSLIT:;
#SUBTITLETRANSLIT:;
#ARTISTTRANSLIT:TATSUYA;
#GENRE:TECHNO;
#CREDIT:;
#BANNER:;
#BACKGROUND:;
#LYRICSPATH:;
#CDTITLE:;
#MUSIC:Aegis.ogg;
#OFFSET:-1.667000;
#SAMPLESTART:55.370701;
#SAMPLELENGTH:15.000000;
#SELECTABLE:YES;
#BPMS:0.000000=162.000000
;
#STOPS:111.000000=0.370000,
207.000000=0.741000
;
#BGCHANGES:;
#KEYSOUNDS:;
#ATTACKS:;

//---------------dance-single - ----------------
#NOTES:
     dance-single:
     :
     Easy:
     9:
     0.306890,0.472240,0.074077,0.314826,0.111115,232.000000,224.000000,8.000000,34.000000,0.000000,0.000000,0.306890,0.472240,0.074077,0.314826,0.111115,232.000000,224.000000,8.000000,34.000000,0.000000,0.000000:
0000
0000
0000
0000
,
0000
0000
0000
0000
,
0000
0000
0000
0000
,
0000
0000
0000
0000
,
1000
0001
0001
1000
,
0001
0010
0001
0010
,
0001
1000
1000
0001
,
0010
0000
0000
0000
0010
0000
0000
0000
1001
0000
0000
0010
0000
0000
0000
0000
,
0001
1000
1000
0001
,
1000
0100
1000
0100
,
1000
0001
0001
1000
,
0100
0000
0100
0000
1001
0000
0100
0100
,
0001
0000
0001
0000
1000
0001
1000
0000
,
1000
0000
1000
0000
0001
1000
0001
0000
,
0010
0000
0010
0000
0100
0010
0100
0000
,
0100
0000
0100
0000
0210
0000
0000
0310
,
1000
0000
1000
0000
0001
1000
0001
0000
,
0001
0000
0001
0000
1000
0001
1000
0000
,
0100
0000
0100
0000
0010
0100
0010
0000
,
0010
0000
0010
0000
0100
0010
0100
0010
,
0002
0000
1000
0003
,
2000
0000
0001
3000
,
0002
0000
1000
0003
,
2000
0000
0001
3000
,
0200
0000
0010
0300
,
0020
0000
0100
0030
,
0200
0000
0010
0300
,
0020
0000
0000
0000
0100
0000
0000
0030
,
1000
0000
1010
0000
,
0001
0000
0000
0000
0002
0000
0000
0003
,
0001
0000
0101
0000
,
1000
0000
0000
0000
2000
0000
0000
3000
,
0100
0000
1100
0000
,
0010
0000
0000
0000
0020
0000
0000
0030
,
0010
0000
0011
0000
,
0100
0000
0000
0000
0100
0010
0100
0010
,
1000
0000
0000
1000
0000
0000
1000
0000
0000
0000
0010
0000
0000
0000
1000
0000
,
0001
0000
0000
0001
0000
0000
1000
0000
0100
0000
0000
0200
0000
0000
0300
0000
,
0001
0000
0000
0001
0000
0000
0001
0000
0000
0000
0100
0000
0000
0000
0001
0000
,
1000
0000
0000
1000
0000
0000
0001
0000
0010
0000
0000
0020
0000
0000
0030
0000
,
0100
0000
0000
0100
0000
0000
0100
0000
0000
0000
1000
0000
0000
0000
0100
0000
,
0010
0000
0000
0010
0000
0000
0100
0000
0001
0000
0000
0002
0000
0000
0003
0000
,
0001
0000
0000
0001
0000
0000
0001
0000
1000
0000
0000
1000
0000
0000
1000
0000
,
0100
0000
0000
0010
0000
0000
0100
0000
0010
0000
0100
0000
0010
0000
0100
0000
,
2000
0000
0000
0000
,
3002
0000
0000
0000
,
0203
0000
0000
0000
,
0320
0000
0000
0000
,
2030
0000
0000
0000
,
3002
0000
0000
0000
,
0203
0000
0000
0000
,
0320
0000
0030
0000
0010
0100
0020
0030
,
1000
0020
0000
0030
,
0001
0000
0000
2000
0000
0000
0000
3000
,
0001
0200
0000
0300
,
1000
0000
0000
0002
0000
0000
0000
0003
,
0100
2000
0000
3000
,
0010
0000
0000
0200
0000
0000
0000
0300
,
0010
0002
0000
0003
,
0100
0000
0000
0000
0010
0100
0010
0000
,
1000
0000
0000
1000
0000
0000
1000
0000
0000
0000
0010
0000
0000
0000
1000
0000
,
0001
0000
0000
0001
0000
0000
1000
0000
0100
0000
0000
0200
0000
0000
0300
0000
,
0001
0000
0000
0001
0000
0000
0001
0000
0000
0000
0100
0000
0000
0000
0001
0000
,
1000
0000
0000
1000
0000
0000
0001
0000
0010
0000
0020
0000
0000
0000
0030
0000
,
0100
0000
0000
0100
0000
0000
0100
0000
0000
0000
1000
0000
0000
0000
0100
0000
,
0010
0000
0000
0010
0000
0000
0100
0000
0001
0000
0000
0002
0000
0000
0003
0000
,
0001
0000
0000
0001
0000
0000
0001
0000
1000
0000
0000
1000
0000
0000
1000
0000
,
0100
0000
0000
0010
0000
0000
0100
0000
0010
0000
0100
0000
0010
0000
0100
0000
,
1001
0000
0000
0000
;

//---------------dance-single - ----------------
#NOTES:
     dance-single:
     :
     Beginner:
     7:
     0.252655,0.346309,0.027779,0.314826,0.027779,191.000000,188.000000,3.000000,34.000000,0.000000,0.000000,0.252655,0.346309,0.027779,0.314826,0.027779,191.000000,188.000000,3.000000,34.000000,0.000000,0.000000:
0000
0000
0000
0000
,
0000
0000
0000
0000
,
0000
0000
0000
0000
,
0000
0000
0000
0000
,
1000
0001
0000
1000
,
0001
0010
0001
0010
,
0001
1000
0000
0001
,
0010
0000
0000
0000
0010
0000
0000
0000
0100
0000
0000
0010
0000
0000
0000
0000
,
0001
1000
0000
0001
,
1000
0100
1000
0100
,
1000
0001
0001
1000
,
0100
0100
1001
0100
,
0001
0001
1000
1000
,
1000
1000
0001
0001
,
0010
0010
0100
0100
,
0100
0000
0100
0000
0210
0000
0000
0300
,
1000
1000
0001
0001
,
0001
0001
1000
1000
,
0100
0100
0010
0010
,
0010
0000
0010
0000
0100
0000
0100
0010
,
0002
0000
1000
0003
,
2000
0000
0001
3000
,
0002
0000
1000
0003
,
2000
0000
0001
3000
,
0200
0000
0010
0300
,
0020
0000
0100
0030
,
0200
0000
0010
0300
,
0020
0000
0000
0000
0100
0000
0000
0030
,
1000
0000
1000
0000
,
0001
0000
0000
0000
0002
0000
0000
0003
,
0001
0000
0001
0000
,
1000
0000
0000
0000
2000
0000
0000
3000
,
0100
0000
0100
0000
,
0010
0000
0000
0000
0020
0000
0000
0030
,
0010
0000
0010
0000
,
0100
0000
0000
0000
0100
0000
0100
0010
,
1000
0000
0000
1000
0000
0010
0000
1000
,
0001
0000
0000
0000
0000
0000
1000
0000
0100
0000
0000
0200
0000
0000
0300
0000
,
0001
0000
0000
0001
0000
0100
0000
0001
,
1000
0000
0000
0000
0000
0000
0001
0000
0010
0000
0000
0020
0000
0000
0030
0000
,
0100
0000
0000
0100
0000
1000
0000
0100
,
0010
0000
0000
0000
0000
0000
0100
0000
0001
0000
0000
0002
0000
0000
0003
0000
,
0001
0000
0000
0001
1000
0000
0000
1000
,
0100
0000
0010
0000
0010
0000
0010
0100
,
2000
0000
0000
0000
,
3002
0000
0000
0000
,
0203
0000
0000
0000
,
0320
0000
0000
0000
,
2030
0000
0000
0000
,
3002
0000
0000
0000
,
0203
0000
0000
0000
,
0320
0000
0030
0000
0020
0000
0000
0030
,
1000
0020
0000
0030
,
0001
0000
0000
2000
0000
0000
0000
3000
,
0001
0200
0000
0300
,
1000
0000
0000
0002
0000
0000
0000
0003
,
0100
2000
0000
3000
,
0010
0000
0000
0200
0000
0000
0000
0300
,
0010
0002
0000
0003
,
0100
0000
0000
0000
0010
0100
0000
0000
,
1000
0000
0000
1000
0000
0010
0000
1000
,
0001
0000
0000
0000
0000
0000
1000
0000
0100
0000
0000
0200
0000
0000
0300
0000
,
0001
0000
0000
0001
0000
0100
0000
0001
,
1000
0000
0000
0001
0010
0020
0000
0030
,
0100
0000
0000
0100
0000
1000
0000
0100
,
0010
0000
0000
0000
0000
0000
0100
0000
0001
0000
0000
0002
0000
0000
0003
0000
,
0001
0000
0000
0001
1000
0000
0000
1000
,
0100
0000
0010
0000
0010
0000
0010
0100
,
1001
0000
0000
0000
;

//---------------dance-single - ----------------
#NOTES:
     dance-single:
     :
     Medium:
     10:
     0.359802,0.472240,0.074077,0.388903,0.115745,272.000000,264.000000,8.000000,42.000000,0.000000,0.000000,0.359802,0.472240,0.074077,0.388903,0.115745,272.000000,264.000000,8.000000,42.000000,0.000000,0.000000:
0000
0000
0000
0000
,
0000
0000
0000
0000
,
0000
0000
0000
0000
,
0000
0000
0000
0000
,
1000
0010
0001
0000
0001
0000
1000
0000
,
0001
0010
0001
0010
,
0001
0100
1000
0000
1000
0000
0001
0000
,
0010
0000
0100
0000
0010
0000
0000
0000
1001
0000
0000
0010
0000
0000
0000
0000
,
0001
0100
1000
0000
1000
0000
0001
0000
,
1000
0100
1000
0100
,
1000
0010
0001
0000
0001
0100
1000
0000
,
0100
0010
0100
0000
1001
0000
0100
0100
,
0001
0000
0001
0000
1000
0001
1000
0001
,
1000
0000
1000
0000
0001
1000
0001
1000
,
0010
0000
0010
0000
0100
0010
0100
0010
,
0100
0000
0000
0000
0100
0000
0000
0000
0210
0000
0000
0010
0000
0000
0310
0000
,
1000
0000
1000
0000
0001
1000
0001
1000
,
0001
0000
0001
0000
1000
0001
1000
0001
,
0100
0000
0100
0000
0010
0100
0010
0100
,
0010
0000
0010
0000
0100
0010
0100
0010
,
0002
0000
1000
1003
,
2000
0000
0001
3001
,
0002
0000
1000
1003
,
2000
0000
0001
3001
,
0200
0000
0010
0310
,
0020
0000
0100
0130
,
0200
0000
0010
0310
,
0020
0000
0000
0000
0100
0100
0100
0030
,
1000
0000
0000
0000
1020
0000
0000
0030
,
0001
0000
0000
0000
0002
0000
0000
0003
,
0001
0000
0000
0000
0201
0000
0000
0300
,
1000
0000
0000
0000
2000
0000
0000
3000
,
0100
0000
0000
0000
1200
0000
0000
0300
,
0010
0000
0000
0000
0020
0000
0000
0030
,
0010
0000
0000
0000
0021
0000
0000
0030
,
0100
0000
0000
0000
0100
0010
0100
0010
,
1000
0000
0000
1000
0000
0000
1000
0000
0000
0000
0010
0000
0100
0000
1000
0000
,
0001
0000
0000
0001
0000
0000
1000
0000
0100
0000
0000
0200
0000
0000
0300
0000
,
0001
0000
0000
0001
0000
0000
0001
0000
0000
0000
0100
0000
0010
0000
0001
0000
,
1000
0000
0000
1000
0000
0000
0001
0000
0010
0000
0000
0020
0000
0000
0030
0000
,
0100
0000
0000
0100
0000
0000
0100
0000
0000
0000
1000
0000
0001
0000
0100
0000
,
0010
0000
0000
0010
0000
0000
0100
0000
0001
0000
0000
0002
0000
0000
0003
0000
,
0001
0000
0000
0001
0000
0000
0001
0000
1000
0000
0000
1000
0000
0000
1000
0000
,
0100
0000
0000
0010
0000
0000
0100
0000
0010
0000
0100
0000
0010
0000
0100
0000
,
2000
0000
0001
0000
,
3002
0000
1000
0000
,
0203
0000
0010
0000
,
0320
0000
0100
0000
,
2030
0000
0001
0000
,
3002
0000
1000
0000
,
0203
0000
0010
0000
,
0320
0000
0030
0100
0010
0100
0020
0030
,
2000
3020
0000
0030
,
0001
0000
0000
2000
0000
0000
0001
3000
,
0002
0203
0000
0300
,
1000
0000
0000
0002
0000
0000
1000
0003
,
0200
2300
0000
3000
,
0010
0000
0000
0200
0000
0000
0010
0300
,
0020
0032
0000
0003
,
0100
0000
0000
0000
0010
0100
0010
0000
,
1000
0000
0000
1000
0000
0000
1000
0000
0000
0000
0010
0000
0100
0000
1000
0000
,
0001
0000
0000
0001
0000
0000
1000
0000
0100
0000
0000
0200
0000
0000
0300
0000
,
0001
0000
0000
0001
0000
0000
0001
0000
0000
0000
0100
0000
0010
0000
0001
0000
,
1000
0000
0000
1000
0000
0000
0001
0000
0010
0000
0020
0000
0000
0000
0030
0000
,
0100
0000
0000
0100
0000
0000
0100
0000
0000
0000
1000
0000
0001
0000
0100
0000
,
0010
0000
0000
0010
0000
0000
0100
0000
0001
0000
0000
0002
0000
0000
0003
0000
,
0001
0000
0000
0001
0000
0000
0001
0000
1000
0000
0000
1000
0000
0000
1000
0000
,
0100
0000
0000
0010
0000
0000
0100
0000
0010
0000
0100
0000
0010
0000
0100
0000
,
1001
0000
0000
0000
;

//---------------dance-single - ----------------
#NOTES:
     dance-single:
     :
     Hard:
     11:
     0.410068,0.566688,0.185192,0.490759,0.171303,310.000000,290.000000,20.000000,53.000000,0.000000,0.000000,0.410068,0.566688,0.185192,0.490759,0.171303,310.000000,290.000000,20.000000,53.000000,0.000000,0.000000:
0000
0000
0000
0000
,
0000
0000
0000
0000
,
0000
0000
0000
0000
,
0000
0000
0000
0000
,
1000
0010
0001
0000
0001
0100
1000
0000
,
0001
0000
0000
0010
0000
0000
0001
0000
0010
0000
0000
0001
0000
0000
0000
0000
,
0001
0100
1000
0000
1000
0010
0001
0000
,
0010
0000
0100
0000
0010
0000
0000
0000
1001
0000
0000
0010
0000
0000
0000
0000
,
0001
0100
1000
0000
1000
0010
0001
0000
,
1000
0000
0000
0100
0000
0000
1000
0000
0100
0000
0000
1000
0000
0000
0000
0000
,
1000
0010
0001
0000
0001
0100
1000
0000
,
0100
0010
0100
0000
1001
0100
0100
0100
,
0001
1000
0001
0000
1000
0001
1000
0001
,
1000
0001
1000
0000
0001
1000
0001
1000
,
0010
0100
0010
0000
0100
0010
0100
0010
,
0100
0000
0010
0000
0100
0000
0000
0000
0210
0000
0000
0010
0000
0000
0310
0000
,
1000
0001
1000
0000
0001
1000
0001
1000
,
0001
1000
0001
0000
1000
0001
1000
0001
,
0100
0010
0100
0000
0010
0100
0010
0100
,
0010
0100
0010
0000
0100
0010
0100
0010
,
0002
0000
1000
1003
,
2000
0000
0001
3001
,
0002
0000
1000
1003
,
2000
0000
0001
3001
,
0200
0000
0010
0310
,
0020
0000
0100
0130
,
0200
0000
0010
0310
,
0020
0000
0000
0000
0100
0100
0100
0030
,
1000
0000
0000
1000
0000
0000
0000
0000
1020
0000
0000
0000
0000
0000
0030
0000
,
0001
0000
0000
0001
0000
0000
0000
0000
0002
0000
0000
0000
0000
0000
0003
0000
,
0001
0000
0000
0001
0000
0000
0000
0000
0201
0000
0000
0000
0000
0000
0300
0000
,
1000
0000
0000
1000
0000
0000
0000
0000
2000
0000
0000
0000
0000
0000
3000
0000
,
0100
0000
0000
0100
0000
0000
0000
0000
1200
0000
0000
0000
0000
0000
0300
0000
,
0010
0000
0000
0010
0000
0000
0000
0000
0020
0000
0000
0000
0000
0000
0030
0000
,
0010
0000
0000
0010
0000
0000
0000
0000
0021
0000
0000
0000
0000
0000
0030
0000
,
0100
0000
0000
0100
0000
0000
0000
0000
0100
0000
0010
0000
0100
0000
0010
0000
,
1100
0000
0000
1000
0000
0000
1000
0000
0000
0000
0010
0000
0100
0000
1000
0000
,
0001
0000
0000
0001
0000
0000
1000
0000
0100
0000
0000
0200
0000
0000
0300
0000
,
0011
0000
0000
0001
0000
0000
0001
0000
0000
0000
0100
0000
0010
0000
0001
0000
,
1000
0000
0000
1000
0000
0000
0001
0000
0010
0000
0000
0020
0000
0000
0030
0000
,
0101
0000
0000
0100
0000
0000
0100
0000
0000
0000
1000
0000
0001
0000
0100
0000
,
0010
0000
0000
0010
0000
0000
0100
0000
0001
0000
0000
0002
0000
0000
0003
0000
,
1001
0000
0000
0001
0000
0000
0001
0000
1001
0000
0000
1000
0000
0000
1000
0000
,
0110
0000
0000
0010
0000
0000
0100
0000
0010
0000
0100
0000
0010
0000
0100
0000
,
2000
0000
0002
0003
,
3002
0000
2000
3000
,
0203
0000
0020
0030
,
0320
0000
0200
0300
,
2030
0000
0002
0003
,
3002
0000
2000
3000
,
0203
0000
0020
0030
,
0320
0000
0030
0100
0010
0100
0020
0030
,
2000
0100
3020
0000
0000
0000
0030
0000
,
0002
0000
0000
2003
0000
0000
0001
3000
,
0002
0010
0203
0000
0000
0000
0300
0000
,
2000
0000
0000
3002
0000
0000
1000
0003
,
0200
0001
2300
0000
0000
0000
3000
0000
,
0020
0000
0000
0230
0000
0000
0010
0300
,
0020
1000
0032
0000
0000
0000
0003
0000
,
0200
0000
0000
0300
0010
0100
0010
0000
,
1100
0000
0000
1000
0000
0000
1000
0000
0000
0000
0010
0000
0100
0000
1000
0000
,
0001
0000
0000
0001
0000
0000
1000
0000
0100
0000
0000
0200
0000
0000
0300
0000
,
0011
0000
0000
0001
0000
0000
0001
0000
0000
0000
0100
0000
0010
0000
0001
0000
,
1000
0000
0000
1000
0000
0000
0001
0000
0010
0000
0020
0000
0000
0000
0030
0000
,
0101
0000
0000
0100
0000
0000
0100
0000
0000
0000
1000
0000
0001
0000
0100
0000
,
0010
0000
0000
0010
0000
0000
0100
0000
0001
0000
0000
0002
0000
0000
0003
0000
,
1001
0000
0000
0001
0000
0000
0001
0000
1001
0000
0000
1000
0000
0000
1000
0000
,
0110
0000
0000
0010
0000
0000
0100
0000
0010
0000
0100
0000
0010
0000
0100
0000
,
1001
0000
0000
0000
;

//---------------dance-single - ----------------
#NOTES:
     dance-single:
     :
     Challenge:
     12:
     0.470917,0.598170,0.185192,0.500019,0.203711,356.000000,336.000000,20.000000,54.000000,0.000000,0.000000,0.470917,0.598170,0.185192,0.500019,0.203711,356.000000,336.000000,20.000000,54.000000,0.000000,0.000000:
0000
0000
0000
0000
,
0000
0000
0000
0000
,
0000
0000
0000
0000
,
0000
0000
0000
0000
,
1000
0010
0001
0000
0001
0100
1000
0100
,
0001
0000
0000
0010
0000
0000
0001
0000
0010
0000
0000
0001
0000
0000
0000
0000
,
0001
0100
1000
0000
1000
0010
0001
1000
,
0010
0000
0100
0000
0010
0000
0000
0000
1001
0000
0000
0010
0000
0000
0000
0000
,
0001
0100
1000
0000
1000
0010
0001
0010
,
1000
0000
0000
0100
0000
0000
1000
0000
0100
0000
0000
1000
0000
0000
0000
0000
,
1000
0010
0001
0000
0001
0100
1000
0001
,
0100
0000
0010
0000
0100
0000
0010
0000
1001
0000
0100
0000
0100
0010
0100
0000
,
0001
1000
0001
0010
1000
0001
1000
0001
,
1000
0001
1000
0100
0001
1000
0001
1000
,
0010
0100
0010
1000
0100
0010
0100
0010
,
0100
0000
0010
0000
0100
0000
0001
0000
0210
0000
0000
0010
0000
0000
0310
0000
,
1000
0001
1000
0010
0001
1000
0001
1000
,
0001
1000
0001
0100
1000
0001
1000
0001
,
0100
0010
0100
1000
0010
0100
0010
0100
,
0010
0100
0010
0001
0100
0010
0100
0010
,
0002
1000
1000
1003
,
2000
0001
0001
3001
,
0002
1000
1000
1003
,
2000
0001
0001
3001
,
0200
0010
0010
0310
,
0020
0100
0100
0130
,
0200
0010
0010
0310
,
0020
0000
0100
0000
0100
0100
0100
0030
,
1000
0000
0000
1000
0000
0000
1000
0000
1020
0000
0000
0000
1000
0000
0030
0000
,
0001
0000
0000
0001
0000
0000
0000
0000
0002
0000
0000
0000
1000
0000
0003
0000
,
0001
0000
0000
0001
0000
0000
0001
0000
0201
0000
0000
0000
0001
0000
0300
0000
,
1000
0000
0000
1000
0000
0000
1000
0000
2000
0000
0000
0000
0001
0000
3000
0000
,
0100
0000
0000
0100
0000
0000
0100
0000
1200
0000
0000
0000
1000
0000
0300
0000
,
0010
0000
0000
0010
0000
0000
0010
0000
0020
0000
0000
0000
1000
0000
0030
0000
,
0010
0000
0000
0010
0000
0000
0010
0000
0021
0000
0000
0000
0001
0000
0030
0000
,
0100
0000
0000
0100
0000
0000
0100
0000
0100
0000
0010
0000
0100
0000
0010
0000
,
1100
0000
0000
1000
0000
0000
1000
0000
0000
0000
0010
0000
0100
0000
1000
0000
,
0001
0000
0000
0001
0000
0000
1000
0000
0100
0000
0000
0200
0000
0000
0300
0000
,
0011
0000
0000
0001
0000
0000
0001
0000
0000
0000
0100
0000
0010
0000
0001
0000
,
1000
0000
0000
1000
0000
0000
0001
0000
0010
0000
0000
0020
0000
0000
0030
0000
,
0101
0000
0000
0100
0000
0000
0100
0000
0000
0000
1000
0000
0001
0000
0100
0000
,
0010
0000
0000
0010
0000
0000
0100
0000
0001
0000
0000
0002
0000
0000
0003
0000
,
1001
0000
0000
0001
0000
0000
0001
0000
1001
0000
0000
1000
0000
0000
1000
0000
,
0110
0000
0000
0010
0000
0000
0100
0000
0010
0000
0100
0000
0010
0100
0010
0000
,
2000
0000
0002
0003
,
3002
0000
2000
3000
,
0203
0000
0020
0030
,
0320
0000
0200
0300
,
2030
0001
0002
0003
,
3002
1000
2000
3000
,
0203
0001
0020
0030
,
0320
0000
1030
0100
0010
0100
0020
0030
,
2000
0000
0100
0000
3020
0000
0000
0001
0000
0000
0000
0000
0030
0000
0000
0000
,
0002
0000
0000
2003
0000
0000
0001
3000
,
0002
0000
0010
0000
0203
0000
0000
1000
0000
0000
0000
0000
0300
0000
0000
0000
,
2000
0000
0000
3002
0000
0000
1000
0003
,
0200
0000
0001
0000
2300
0000
0000
0010
0000
0000
0000
0000
3000
0000
0000
0000
,
0020
0000
0000
0230
0000
0000
0010
0300
,
0020
0000
1000
0000
0032
0000
0000
0100
0000
0000
0000
0000
0003
0000
0000
0000
,
0200
0000
0000
0300
0010
0100
0020
0030
,
1100
0000
0000
1000
0000
0000
1000
0000
0000
0000
0010
0000
0100
0000
1000
0000
,
0001
0000
0000
0001
0000
0000
1000
0000
0100
0000
0000
0200
0000
0000
0300
0000
,
0011
0000
0000
0001
0000
0000
0001
0000
0000
0000
0100
0000
0010
0000
0001
0000
,
1000
0000
0000
1000
0000
0000
0001
0000
0010
0000
0020
0000
0000
0000
0030
0000
,
0101
0000
0000
0100
0000
0000
0100
0000
0000
0000
1000
0000
0001
0000
0100
0000
,
0010
0000
0000
0010
0000
0000
0100
0000
0001
0000
0000
0002
0000
0000
0003
0000
,
1001
0000
0000
0001
0000
0000
0001
0000
1001
0000
0000
1000
0000
0000
1000
0000
,
0110
0000
0000
0010
0000
0000
0100
0000
0010
0000
0100
0000
0010
0100
0010
0000
,
1001
0000
0000
0000
;

//---------------dance-single - S.A.----------------
#NOTES:
     dance-single:
     :
     Edit:
     10:
     0.243395,0.346309,0.027779,0.314826,0.111115,184.000000,181.000000,3.000000,34.000000,172.000000,0.000000,0.243395,0.346309,0.027779,0.314826,0.111115,184.000000,181.000000,3.000000,34.000000,172.000000,0.000000:
// measure 0
0000
0000
0000
0000
,  // measure 1
0000
0000
0000
0000
,  // measure 2
0000
0000
0000
0000
,  // measure 3
0000
0000
0000
0000
,  // measure 4
1000
0001
0001
MMMM
,  // measure 5
0001
0010
0001
0010
,  // measure 6
0001
1000
1000
MMMM
,  // measure 7
0010
0000
0000
0000
0010
0000
0000
0000
1001
0000
0000
0010
0000
0000
0000
0000
,  // measure 8
0001
1000
1000
MMMM
,  // measure 9
1000
0100
1000
0100
,  // measure 10
1000
0001
0001
MMMM
,  // measure 11
0100
0000
0100
0000
1001
0000
0100
0100
,  // measure 12
0001
0000
MMMM
0000
1000
0001
1000
0000
,  // measure 13
1000
0000
MMMM
0000
0001
1000
0001
0000
,  // measure 14
0010
0000
MMMM
0000
0100
0010
0100
0000
,  // measure 15
0100
0000
MMMM
0000
0210
0000
0000
0310
,  // measure 16
1000
0000
MMMM
0000
0001
1000
0001
0000
,  // measure 17
0001
0000
MMMM
0000
1000
0001
1000
0000
,  // measure 18
0100
0000
MMMM
0000
0010
0100
0010
0000
,  // measure 19
0010
0000
MMMM
0000
0100
0010
0100
0010
,  // measure 20
0002
0000
1000
0003
,  // measure 21
2000
0000
0001
3000
,  // measure 22
0002
0000
1000
0003
,  // measure 23
2000
0000
0001
3000
,  // measure 24
0200
0000
0010
0300
,  // measure 25
0020
0000
0100
0030
,  // measure 26
0200
0000
0010
0300
,  // measure 27
0020
0000
0000
0000
0100
0000
0000
0030
,  // measure 28
1000
0000
MMMM
0000
,  // measure 29
0001
0000
0000
0000
0002
0000
0000
0003
,  // measure 30
0001
0000
MMMM
0000
,  // measure 31
1000
0000
0000
0000
2000
0000
0000
3000
,  // measure 32
0100
0000
MMMM
0000
,  // measure 33
0010
0000
0000
0000
0020
0000
0000
0030
,  // measure 34
0010
0000
MMMM
0000
,  // measure 35
0100
0000
0000
0000
0100
0010
0100
0010
,  // measure 36
1000
0000
0000
MMMM
0000
0000
1000
0000
0000
0000
0010
0000
0000
0000
1000
0000
,  // measure 37
0001
0000
0000
MMMM
0000
0000
1000
0000
0100
0000
0000
0200
0000
0000
0300
0000
,  // measure 38
0001
0000
0000
MMMM
0000
0000
0001
0000
0000
0000
0100
0000
0000
0000
0001
0000
,  // measure 39
1000
0000
0000
MMMM
0000
0000
0001
0000
0010
0000
0000
0020
0000
0000
0030
0000
,  // measure 40
0100
0000
0000
MMMM
0000
0000
0100
0000
0000
0000
1000
0000
0000
0000
0100
0000
,  // measure 41
0010
0000
0000
MMMM
0000
0000
0100
0000
0001
0000
0000
0002
0000
0000
0003
0000
,  // measure 42
0001
0000
0000
MMMM
0000
0000
0001
0000
1000
0000
0000
MMMM
0000
0000
1000
0000
,  // measure 43
0100
0000
0000
MMMM
0000
0000
0100
0000
0010
0000
0100
0000
0010
0000
0100
0000
,  // measure 44
2000
0000
0000
0000
,  // measure 45
3002
0000
0000
0000
,  // measure 46
0203
0000
0000
0000
,  // measure 47
0320
0000
0000
0000
,  // measure 48
2030
0000
0000
0000
,  // measure 49
3002
0000
0000
0000
,  // measure 50
0203
0000
0000
0000
,  // measure 51
0320
0000
0030
0000
0010
0100
0020
0030
,  // measure 52
MMMM
0020
0000
0030
,  // measure 53
MMMM
0000
0000
2000
0000
0000
0000
3000
,  // measure 54
MMMM
0200
0000
0300
,  // measure 55
MMMM
0000
0000
0002
0000
0000
0000
0003
,  // measure 56
MMMM
2000
0000
3000
,  // measure 57
MMMM
0000
0000
0200
0000
0000
0000
0300
,  // measure 58
MMMM
0002
0000
0003
,  // measure 59
MMMM
0000
0000
0000
0010
0100
0010
0000
,  // measure 60
1000
0000
0000
MMMM
0000
0000
1000
0000
0000
0000
0010
0000
0000
0000
1000
0000
,  // measure 61
0001
0000
0000
MMMM
0000
0000
1000
0000
0100
0000
0000
0200
0000
0000
0300
0000
,  // measure 62
0001
0000
0000
MMMM
0000
0000
0001
0000
0000
0000
0100
0000
0000
0000
0001
0000
,  // measure 63
1000
0000
0000
MMMM
0000
0000
0001
0000
0010
0000
0020
0000
0000
0000
0030
0000
,  // measure 64
0100
0000
0000
MMMM
0000
0000
0100
0000
0000
0000
1000
0000
0000
0000
0100
0000
,  // measure 65
0010
0000
0000
MMMM
0000
0000
0100
0000
0001
0000
0000
0002
0000
0000
0003
0000
,  // measure 66
0001
0000
0000
MMMM
0000
0000
0001
0000
1000
0000
0000
MMMM
0000
0000
1000
0000
,  // measure 67
0100
0000
0000
MMMM
0000
0000
0100
0000
0010
0000
0100
0000
0010
0000
0100
0000
,  // measure 68
MMMM
0000
0000
0000
;

//---------------dance-single - Enjoy----------------
#NOTES:
     dance-single:
     :
     Edit:
     1:
     0.044975,0.094448,0.027779,0.018519,0.000000,34.000000,31.000000,3.000000,2.000000,0.000000,0.000000,0.044975,0.094448,0.027779,0.018519,0.000000,34.000000,31.000000,3.000000,2.000000,0.000000,0.000000:
0000
0000
0000
0000
,
0000
0000
0000
0000
,
0000
0000
0000
0000
,
0000
0000
0000
0000
,
0001
0000
0000
0000
,
0000
0000
0000
0000
,
0001
0000
0000
0000
,
0000
0000
0000
0000
,
1000
0000
0000
0000
,
0000
0000
0000
0000
,
1000
0000
0000
0000
,
0000
0000
0000
0000
,
1001
0000
0000
0000
,
0000
0000
0000
0000
,
0001
0000
0000
0000
,
0000
0000
0000
0000
,
1001
0000
0000
0000
,
0000
0000
0000
0000
,
1000
0000
0000
0000
,
0000
0000
0000
0000
,
0010
0000
0000
0000
,
0000
0000
0000
0000
,
0010
0000
0000
0000
,
0000
0000
0000
0000
,
0100
0000
0000
0000
,
0000
0000
0000
0000
,
0100
0000
0000
0000
,
0000
0000
0000
0000
,
0001
0000
0000
0000
,
0000
0000
0000
0000
,
0001
0000
0000
0000
,
0000
0000
0000
0000
,
0001
0000
0000
0000
,
0000
0000
0000
0000
,
0001
0000
0000
0000
,
0000
0000
0000
0000
,
1000
0000
0000
0000
,
0000
0000
0000
0000
,
1000
0000
0000
0000
,
0000
0000
0000
0000
,
0001
0000
0000
0000
,
0000
0000
0000
0000
,
0001
0000
0000
0000
,
0000
0000
0000
0000
,
2000
0000
0000
0000
,
0000
0000
0000
0000
,
0000
0000
0000
0000
,
0000
0000
0000
0000
,
3002
0000
0000
0000
,
0000
0000
0000
0000
,
0000
0000
0000
0000
,
0000
0000
0000
0000
,
0103
0000
0000
0000
,
0000
0000
0000
0000
,
0100
0000
0000
0000
,
0000
0000
0000
0000
,
0010
0000
0000
0000
,
0000
0000
0000
0000
,
0010
0000
0000
0000
,
0000
0000
0000
0000
,
0001
0000
0000
0000
,
0000
0000
0000
0000
,
0001
0000
0000
0000
,
0000
0000
0000
0000
,
1000
0000
0000
0000
,
0000
0000
0000
0000
,
1000
0000
0000
0000
,
0000
0000
0000
0000
,
1001
0000
0000
0000
;
