#VERSION:0.83;
#TITLE:let it out;
#ARTIST:true dreamer;
#GENRE:ATMOSPHERIC TRANCE;
#CREDIT:B. M'Rey;
#MUSIC:let it out.ogg;
#BANNER:let it out.png;
#BACKGROUND:let it out-bg.png;
#CDTITLE:./CDTITLES/Dance Dance Revolution HOTTEST PARTY.png;
#SAMPLESTART:60.890;
#SAMPLELENGTH:15;
#OFFSET:-0.083;
#BPMS:0=146;

//--------------- dance-single - B. M'Rey ----------------
#NOTEDATA:;
#STEPSTYPE:dance-single;
#DESCRIPTION:B. M'Rey;
#CREDIT:B. M'Rey;
#DIFFICULTY:Beginner;
#METER:4;
#RADARVALUES:0,0,0,0,0;
#NOTES:
0000
0000
0000
0000
,
0000
0000
0000
0000
,
1000
0000
0000
0000
,
0010
0000
0000
0000
,
0100
0000
0000
0000
,
0001
0000
0000
0000
,
0010
0000
0000
0000
,
0001
0000
0000
0000
,
0100
0000
0000
0000
,
0010
0000
0000
0000
,
0001
0000
1000
0000
,
0001
0000
0000
0000
,
0010
0000
0100
0000
,
0010
0000
0000
0000
,
0001
0000
0010
0000
,
0001
0000
0000
0000
,
0100
0000
1000
0000
,
0010
0000
1000
0000
,
1001
0000
0000
0000
,
0010
0000
0000
0000
,
0100
0000
0001
0000
,
0100
0000
0000
0000
,
0010
0000
1000
0000
,
0010
0000
0000
0000
,
0100
0000
0010
0000
,
0100
0000
0000
0000
,
0001
0000
0010
0000
,
0100
0000
0000
0000
,
1000
0000
0010
0000
,
0100
0000
0001
0000
,
0010
0000
0001
0000
,
0100
0000
0010
0000
,
1000
0000
0010
0000
,
1000
0000
0000
0000
,
0001
0000
0010
0000
,
0002
0000
2000
0000
,
0000
0000
3003
0000
,
1000
0000
0010
0000
,
0100
0100
0100
0000
,
0001
0000
1000
0000
,
0010
0010
0010
0000
,
0001
0000
1000
0000
,
0001
1000
0001
0000
,
0100
0000
0010
0000
,
1000
0000
0001
0000
,
0100
0000
0010
0000
,
0001
0001
0001
0000
,
0010
0000
0100
0000
,
1000
1000
1000
0000
,
0010
0000
0100
0000
,
0001
0000
0010
0000
,
1000
0000
0010
0000
,
0100
0000
0001
0000
,
1001
0000
0000
0000
,
0100
0000
0000
0000
,
0010
0000
0000
0000
,
1000
0000
0000
0000
,
0002
0000
0000
0000
,
0000
0000
0000
0000
,
0103
0000
1000
0000
,
0100
0000
0000
0000
;

//--------------- dance-single - B. M'Rey ----------------
#NOTEDATA:;
#STEPSTYPE:dance-single;
#DESCRIPTION:B. M'Rey;
#CREDIT:B. M'Rey;
#DIFFICULTY:Easy;
#METER:6;
#RADARVALUES:0,0,0,0,0;
#NOTES:
0000
0000
0000
0000
,
0000
0000
0000
0000
,
0010
0000
0001
0000
,
1000
0000
0010
0000
,
0001
0000
0010
0000
,
0100
0000
1000
0000
,
0010
0000
0100
0000
,
1000
0000
0001
0000
,
1000
0000
0001
0000
,
0010
0000
0100
0000
,
0001
1000
0010
1000
,
0010
0100
0001
0000
,
0010
0100
0001
0100
,
0001
0010
0100
0000
,
0100
0010
0100
0010
,
0001
0100
0001
0000
,
0001
0000
0010
0000
,
1000
0000
0100
0000
,
1001
0000
0000
0000
,
0010
0100
0001
0000
,
0001
0100
0001
0100
,
0010
1000
0001
0000
,
0100
1000
0100
1000
,
0010
1000
0010
0000
,
0001
0010
0100
1000
,
0001
1000
0010
0000
,
0010
0100
0001
1000
,
0001
0100
0010
0000
,
0001
0000
0100
0000
,
1000
0000
0001
0000
,
0100
0000
0001
0000
,
0100
0000
1000
0000
,
0100
1000
0010
1000
,
0010
0100
0001
0000
,
0010
0100
0010
0100
,
0002
0000
0020
0000
,
0033
0000
0000
0000
,
0100
0010
0001
1000
,
0001
1000
0001
0000
,
0100
1000
0100
1000
,
0100
0010
0001
0000
,
0001
1000
0100
1000
,
0100
0010
0001
0000
,
0010
0000
0100
0000
,
0001
0000
0100
0000
,
0100
0010
0001
0100
,
0010
0100
0001
0000
,
0001
0100
0001
0100
,
0010
0100
0001
0000
,
0001
0010
0100
1000
,
0001
0010
0100
0000
,
0100
0000
0001
0000
,
1000
0000
0010
0000
,
1001
0000
0011
0000
,
1100
0000
0110
0000
,
0001
0100
0010
0100
,
0010
0100
0001
1000
,
0100
0000
0020
0000
,
0000
0000
0000
0000
,
0031
0100
0001
0100
;

//--------------- dance-single - B. M'Rey ----------------
#NOTEDATA:;
#STEPSTYPE:dance-single;
#DESCRIPTION:B. M'Rey;
#CREDIT:B. M'Rey;
#DIFFICULTY:Medium;
#METER:9;
#RADARVALUES:0,0,0,0,0;
#NOTES:
0000
0000
0000
0000
,
0000
0000
0000
0000
,
0100
1000
0100
0010
,
0001
0100
0010
0000
,
0001
0100
0010
0100
,
0001
0100
0001
0000
,
0100
0010
0001
1000
,
0001
1000
0100
0000
,
1001
0000
0110
0000
,
0101
0000
0110
0000
,
0100
1000
0100
0010
,
0001
1000
0001
0000
,
0100
1000
0010
0100
,
0001
0100
0010
0000
,
0100
0010
0100
0010
,
0001
1000
0001
0000
,
0010
0000
0001
0000
,
1000
0000
0100
0000
,
0001
0000
0000
0000
1000
0000
0000
0010
0000
0000
0100
0000
0000
0000
0000
0000
,
0010
0000
0000
0000
1000
0000
0000
0001
0000
0000
0100
0000
0000
0000
0000
0000
,
0001
1000
0010
0000
0001
0000
1000
0000
,
0100
1000
0100
0000
0100
0010
0001
0000
,
0010
0100
1000
0000
0001
0000
0010
0000
,
0100
1000
0001
0000
0100
0010
0100
0000
,
0010
0001
1000
0000
0001
0000
0100
0000
,
0010
0001
0100
0000
0010
1000
0100
0000
,
0001
0010
1000
0000
0100
0000
0010
0000
,
0001
1000
0100
0000
0001
0100
0010
0000
,
0100
0000
0000
0001
0000
0000
0100
0000
1000
0000
0000
0010
0000
0000
1000
0000
,
0001
0000
0000
1000
0000
0000
0001
0000
0010
0000
0000
0000
1000
0000
0000
0000
,
0010
0000
0000
0100
0000
0000
1000
0000
0001
0000
0000
1000
0000
0000
0100
0000
,
0001
0000
0000
0010
0000
0000
0100
0000
0001
0000
0000
0000
1000
0000
0000
0000
,
0100
0010
0100
0000
0010
0100
0001
0000
,
0001
1000
0010
0000
0010
0100
0010
0000
,
0001
0010
0100
0000
0100
0000
0001
0000
,
0001
1000
0100
0000
0010
0100
1001
1000
,
1001
0000
0000
0000
,
0001
0010
0001
1000
,
0100
0010
1000
0000
0100
0001
1000
0000
,
0001
0100
0010
1000
,
0100
0010
1000
0000
0001
1000
0100
0000
,
0010
1000
0100
1000
,
0001
0010
0100
0000
0010
0001
0100
0000
,
0010
1000
0010
0100
,
0001
1000
0100
0000
0001
1000
0010
0000
,
0001
1000
0010
1000
,
0001
0100
0010
0000
0001
0100
0010
0000
,
0100
1000
0010
0100
,
0001
1000
0010
0000
0100
0001
1000
0000
,
0010
1000
0100
1000
,
0100
0001
0010
0000
0100
1000
0010
0000
,
0001
0100
0001
0010
,
0001
1000
0100
1000
,
0010
0000
0000
0100
0000
0000
0100
0000
0010
0000
0000
0000
0100
0000
0000
0000
,
0010
0000
0000
1000
0000
0000
1000
0000
0001
0000
0000
0000
0010
0000
0000
0000
,
0001
0100
0010
1000
,
0010
1000
0010
0100
,
1001
0000
0200
0000
,
0001
0000
0001
0000
,
0301
0100
0010
0100
;

//--------------- dance-single - B. M'Rey ----------------
#NOTEDATA:;
#STEPSTYPE:dance-single;
#DESCRIPTION:B. M'Rey;
#CREDIT:B. M'Rey;
#DIFFICULTY:Hard;
#METER:11;
#RADARVALUES:0,0,0,0,0;
#NOTES:
0000
0000
0000
0000
,
0000
0000
0000
0000
,
0001
1000
0010
0000
0100
0001
1000
0000
,
0100
0001
1000
0000
0010
0000
0000
0000
,
0010
1000
0100
0000
0010
0100
1000
0000
,
0001
1000
0010
0000
0100
0000
0000
0000
,
0100
0001
1000
0000
0010
1000
0100
0000
,
0001
0010
1000
0000
0001
0000
0000
0000
,
0100
1000
0100
1000
,
0001
0100
0101
0000
,
0001
0100
0010
0000
0010
1000
0010
0000
,
0001
0100
0010
0000
1000
0000
0010
0000
,
0001
1000
0001
0000
0001
0010
0100
0000
,
0001
1000
0100
0000
0001
0000
0100
0000
,
0001
0100
0001
0000
0010
1000
0001
0000
,
0100
0010
0001
0000
0010
0000
0001
0000
,
0010
1000
0100
0000
0001
0010
0100
0000
,
0100
1000
0010
0000
0001
1000
0001
0000
,
1000
0000
0000
0000
0110
0000
0000
0101
0000
0000
1001
0000
0000
0000
0000
0000
,
1000
0001
1000
0001
1000
0001
1000
0001
1000
0000
0010
0000
0000
0000
0000
0000
,
0001
1000
0100
0010
0100
1000
0001
0100
,
0010
0100
0001
0010
0100
0000
0100
0000
,
0001
0010
0100
0010
0100
0010
0001
0100
,
0001
1000
0100
1000
0010
0000
0010
0000
,
0010
1000
0001
0100
0001
0010
0100
0010
,
0100
1000
0100
1000
0010
0000
0010
0000
,
0001
1000
0001
0010
0001
0100
0010
1000
,
0001
1000
0010
0100
0001
0000
0001
0000
,
0010
1000
0010
0000
0001
0010
0001
0000
,
0001
1000
0100
0000
0010
0000
0001
0000
,
0010
0100
0010
0000
0010
0100
0001
0000
,
0001
0100
0001
0000
0010
0000
0010
0000
,
0001
0100
0001
1000
0010
1000
0010
0100
,
0001
1000
0010
0100
0010
0000
0001
0000
,
0100
0010
0001
0010
0100
1000
0100
0010
,
0200
0000
0000
0301
0020
0000
0000
0000
,
0030
0000
0000
0000
0000
0000
0000
0000
0001
1000
0001
1000
0001
1000
0001
1000
,
0001
0000
0000
1000
0000
0000
0100
0000
0010
0000
0000
0001
0000
0000
1000
0000
,
0100
0000
0000
0010
0000
0000
1000
0000
0100
0000
0000
0000
0100
0010
0100
0010
,
0001
0000
0000
0100
0000
0000
1000
0000
0100
0000
0000
0010
0000
0000
0100
0000
,
0010
0000
0000
0100
0000
0000
1000
0000
0100
0000
0000
0000
0100
1000
0100
1000
,
0001
0000
0000
0010
0000
0000
1000
0000
0001
0000
0000
0100
0000
0000
1000
0000
,
0001
0000
0000
0100
0000
0000
0100
0000
0010
0000
0000
0000
0002
0000
0000
0000
,
1003
0000
0000
0100
0000
0000
0010
0000
0001
0000
0000
1000
0000
0000
0100
0000
,
0010
0000
0000
0100
0000
0000
1000
0000
0010
0000
0000
0000
0001
1000
0001
1000
,
0010
0000
0000
0001
0000
0000
0010
0000
0001
0000
0000
0010
0000
0000
1000
0000
,
0001
0000
0000
0100
0000
0000
0010
0000
0100
0000
0000
0000
0001
0010
0001
0010
,
0001
0000
0000
1000
0000
0000
0100
0000
0001
0000
0000
0100
0000
0000
1000
0000
,
0010
0000
0000
0100
0000
0000
0010
0000
0001
0000
0000
0000
0001
0010
0001
0010
,
0100
0000
0000
0010
0000
0000
0100
0000
0001
0000
0000
0010
0000
0000
1000
0000
,
0010
0000
0000
1000
0000
0000
0010
0000
0100
0000
0000
0000
0001
0000
0000
0000
,
0010
1000
0000
1000
0100
0000
0010
0000
0001
0010
0000
0010
0001
0000
0010
0000
,
0100
1000
0000
1000
0001
0000
1000
0000
0010
0000
0100
0000
0010
0000
1000
0000
,
0100
0000
0000
0010
0000
0000
0100
0000
1000
0000
0000
0001
0000
0000
0010
0000
,
0001
0000
0000
0010
0000
0000
0001
0000
1000
0000
0000
0100
0000
0000
0010
0000
,
1000
0001
1000
0100
0001
0100
0010
1000
,
0001
1000
0001
1000
0010
0100
0010
1000
,
0100
1000
0010
1000
0010
0100
0001
0100
,
0010
0100
0001
1000
0010
1000
0001
1000
,
0001
0000
0100
0000
0000
1000
0100
0000
1000
0000
0001
0000
1000
0010
0100
0000
;

//--------------- dance-single - B. M'Rey ----------------
#NOTEDATA:;
#STEPSTYPE:dance-single;
#DESCRIPTION:B. M'Rey;
#CREDIT:B. M'Rey;
#DIFFICULTY:Challenge;
#METER:15;
#RADARVALUES:0,0,0,0,0;
#NOTES:
0000
0000
0000
0000
,
0000
0000
0000
0000
,
1000
0000
0000
0001
1000
0000
0000
0000
0010
0000
0000
0000
0100
0000
1000
0000
,
0100
0000
0000
0010
0100
0000
0010
0000
0001
0000
0000
0000
1001
0000
0000
0000
,
0001
0010
0000
1000
0100
0000
0001
0000
0010
0000
0000
0000
0100
0000
0010
0000
,
0001
0010
0000
0010
0001
0000
0010
0000
0100
0000
0000
0000
0011
0000
0000
0000
,
0001
1000
0000
1000
0100
0000
0010
0000
0100
0000
0000
0000
0100
0000
1000
0000
,
0001
0100
0000
0100
0001
0000
1000
0000
0001
0000
0000
0000
1100
0000
0000
0000
,
0100
0010
0000
0010
0100
0000
0010
0000
0001
0010
0000
0010
0001
0000
1000
0000
,
0001
1000
0000
1000
0100
0000
1000
0000
0100
0000
0000
0000
0110
0000
0000
0000
,
0001
1000
0000
0001
1000
0000
0100
0000
0010
0000
1000
0000
0001
0010
0000
0001
,
0010
0000
0001
0000
0010
0000
0001
0000
1000
0100
0000
1000
0100
0000
0010
0000
,
0001
0010
0000
0001
0010
0000
1000
0000
0010
0000
0001
0000
0100
1000
0000
0100
,
1000
0010
1000
0010
0100
0000
0001
0000
0010
0000
0000
0000
0100
1000
0100
0000
,
1000
0100
0000
0010
0001
0000
0100
0000
0001
0000
1000
0000
0100
0010
0001
0000
,
0010
0100
0000
1000
0100
0000
0010
0000
0100
0000
0000
0000
0001
0010
0001
0000
,
0010
0100
0000
0001
0010
0000
1000
0000
0100
0000
0000
0010
0000
0000
0100
0000
,
1000
0001
1000
0001
1000
0001
1000
0001
1000
0001
1000
0001
1000
0000
0000
0000
,
1001
0000
0000
0000
0101
0000
0000
0110
0000
0000
1001
0000
0000
0000
0000
0000
,
0001
0010
0001
0010
0001
0010
0001
0010
0001
0000
1000
0000
0000
0000
0100
0010
,
0001
1000
0000
1000
0001
0000
1000
0000
0001
0100
0000
0100
0010
0000
0100
0000
,
0001
0010
0000
0010
0100
0000
0010
0000
0100
0000
0000
0000
0001
0000
0100
0000
,
0001
1000
0000
1000
0001
0000
1000
0000
0010
1000
0000
1000
0010
0000
0100
0000
,
0010
0100
0000
0100
0001
0000
0100
0000
0001
0000
0000
0000
0001
0000
0010
0000
,
0100
0010
0000
0010
0001
0000
0100
0000
0010
0100
0000
0100
0001
0000
0100
0000
,
0001
1000
0000
1000
0010
0000
1000
0000
0001
0000
0000
0000
0110
0000
0000
0000
,
0010
0100
0000
0100
0001
0000
0010
0000
0100
0010
0000
0010
0100
0000
0010
0000
,
0001
0100
0000
0100
0001
0000
0100
0000
0010
0000
0000
0000
0010
0000
1000
0000
,
0100
0000
0000
0001
0000
0000
1000
0000
0010
0000
0000
0100
0000
0000
0010
0000
,
0001
0000
0000
0100
0000
0000
1000
0000
0010
0000
0000
0000
0100
0000
0010
0000
,
0001
0000
0000
0100
0000
0000
1000
0000
0001
0000
0000
0100
0000
0000
0010
0000
,
0100
0000
0000
0010
0000
0000
0100
0000
0001
0000
0000
0000
0001
0000
0100
0000
,
0001
0010
0000
0010
0001
0000
0010
0000
0001
0100
0000
0100
0010
0000
0100
0000
,
0010
0100
0000
0100
0001
0000
1000
0000
0100
0000
0000
0000
0001
0000
0100
0000
,
0010
1000
0010
1000
0010
0000
1000
0000
0100
0010
0100
0010
0100
0000
1000
0000
,
0010
0000
0000
0001
0100
0000
0010
0100
0010
0000
1000
0000
0100
0010
0100
0000
,
2002
0000
0000
0000
0000
0000
0000
0000
3013
0100
0010
0100
0010
0100
0010
0100
,
0010
1000
0000
1000
0001
0000
0100
0000
0010
1000
0000
1000
0001
0000
0100
0000
,
0001
0100
0000
0100
0001
0000
0010
0000
0100
0000
1000
0001
1000
0001
0010
0000
,
0001
1000
0000
1000
0010
0000
1000
0000
0100
0010
0000
0010
0001
0000
0100
0000
,
0010
0100
0000
0100
0010
0000
1000
0000
0001
0000
0010
0001
0010
0001
0100
0000
,
0010
0100
0000
0100
0001
0000
1000
0000
0100
1000
0000
1000
0001
0000
0100
0000
,
0010
1000
0000
1000
0010
0000
1000
0000
0001
0000
0001
0100
0001
0000
0010
0000
,
0100
1000
0100
1000
0100
0000
0010
0000
0100
0010
0100
0010
0001
0000
1000
0000
,
0001
0100
0001
0100
0001
0000
0010
0000
0100
1000
0100
1000
0100
0000
1000
0000
,
0100
0010
0000
0010
0001
0000
0100
0000
0010
0100
0000
0100
0001
0000
0100
0000
,
0010
1000
0000
1000
0010
0000
0100
0000
0001
0010
0001
0010
0100
0000
0010
0000
,
0100
1000
0000
1000
0010
0000
1000
0000
0100
0010
0000
0010
0100
0000
1000
0000
,
0001
1000
0000
1000
0010
0000
0100
0000
0001
0010
0001
0010
0001
0000
0010
0000
,
0001
0100
0000
0100
0010
0000
0100
0000
0010
0100
0000
0100
0001
0000
1000
0000
,
0010
1000
0000
1000
0100
0000
0010
0000
0001
0000
0000
0000
0001
0000
0010
0000
,
0100
1000
0100
1000
0010
0000
1000
0000
0100
1000
0100
1000
0001
0000
0010
0000
,
0001
0100
0001
0100
0001
0000
0100
0000
0010
0000
0010
0100
0010
0000
1000
0001
,
0010
0000
0000
0100
0000
0000
0001
0000
0100
0000
0000
0010
0000
0000
0100
0000
,
0010
0000
0000
1000
0000
0000
0100
0000
0010
0000
0000
0001
0000
0000
0010
0000
,
1000
0100
0001
1000
0100
0010
0001
0010
,
0001
0100
0010
1000
0010
1000
0100
0010
,
0100
1000
0001
0010
0001
0010
0100
1000
,
0010
0000
0001
0000
0010
1000
0010
0000
0100
1000
0000
0010
0001
0000
0100
0010
,
0100
0000
1001
0000
0000
0100
0010
0000
0001
0000
1000
0010
0000
0100
0001
0000
;
