#VERSION:0.83;
#TITLE:felys;
#ARTIST:onoken;
#GENRE:DRUM'N'BASS;
#CREDIT:B. M'Rey;
#MUSIC:felys.ogg;
#BANNER:felys.png;
#BACKGROUND:felys-bg.png;
#CDTITLE:./CDTITLES/NOSTALGIA Konasute Op.2.PNG;
#SAMPLESTART:88.140;
#SAMPLELENGTH:15;
#OFFSET:-0.040;
#BPMS:0=180.061;

//--------------- dance-single - B. M'Rey ----------------
#NOTEDATA:;
#STEPSTYPE:dance-single;
#DESCRIPTION:B. M'Rey;
#DIFFICULTY:Beginner;
#METER:5;
#CREDIT:B. M'Rey;
#RADARVALUES:0.189229,0.34487,0.098399,0,0,175,162,13,0,0,0,0.189229,0.34487,0.098399,0,0,175,162,13,0,0,0;
#NOTES:
0000
0000
0000
0000
,
0000
0000
0000
0000
,
0000
0000
0000
0000
,
0000
0000
0000
0000
,
0000
0000
0000
0000
,
0000
0000
0000
0000
,
0000
0000
0000
0000
,
0000
0000
0000
0000
,
1000
0000
0000
0000
,
0000
0000
0000
0000
,
0001
0000
0000
0000
,
0000
0000
0000
0000
,
0010
0000
0000
0000
,
0000
0000
0000
0000
,
0100
0000
0000
0000
,
0000
0000
0000
0001
,
0000
0000
0000
0000
,
0000
0000
0000
1000
,
0000
0000
0000
0000
,
0000
0000
0000
0000
,
0010
0000
0000
0000
,
0000
0000
0000
0000
,
0100
0000
0000
0000
,
0000
0000
0000
0000
,
0001
0000
0000
0000
,
0100
0000
0000
0000
,
1000
0000
0000
0000
,
0100
0000
0000
0000
,
0010
0000
0000
0000
,
1000
0000
0000
0000
,
0001
0000
0000
0000
,
0001
0000
0000
0000
,
0100
0000
0000
0000
,
1000
0000
1000
0000
,
0010
0000
0000
0000
,
0001
0000
0001
0000
,
1000
0000
0000
0000
,
0010
0000
0010
0000
,
0100
0000
0000
0000
,
0100
0000
0100
0000
,
0010
0000
0000
0000
,
0001
0000
1000
0000
,
0100
0000
0000
0000
,
0001
0000
0010
0000
,
0001
0000
0000
0000
,
1000
0000
0001
0000
,
1000
0000
0000
0000
,
0100
0000
0010
0000
,
1001
0000
0000
0000
,
0000
0000
0000
0000
,
0000
0000
0000
0000
,
0000
0000
0000
0000
,
0000
0000
0000
0000
,
0000
0000
0000
0000
,
0000
1000
0000
0000
0000
0010
0000
0000
,
0000
0100
0000
0000
0000
0001
0000
0000
,
0000
0100
0000
0000
0000
1000
0000
0000
,
0000
0010
0000
0000
0000
0001
0000
0000
,
0000
1000
0000
0000
0000
1100
0000
0000
,
0000
0010
0000
0000
0000
0100
0000
0000
,
0000
0001
0000
0000
0000
0101
0000
0000
,
0000
0010
0000
0000
0000
0100
0000
0000
,
0000
1100
0000
0000
0000
0101
0000
0000
,
0000
0110
0000
0000
0000
1001
0000
0000
,
0000
1100
0000
0000
0000
1100
0000
0000
,
0000
1001
0000
0000
0000
0110
0000
0000
,
0000
1001
0000
0000
0000
0000
0000
0000
,
0000
0100
0000
0010
0000
0100
0000
0001
,
0000
1000
0000
0100
0000
0010
0000
1000
,
0000
0001
0000
0100
0000
0001
0000
0100
,
0000
1000
0000
0100
0000
0001
0000
0010
,
0000
1000
0000
0010
0000
0001
0000
0010
,
0000
1000
0000
0100
0000
0001
0000
0100
,
0000
0001
0000
1000
0000
0001
0000
1000
,
0000
0010
0000
0100
0000
0010
0000
0100
,
0000
0001
0000
0001
0000
1000
0000
1000
,
0000
0001
0000
1000
0000
0001
0000
1000
,
0000
0010
0000
0100
0000
0010
0000
0100
,
0000
0010
0000
0010
0000
0100
0000
0100
,
0000
1000
0000
0100
0000
0001
0000
0100
,
0000
0010
0000
0001
0000
0010
0000
1000
,
0000
1000
0000
0001
0000
0100
0000
1000
,
0000
0010
0000
1000
0000
0001
0000
0100
,
0000
1000
0000
0010
0000
1000
0000
0100
,
0000
0001
0000
0010
0000
0100
0000
1000
,
0000
0010
0000
0100
0000
1000
0000
0010
,
0000
0001
0000
1000
0000
0010
0000
0100
,
0000
1000
0000
0001
0000
0010
0000
0100
,
0000
0001
0000
0010
0000
0100
0000
1000
,
0000
0010
0000
0100
0000
0001
0000
0010
,
0000
0100
0000
0010
0000
0100
0000
0000
,
0000
1001
0000
0000
0000
0000
0000
0000
;

//--------------- dance-single - B. M'Rey ----------------
#NOTEDATA:;
#STEPSTYPE:dance-single;
#DESCRIPTION:B. M'Rey;
#DIFFICULTY:Easy;
#METER:8;
#CREDIT:B. M'Rey;
#RADARVALUES:0.352507,0.465504,0.151383,0.060553,0,326,306,20,8,0,0,0.352507,0.465504,0.151383,0.060553,0,326,306,20,8,0,0;
#NOTES:
0000
0000
0000
0000
,
0000
0000
0000
0000
,
0000
0000
0000
0000
,
0000
0000
0000
0000
,
0000
0000
0000
0000
,
0000
0000
0000
0000
,
0000
0000
0000
0000
,
0000
0000
0000
0000
,
0010
1000
0100
0010
,
1000
0001
0010
0100
,
0010
0100
1000
0010
,
0100
0001
0001
0010
,
1000
0010
0001
0010
,
1000
0010
0001
0100
,
1000
0010
0001
0100
,
1000
0110
0110
1001
,
0010
1000
0010
0100
,
1000
0001
0010
1000
,
0100
0010
1000
0001
,
0010
1000
0010
0011
,
1000
0000
0100
0000
,
0010
1000
0001
0000
,
0011
1010
0100
0010
,
1000
0001
1000
1001
,
0100
1000
0000
0010
,
0100
1000
0001
0010
,
0100
0010
0000
0100
,
1000
0001
0010
0100
,
1000
1000
0000
0010
,
0001
0100
0010
0100
,
1000
1000
0000
0100
,
1000
0010
0100
0010
,
0001
0010
0001
0010
,
0100
0010
0100
0010
,
1000
0010
1000
0010
,
0100
1000
0100
1000
,
0001
1000
0010
0001
,
1000
0010
0100
0010
,
0001
1000
0001
1000
,
0001
0100
0001
0010
,
1000
0010
0100
0010
,
1000
0100
1000
0010
,
0001
0010
1000
0100
,
0010
0001
1000
0010
,
0100
1000
0010
0001
,
0100
1000
0001
0010
,
1000
0010
0001
0100
,
0001
0010
0100
1000
,
2002
0000
0000
0000
,
0000
0000
0000
0000
,
3003
0000
0000
0000
,
0000
0000
0000
0000
,
0000
0000
0000
0000
,
0000
0000
0000
0000
,
0000
1000
0000
0000
0000
0010
0000
0000
,
0000
0100
0000
0000
0000
0001
0000
0000
,
0000
0100
0000
0000
0000
1000
0000
0000
,
0000
0010
0000
0000
0000
0001
0000
0000
,
0000
1000
0000
0000
0000
1100
0000
0000
,
0000
0010
0000
1000
0000
0100
0000
0000
,
0000
0001
0000
0000
0000
1010
0000
0000
,
0000
0100
0000
0000
0000
0010
0000
0000
,
0000
0011
0000
0000
0000
1010
0000
0000
,
0000
0110
0000
0010
0000
1001
0000
0000
,
0000
0011
0000
0000
0010
0000
0000
0011
,
0000
0000
0000
1001
0000
0000
0000
0220
,
0000
0000
0000
0000
0000
0330
0000
0000
,
0000
0010
0000
0100
0000
0010
0000
1000
,
0000
0001
0000
0010
0000
0100
0000
0001
,
0000
1000
0000
0010
0000
1000
0000
0010
,
0000
0001
0000
0010
0000
1000
0000
0100
,
0000
0001
0000
0100
0000
1000
0000
0100
,
0000
0001
0000
0010
0000
1000
0000
0010
,
0000
1000
0000
0001
0000
1000
0000
0001
,
0000
0100
0000
0010
0000
0100
0000
0010
,
0000
1000
0000
1000
0000
0001
0000
0001
,
0000
1000
0000
0001
0000
1000
0000
0001
,
0000
0100
0000
0010
0000
0100
0000
0010
,
0000
0100
0000
0100
0000
0010
0000
0010
,
0000
0001
0000
0010
0000
1000
0000
0010
,
0000
0100
0000
1000
0000
0100
0000
0001
,
0000
0001
0000
1000
0000
0010
0000
0001
,
0000
0100
0000
0001
0000
1000
0000
0010
,
0000
0001
0000
0100
0000
0001
0000
0010
,
0000
1000
0000
0100
0000
0010
0000
0001
,
0000
0100
0000
0010
0000
0001
0000
0100
,
0000
1000
0000
0001
0000
0100
0000
0010
,
0000
0001
0000
1000
0000
0100
0000
0010
,
0000
1000
0000
0100
0000
0010
0000
0001
,
0000
0100
0000
0010
0000
1000
0000
0100
,
0000
0010
0000
0100
0000
0010
0000
0000
,
0000
2002
0000
0000
0000
0000
0000
0000
,
0000
0000
0000
0000
,
0000
3003
0010
0000
1000
0000
0100
0000
,
0010
0001
0100
0010
,
0001
0100
1000
0001
,
0100
0010
0001
1000
,
0100
0010
1000
0100
,
0010
0001
0100
0010
,
1000
0100
0010
0100
,
0010
0000
2002
0000
,
0000
0000
0000
0000
,
0000
0000
3003
0000
;

//--------------- dance-single - B. M'Rey ----------------
#NOTEDATA:;
#STEPSTYPE:dance-single;
#DESCRIPTION:B. M'Rey;
#DIFFICULTY:Medium;
#METER:11;
#CREDIT:B. M'Rey;
#RADARVALUES:0.38819,0.599146,0.136245,0.045415,0,359,341,18,6,0,0,0.38819,0.599146,0.136245,0.045415,0,359,341,18,6,0,0;
#NOTES:
0000
0000
0000
0000
,
0000
0000
0000
0000
,
0000
0000
0000
0000
,
0000
0000
0000
0000
,
0000
0000
0000
0000
,
0000
0000
0000
0000
,
0000
0000
0000
0000
,
0000
0000
0000
0000
,
0010
1000
0010
0010
,
0001
1000
0100
0100
,
1000
0100
1000
0001
,
0100
0001
0001
0010
,
1000
0010
0001
0010
,
1000
0010
0001
0100
,
1000
0010
0001
0100
,
1000
0110
0110
1001
,
0100
0000
0001
0001
0100
0000
0010
0000
,
0001
0000
1000
1000
0100
0000
0001
0000
,
0010
0000
0100
0100
0001
0000
1000
0000
,
0100
0000
0001
0010
0100
0000
1100
0000
,
0001
1000
0010
0001
,
0010
1000
0001
0000
,
0011
1010
0100
0010
,
1000
0001
1000
1001
,
0100
0000
1000
0001
0000
0000
0010
0000
,
0100
0001
1000
0100
,
0010
0000
0100
0010
0000
0000
0010
0000
,
0001
1000
0100
0010
,
0001
0000
0001
1000
0000
0000
0100
0000
,
1000
0010
0100
0010
,
0001
0000
0001
1000
0000
0100
0010
0100
,
0001
1000
0100
0001
0010
1000
0100
0001
,
1000
0100
1000
0100
,
0010
0000
0100
0000
0010
0010
0100
0100
,
0001
0100
0001
0100
,
0010
0000
0001
0000
0010
1000
0010
1000
,
0001
0010
0100
1000
,
0001
0100
0010
0100
,
1000
0001
1000
0001
,
1000
0010
1000
0100
,
0001
0001
0100
0100
0010
0010
0100
0100
,
0001
0000
0010
0000
0001
0001
0100
0001
,
1000
0100
0001
0010
,
0010
0001
1000
0010
,
0100
1000
0010
0001
,
0100
1000
0001
0010
,
1000
0010
0001
0100
,
0001
0100
0010
0001
,
2002
0000
0000
0000
,
0000
0000
0000
0000
,
0000
0000
0000
0000
,
0000
0000
0000
0000
,
0000
0000
0000
0000
,
0000
0000
0000
0000
0000
0000
0000
3003
,
0000
1000
0000
0100
0000
1000
0000
0010
,
0000
0100
0000
0001
0000
0100
0000
0010
,
0000
0001
0000
0100
0000
0010
0000
0001
,
0000
0100
0000
1000
0000
0010
0000
0000
,
0000
1000
0000
0000
0000
0011
0000
0000
,
0000
1000
0000
0100
0000
0010
0000
0000
,
0000
1000
0000
0000
0000
0101
0000
0000
,
0010
0000
0000
0001
0000
0010
0000
0000
,
0000
1001
0000
0000
0000
1010
0000
0000
,
0000
0100
0000
0001
0000
0100
0000
0000
,
0000
0001
0000
1000
0000
1000
0000
0100
,
1000
0010
0100
0001
0100
0000
0000
2002
,
0000
0000
0000
0000
0000
3003
0000
0000
,
0000
0100
0010
0100
0010
0100
0010
0100
,
0010
1000
0001
1000
0001
1000
0001
1000
,
0001
0100
0001
0100
0001
0100
0001
0100
,
0001
0010
1000
0010
1000
0010
1000
0010
,
1000
1000
0000
0110
0000
0001
0000
0110
,
0000
1000
0000
0101
0000
0001
0000
0101
,
0000
0001
0100
0010
1000
0001
0100
0010
,
1000
0001
0100
0010
1000
0001
0100
0010
,
1000
0001
0000
0001
0000
1000
0000
1000
,
0000
0001
0000
1000
0000
0001
0001
0001
,
0000
0100
0000
0010
0000
0100
0000
0010
,
0000
0100
0000
0100
0000
0010
0000
0010
,
0000
0001
0000
0010
0000
1000
0000
0010
,
0000
0100
0000
1000
0000
0100
0000
0001
,
0000
0001
0000
1000
0000
0010
0000
0001
,
0000
0100
0000
0001
0000
1000
0000
0010
,
0000
0001
0000
0100
0000
0001
0000
0010
,
0000
1000
0000
0100
0000
0010
0000
0001
,
0000
0100
0000
0010
0000
0001
0000
0100
,
0000
1000
0000
0001
0000
0100
0000
0010
,
0000
0001
0000
1000
0000
0100
0000
0010
,
0000
1000
0000
0100
0000
0010
0000
0001
,
0000
0100
0000
0010
0000
1000
0000
0100
,
0000
0010
0000
0100
0000
0010
0000
0000
,
0000
2002
0000
0000
0000
0000
0000
0000
,
0000
0000
0000
0000
,
0000
3003
0000
0000
0000
0000
0000
0000
;

//--------------- dance-single - B. M'Rey ----------------
#NOTEDATA:;
#STEPSTYPE:dance-single;
#DESCRIPTION:B. M'Rey;
#DIFFICULTY:Hard;
#METER:15;
#CREDIT:B. M'Rey;
#RADARVALUES:0.630403,0.792018,0.083261,0.022707,0.13246,583,572,11,3,23,0,0.630403,0.792018,0.083261,0.022707,0.13246,583,572,11,3,23,0;
#NOTES:
0000
0000
0000
0000
,
0000
0000
0000
0000
,
0000
0000
0000
0000
,
0000
0000
0000
0000
,
0000
0000
0000
0000
,
0000
0000
0000
0000
,
0000
0000
0000
0000
,
0000
0000
0000
0000
,
0100
0010
0001
1000
0100
1000
0100
1000
,
0001
0000
0100
0000
0001
0000
1000
0000
0001
0000
0100
0000
0001
1000
0001
0000
,
0100
1000
0100
0010
0100
1000
0010
1000
,
0010
0000
1000
0000
0100
0000
0010
0000
0001
0000
0100
0000
0010
0100
0010
0000
,
0100
1000
0001
1000
0010
0100
0001
1000
,
0010
0000
1000
0000
0100
0000
1000
0000
0100
0000
0010
0000
1000
0010
1000
0000
,
0001
1000
0010
0100
0010
1000
0100
1000
,
0001
0010
0100
1000
0100
1000
1001
0000
,
0010
1000
0001
0100
0001
0100
0001
1000
,
0100
0000
1000
0000
0001
0000
0100
0000
0010
0000
1000
0000
0001
0010
1000
0000
,
0001
0010
0100
1000
0001
0010
0100
0010
,
0001
0010
0001
1000
0001
0100
0010
0000
,
1010
0000
0000
1100
0000
0000
1000
0000
1001
0000
0000
0101
0000
0000
1000
0000
,
0010
0000
0100
0000
0110
0000
0000
0001
0000
0000
1000
0000
0010
0000
0000
1100
,
0000
1000
0100
0010
0100
1000
0010
1000
,
0010
0000
1000
0000
0100
0000
0010
0000
0100
0000
0010
0000
0001
0010
1000
0000
,
0100
0000
0100
0010
0000
1000
0010
0000
,
0010
1000
0100
1000
0100
1000
0010
0100
,
0001
0000
0010
1000
0000
0010
0001
0000
,
0010
0100
0010
0100
0010
1000
0100
1000
,
0001
0000
0010
0100
0000
1000
0001
0000
,
0100
1000
0100
1000
0001
0010
0100
1000
,
0010
0000
0010
0100
0000
1000
0010
0000
,
0001
0000
0100
0000
0001
0000
0100
0000
0010
0000
1000
0000
0001
0100
0001
0100
,
0010
0010
0100
0010
0001
0010
0001
0100
,
0010
1000
0100
0000
0100
1000
0100
0000
0001
1000
0010
0000
0010
0100
0010
0000
,
0010
0010
0100
0010
0100
1000
0001
0100
,
0001
0000
0001
0000
0010
0100
0010
0100
,
0001
1000
0001
0100
0010
0100
0010
1000
,
0100
1000
0100
0000
0100
0010
0001
0000
0010
0100
0010
0000
0010
1000
0100
0000
,
0001
0000
0010
1000
0010
0100
0001
0010
,
0001
0100
0001
1000
0010
0100
0001
1000
,
0001
0000
1001
0000
1000
0001
0010
0001
,
0001
0010
0001
0000
0001
0100
0010
0000
0010
0100
0001
0000
0001
1000
0001
0000
,
0001
0000
1001
0000
0010
1000
0010
0100
,
0001
1000
0010
0000
0010
0100
0010
0000
0001
0100
0001
0000
0001
1000
0010
0000
,
0010
0000
1001
0000
0010
0001
0100
0010
,
0001
1000
0001
0000
0001
0010
0100
0000
0100
1000
0100
0000
0010
1000
0010
0000
,
0010
1000
0100
0010
0001
0010
0100
1000
,
0001
1000
0010
1000
0010
0000
0000
0000
0100
0010
0100
0010
0001
0000
0000
0000
,
0002
M000
00M0
0M00
,
00M0
0M00
00M0
M000
,
0M00
M000
M000
0M00
,
00M0
0M00
00M0
M000
,
0M00
00M0
0M00
00M0
,
0M00
M000
00M0
M000
,
1003
0010
0000
0100
1000
0000
0100
0010
,
0000
0001
1000
0001
1000
0100
1000
0100
,
0010
0100
0010
0001
0010
0001
1000
0001
,
1000
0010
0100
0010
0100
0010
1000
0001
,
0100
1000
0000
0010
0001
0000
0100
1000
,
0000
0001
1000
0001
1000
0001
0010
0100
,
0010
0100
0010
0001
1000
0001
1000
0100
,
1000
0100
0010
0100
1000
0010
1000
0010
,
1000
0001
0000
0001
1000
0000
0010
0100
,
0000
0100
1000
0100
1000
0100
0010
0001
,
0010
0001
0010
0100
1000
0100
1000
0100
,
0010
0001
0010
0001
0010
0100
1000
0001
,
1000
0000
0000
0000
,
0000
0001
0010
0001
1000
0100
1000
0100
,
1000
0010
0100
0010
1000
0001
1000
0001
,
0100
0001
0100
0010
0100
0010
1000
0010
,
1000
0001
0010
0001
0010
0001
1000
0100
,
1000
0100
1000
0001
0010
0001
0010
0001
,
0100
0010
0100
0001
0010
0100
0010
0100
,
0010
0001
1000
0001
1000
0001
0010
0100
,
0010
0100
0010
0001
0100
0010
0100
0010
,
0100
0001
0010
0001
0010
0001
1000
0100
,
0010
0100
0010
0100
1000
0001
0100
0001
,
0100
0001
1000
0010
0100
0010
1000
0010
,
1000
0100
1000
0100
0010
0001
0010
0001
,
0010
0100
1000
0100
1000
0100
0010
0001
,
0010
0001
0010
0100
1000
0100
1000
0100
,
0010
0001
0010
0001
1000
0001
0010
0100
,
0010
0100
0010
0001
1000
0001
0010
0001
,
0010
0001
0000
0100
0000
0001
0000
0100
,
0000
0001
0000
0010
0000
0100
0000
0010
,
0000
0001
0000
0010
0000
0001
0000
0100
,
0000
0001
0000
0100
0000
0010
0000
1000
,
0000
0100
0000
1000
0000
0100
0000
1000
,
0000
0001
0000
0010
0000
0001
0000
0010
,
0000
0001
0000
0100
0000
0010
0000
0100
,
0000
0010
0000
0100
0000
0001
0000
1000
,
0000
2002
0000
0000
0000
0000
0000
0000
,
0000
0000
0000
0000
,
0000
0000
0000
0000
,
0000
0000
0000
0000
,
0000
3003
0000
0000
0000
0000
0000
0000
;

//--------------- dance-single - B. M'Rey ----------------
#NOTEDATA:;
#STEPSTYPE:dance-single;
#DESCRIPTION:B. M'Rey;
#DIFFICULTY:Challenge;
#METER:17;
#CREDIT:B. M'Rey;
#RADARVALUES:0.773136,1.008023,0,0.015138,0.423873,715,715,0,2,80,0,0.773136,1.008023,0,0.015138,0.423873,715,715,0,2,80,0;
#NOTES:
0000
0000
0000
0000
,
0000
0000
0000
0000
,
0000
0000
0000
0000
,
0000
0000
0000
0000
,
0000
0000
0000
0000
,
0000
0000
0000
0000
,
0000
0000
0000
0000
,
0000
0000
0000
0000
,
0001
1000
0001
0010
0001
0010
0100
0010
,
0100
0000
1000
0000
0100
0000
1000
0000
0001
0000
0100
0000
0001
0100
0001
0000
,
0010
1000
0010
1000
0010
1000
0100
0010
,
0100
0000
0010
0000
0100
0000
1000
0000
0010
0000
1000
0000
0001
1000
0001
0000
,
0010
0100
0001
0100
0010
0100
0010
1000
,
0010
0000
1000
0000
0001
0000
1000
0000
0001
0000
0100
0000
0001
0100
0010
0000
,
0001
0100
0010
1000
0010
1000
0001
1000
,
0001
0000
0010
0000
0001
0000
0100
0000
0010
0000
0100
0000
0010
1000
0100
0000
,
0001
0010
0100
0010
0001
0010
0001
0100
,
0001
0000
0010
0000
0100
0000
0010
0000
0100
0000
0010
0000
0001
1000
0001
0000
,
0100
0010
0001
0010
0100
0010
0001
0100
,
0001
0000
0100
0000
0001
0000
1000
0000
0010
0000
1000
0000
0100
1000
0100
0000
,
0001
0010
0100
1000
0001
0010
0001
0010
,
0001
0000
1000
0000
0010
0000
1000
0000
0010
0000
1000
0000
0001
0100
0010
0000
,
1000
0100
0001
0100
0010
1000
0010
1000
,
0010
0100
0001
0100
0010
0100
0001
0010
,
0010
0100
0001
0000
0001
0000
0010
0100
0001
0000
0100
0000
0100
1000
0010
0000
,
0100
0000
0010
0000
0010
0000
0001
0000
0010
0000
0001
0010
0001
0100
0010
1000
,
0100
0000
0001
0000
0100
1000
0001
0000
0001
0000
0010
1000
0001
0000
0010
0000
,
0100
0010
0100
0001
0010
0001
0001
0010
,
0001
0010
0100
0000
0010
0000
0100
0010
0100
0000
0100
0000
0001
0010
0001
0000
,
0001
0000
0100
0000
0001
0000
0001
0000
0100
0000
0010
0000
0010
0000
0100
0010
,
0100
0000
0100
0000
0001
0100
0010
0000
0010
0000
0001
0100
0001
0000
0100
0000
,
0100
0001
0010
0001
0100
0001
0010
0100
,
1000
0100
0001
0000
0010
0000
0100
0001
0010
0000
1000
0000
0100
0001
0010
0000
,
0100
0010
0100
0010
0100
1000
0001
1000
0001
1000
0100
0010
0100
0010
0100
1000
,
0010
0100
0010
0000
0001
0000
0100
0010
0001
0000
0001
0000
0010
1000
0100
0000
,
0001
0010
0000
0000
0100
0000
0000
0000
1000
0000
0010
0000
0100
0000
0001
0000
,
0100
1000
0010
0000
0010
0000
0001
0010
0100
0000
0010
0000
0001
0010
0001
0000
,
0001
1000
0001
1000
0001
0010
0100
1000
0100
1000
0100
0010
0001
1000
0001
0100
,
0010
0100
0010
0000
0010
0000
0001
1000
0100
0000
0010
0000
0100
0010
0100
0000
,
0010
0001
0000
0000
0100
0000
0010
0000
0001
0000
0100
0000
0010
0000
1000
0000
,
0001
0100
0010
0100
0001
0100
0010
1000
,
0001
1000
0001
1000
0001
0010
0100
0010
0100
0010
0001
1000
0001
1000
0001
0100
,
0010
1000
0010
1000
0100
0010
0100
0010
,
0001
1000
0010
1000
0010
0100
0010
0100
0001
0100
0001
1000
0001
1000
0100
1000
,
0010
1000
0100
1000
0100
0010
0001
0100
,
0001
1000
0010
1000
0010
1000
0001
0100
0001
0100
0001
1000
0100
1000
0100
1000
,
0010
0100
0010
0100
0001
1000
0010
1000
,
0100
1000
0100
1000
0100
0010
0001
0010
0001
0010
0100
1000
0001
1000
0001
0010
,
020M
M000
000M
M000
000M
00M0
M000
00M0
,
M000
00M0
000M
M000
000M
M000
000M
M000
,
000M
M000
00M0
M000
000M
00M0
000M
00M0
,
000M
00M0
000M
M000
00M0
M000
000M
M000
,
000M
00M0
M000
00M0
000M
M000
000M
M000
,
00M0
M000
00M0
M000
00M0
M000
000M
M000
,
0301
0100
0001
0010
0100
1000
0010
1000
,
0100
1000
0010
0100
0001
0100
0010
1000
,
0001
1000
0100
1000
0001
0100
0010
0100
,
0010
1000
0100
0010
0100
1000
0010
0100
,
0010
1000
0001
0100
0001
1000
0010
0100
,
0001
0010
0100
0010
0001
0100
0010
1000
,
0010
0100
0001
1000
0001
0010
0001
0100
,
0010
1000
0100
0010
0001
1000
0100
0010
,
0001
0100
0001
0010
0100
1000
0100
0010
,
0001
0100
0010
1000
0100
1000
0001
1000
,
0010
0100
0001
0100
0010
0100
0001
0010
,
0001
0100
0010
1000
0100
0010
0001
0100
,
0010
0000
0000
0000
,
0000
0000
1000
0000
0001
0000
1000
0000
0010
1000
0010
1000
0010
0000
0100
0000
,
0010
0000
0100
0000
0001
0000
1000
0000
0100
1000
0100
1000
0100
0000
1000
0000
,
0010
0000
0100
0000
0001
0000
0100
0000
0010
1000
0010
1000
0010
0000
1000
0000
,
0010
0000
0100
0000
0001
0000
0100
0000
0010
0001
0010
0001
0010
0000
0001
0000
,
0100
0000
0010
0000
0001
0000
1000
0000
0100
0010
0001
1000
0001
0000
1000
0000
,
0001
0000
1000
0000
0001
0000
0010
0000
0100
0010
0100
0010
0100
0000
1000
0000
,
0100
0000
0010
0000
0001
0000
0100
0000
0010
0100
0010
0100
0010
0000
1000
0000
,
0001
1000
0001
1000
0010
0100
0001
0100
,
0001
0000
0100
0000
0010
0000
1000
0000
0100
0010
0001
0010
0001
0000
0010
0000
,
0001
0000
0010
0000
0100
0000
1000
0000
0100
1000
0100
1000
0100
0000
0010
0000
,
0001
0000
0010
0000
0001
0000
0010
0000
0100
1000
0100
1000
0100
0000
1000
0000
,
0100
0000
0010
0000
0001
0000
0010
0000
0001
0010
0001
0010
0100
0000
1000
0000
,
0100
0000
1000
0000
0100
0000
0010
0000
0001
1000
0001
1000
0001
0000
1000
0000
,
0001
0000
0100
0000
0010
0000
0100
0000
0010
0100
0010
0100
0001
0000
1000
0000
,
0001
0000
1000
0000
0001
0000
0100
0000
0010
0100
0010
0100
0010
0000
0100
0000
,
0001
0010
0001
0010
0001
1000
0010
0100
,
0010
0100
0001
0000
1000
0000
0001
0000
1000
0000
0001
0000
0100
0000
0010
0000
,
0100
0000
0010
0001
0010
0001
0100
0001
,
1000
0010
1000
0010
1000
0001
0100
0001
,
0100
0000
0010
0100
0010
0100
0010
0001
,
1000
0010
0100
0010
0100
0010
1000
0001
,
1000
0000
1000
0010
0100
0010
0100
0010
,
1000
0001
1000
0001
1000
0100
0010
0100
,
0010
0000
1000
0010
1000
0010
1000
0001
,
0000
00M2
M000
00M0
M000
0M00
M000
0M00
,
00M0
0M00
00M0
M000
00M0
0M00
M000
0M00
,
M000
0M00
M000
00M0
0M00
M000
0M00
00M0
,
M000
00M0
M000
00M0
M000
M000
0M00
M000
,
0M00
0003
0000
0000
0000
0000
0000
0000
;
