#VERSION:0.83;
#TITLE:ZEUS;
#ARTIST:ルゼ;
#ARTISTTRANSLIT:luze;
#GENRE:PANDORA BOX;
#CREDIT:B. M'Rey;
#MUSIC:ZEUS.ogg;
#BANNER:ZEUS.png;
#BACKGROUND:ZEUS-bg.png;
#CDTITLE:./CDTITLES/CHUNITHM AMAZON PLUS.PNG;
#SAMPLESTART:34.365;
#SAMPLELENGTH:15;
#OFFSET:-0.483;
#BPMS:0=85,32=170,128=85,144=170;
#STOPS:246=0.353,310=0.353;

//--------------- dance-single - B. M'Rey ----------------
#NOTEDATA:;
#STEPSTYPE:dance-single;
#DESCRIPTION:B. M'Rey;
#CREDIT:B. M'Rey;
#DIFFICULTY:Beginner;
#METER:7;
#RADARVALUES:0,0,0,0,0;
#NOTES:
0000
0000
0000
0000
,
0000
0000
0000
0000
,
0001
0000
0000
0000
,
1000
0000
0000
0000
,
0001
0010
0001
0010
,
0001
0100
0010
1000
,
0100
1000
0100
1000
,
0001
0100
0101
0000
,
0001
1000
0100
1000
,
0100
0000
0100
0000
,
0010
1000
0100
1000
,
0010
0000
0011
0011
,
0110
1000
0001
0010
,
0001
0000
0100
0000
,
0001
0100
0001
0100
,
0001
0000
0100
0000
,
0100
1000
0001
0100
,
0001
1000
0001
1000
,
0010
0100
0010
0100
,
0010
1000
0001
1000
,
0001
0100
0001
0100
,
0010
1000
0010
1000
,
0001
0010
0001
1000
,
0010
0000
0100
0000
,
0010
0100
0001
0100
,
1001
0000
0000
0000
,
0100
1000
0010
0100
,
0010
1000
0101
0000
,
0001
1000
0001
0010
,
0110
0110
0110
2000
,
3010
1000
0010
1000
,
0100
0010
0100
0010
,
0100
0000
0000
0000
,
0001
1000
0000
0000
,
0001
1000
0000
0000
,
0100
1000
0000
0010
,
0100
0010
0001
0010
,
0001
0100
0010
0100
,
0010
0100
0001
1000
,
0010
0100
0010
0100
,
0010
1000
0001
0010
,
0001
0010
0100
0010
,
0110
0000
0101
0000
,
1010
0000
0000
0000
,
0010
0100
0010
1000
,
0001
0000
0001
0000
,
0010
1000
0010
1000
,
0100
0000
0100
0000
,
0100
1000
0001
0100
,
0010
0000
0010
0000
,
0010
0100
0001
0100
,
0001
0000
0010
0000
,
0010
0100
0010
0100
,
0001
0000
0010
0000
,
0001
1000
0101
0010
,
1000
0000
0001
0000
,
0001
1000
0010
0100
,
0001
0000
0001
0000
,
0001
0010
0100
1000
,
0100
0000
0010
0000
,
0001
0010
0100
0010
,
0100
0010
0001
0100
,
0001
0100
0001
1000
,
0010
1000
0100
0010
,
0001
0010
0001
0010
,
0100
1010
0000
1000
,
0010
1000
0100
0010
,
0100
1000
0010
0000
,
0010
1000
0001
1000
,
0100
0010
0001
0000
,
0001
0100
0001
0100
,
0000
1000
0000
1000
,
0001
0010
0001
0010
,
0000
1000
0000
1000
,
0001
0010
0100
0010
,
0000
0010
0001
1000
,
0001
1000
0001
0010
,
0100
0010
0110
1000
,
0010
1000
0010
0100
,
0010
0100
0001
0010
,
0100
1000
0001
0100
,
0001
0100
0001
1000
,
0100
0010
0100
0010
,
0001
0010
0001
0100
,
0001
0010
0100
0010
,
0100
0010
0001
1000
,
0001
1000
0020
0000
,
0030
0000
0000
0000
;

//--------------- dance-single - B. M'Rey ----------------
#NOTEDATA:;
#STEPSTYPE:dance-single;
#DESCRIPTION:B. M'Rey;
#CREDIT:B. M'Rey;
#DIFFICULTY:Easy;
#METER:11;
#RADARVALUES:0,0,0,0,0;
#NOTES:
0000
0000
0000
0000
,
0000
0000
0000
0000
,
0001
0100
0010
0100
,
0001
0010
0001
0010
,
0100
1000
0001
1000
,
0100
0010
0100
1000
,
0100
0010
0001
0010
,
0001
1000
0100
0010
,
0100
0000
0000
0000
1000
0000
0000
0000
0001
0000
0000
0001
0000
0000
0001
0000
,
1000
0100
0000
0010
0000
0001
0000
1000
,
0001
0000
0000
0000
1000
0000
0000
0000
0010
0000
0000
0100
0000
0000
0100
0000
,
0010
0001
0100
0010
1001
0000
0110
0000
,
0001
0000
0000
0000
0100
0000
0000
0000
0010
0000
0000
1000
0000
0000
1000
0000
,
0001
0010
0000
1000
0000
0001
0000
1000
,
0100
0000
0000
0000
0010
0000
0000
0000
0100
0000
0000
1000
0000
0000
1000
0000
,
0001
1000
0010
0001
0100
0000
0000
0000
,
0001
0010
0001
0000
0001
1000
0100
0000
,
0001
0100
0001
0000
0100
0010
0001
0000
,
0100
1000
0010
0000
0001
1000
0001
0000
,
0001
0010
0100
0000
1001
0000
0110
0000
,
0001
0010
0001
0000
0100
0010
0001
0000
,
0010
0100
0010
0000
0001
0100
0001
0000
,
0010
1000
0001
0000
0001
1000
0001
0000
,
0010
0100
0010
0000
0001
0100
0001
0000
,
1100
0000
0110
0000
0100
0010
0001
0000
,
0100
0010
0100
0010
,
0001
1000
0100
0000
0100
1000
0001
0000
,
0001
0010
0001
0000
0010
0000
0001
0000
,
1100
0000
0001
0000
0100
1000
0010
0000
,
1100
0000
0110
0000
0010
1000
0200
0000
,
1300
0000
0010
0000
0010
1000
0001
0000
,
0001
0100
0001
0000
0010
1000
0100
0000
,
0001
1000
0010
0000
,
0100
0001
1000
0000
,
0010
0100
1000
0000
,
0010
0100
0001
0000
,
0001
0010
0100
1000
,
0010
0001
0100
0000
0010
0100
1000
0000
,
0100
1000
0010
1000
,
0001
0010
0100
0000
0010
0100
1000
0000
,
0100
0010
0001
1000
,
0100
1000
0010
0000
0001
0010
0100
0000
,
0010
0001
1000
0000
0010
0001
0100
0000
,
0010
1000
0100
0000
0001
0010
0100
1000
,
0100
0000
0000
0000
1000
0000
0000
0000
0010
0000
0000
0100
0000
0000
0100
0000
,
0010
0010
0000
0100
0000
0001
0000
1000
,
0001
0000
0000
0000
0010
0000
0000
0000
0001
0000
0000
0100
0000
0000
0100
0000
,
0010
0100
0000
0010
0000
0100
0000
0010
,
0010
0000
0000
0000
0100
0000
0000
0000
0010
0000
0000
1000
0000
0000
1000
0000
,
0010
1000
0000
0100
0000
0001
0000
0010
,
0010
0000
0000
0000
0100
0000
0000
0000
0001
0000
0000
1000
0000
0000
1000
0000
,
0001
0100
0000
0010
0000
0001
0000
0010
,
0001
0100
0010
1000
,
0001
0100
0000
0010
0000
0001
0000
0100
,
0001
0000
0000
0000
0100
0000
0000
0000
0010
0000
0000
1000
0000
0000
1000
0000
,
0100
0010
0000
0100
0000
0001
0000
0010
,
0001
0010
0001
0000
0100
1000
0010
0000
,
0100
0010
0001
0000
0010
0100
0001
0000
,
0100
0000
0010
0000
0001
0000
0000
0010
0000
0000
1000
0000
0010
0000
0000
0100
,
0000
0000
1000
0000
0100
0000
0000
0010
0000
0000
0001
0000
0010
0000
0100
0000
,
0010
0000
0000
0001
0000
0000
1000
0000
0100
0000
0000
1000
0000
0000
0100
0000
,
0001
0000
0010
0000
0100
0000
0010
0000
0001
2000
0000
0000
3001
0000
0100
0000
,
0010
0000
0010
0100
1000
0000
1000
0001
,
1000
0000
0010
0100
1000
0000
1000
0001
,
1000
0000
0010
0100
1000
0000
0010
0001
,
1000
0000
0110
0000
0110
0000
0010
0001
,
0100
0000
1000
0001
0010
0000
1000
0001
,
1000
0000
0100
0010
1000
0001
0010
0100
,
0010
0000
1000
0010
1000
0000
0010
0001
,
0010
0000
0100
0000
0010
0100
0010
0000
,
0100
0001
0010
0000
0100
0010
0101
0000
,
0110
0000
1100
0000
0000
0000
0100
0001
,
0100
0000
1000
0100
1000
0000
0011
0000
,
0110
0000
1100
0000
0000
0000
0010
0001
,
0010
0000
0010
0100
1000
0000
0011
0000
,
0200
0300
1010
0000
0200
0000
0310
0100
,
1000
0000
1000
0001
0100
0000
0100
0010
,
1000
0000
1000
0001
0100
1000
0010
0000
,
0010
0000
1000
0000
0001
0000
0000
0000
1001
0000
0000
1001
0000
0000
0100
0000
,
0010
0000
0100
0000
0110
0000
0000
0110
0000
0000
1000
0000
0001
0000
0000
0000
,
0001
0000
0010
0000
0100
0000
0000
0000
1100
0000
0000
1100
0000
0000
0101
0000
,
0000
0101
0000
0000
1001
0000
0000
0000
0001
0000
0010
0000
0100
0000
0000
0000
,
0001
0010
0001
0000
0110
0200
0310
0100
,
0010
0000
1000
0000
0200
0000
0000
0300
0100
0000
0010
0000
0100
0000
0000
0000
,
0001
1000
0100
0000
0001
0010
0100
0000
,
0001
0100
0001
0000
0001
1000
0010
1000
,
0010
1000
0100
0010
0200
0000
0000
0000
,
0301
0000
0000
0000
;

//--------------- dance-single - B. M'Rey ----------------
#NOTEDATA:;
#STEPSTYPE:dance-single;
#DESCRIPTION:B. M'Rey;
#CREDIT:B. M'Rey;
#DIFFICULTY:Medium;
#METER:14;
#RADARVALUES:0,0,0,0,0;
#NOTES:
0000
0000
0000
0000
,
0000
0000
0000
0000
,
0001
1000
0100
0010
,
0100
1000
0100
0010
,
0010
0100
0010
0100
0010
1000
0002
0000
,
0013
1000
0100
0010
0001
0010
0002
0000
,
0103
1000
0010
1000
0001
0010
2000
0000
,
3001
1000
0100
1000
0110
0000
0000
0000
,
0100
0010
0100
0010
0100
1000
0001
0100
,
0010
0000
1000
0100
0000
0000
0010
0001
0000
0000
0100
0010
0000
0000
0100
0000
,
0001
0100
0001
1000
0100
0010
0001
1000
,
0001
0100
0010
1000
0101
0000
1001
0000
,
0001
0100
0010
0100
0001
0010
0100
0010
,
0001
0000
0100
0001
0000
0000
1000
0100
0000
0000
1000
0001
0000
0000
0100
0010
,
0000
0100
0010
1000
0100
0010
0001
0010
,
0110
1100
0101
0000
,
0001
0100
0010
1000
0010
1000
0100
0010
,
0100
0010
0001
1000
0010
1000
0100
0010
,
0100
1000
0100
0010
0001
0010
0001
1000
,
0010
1000
0001
1000
0010
0100
0010
1000
,
0100
0010
0001
1000
0001
0100
0001
1000
,
0100
0010
0001
0010
0100
1000
0100
0010
,
0001
0010
0001
0100
0001
1000
0010
1000
,
0100
0010
0100
0010
0100
1000
0010
0100
,
1010
0000
1100
0000
0100
1000
0010
0100
,
0101
1010
0101
1001
,
0001
0100
0010
1000
0010
0100
0010
1000
,
0001
0010
0100
1000
0010
1000
0010
1000
,
0001
0100
0001
0100
0010
1000
0100
1000
,
1001
0000
0110
0000
0001
0010
0002
0000
,
0013
1000
0010
1000
0001
1000
0100
0010
,
0001
0010
0001
1000
0100
0010
0100
1000
,
0010
0000
1000
0000
0010
1000
0100
1000
,
0010
0000
0000
0000
1000
0000
0000
0000
0010
1000
0100
1000
0100
0000
0001
0010
,
0001
0000
0000
0000
0100
0000
0000
0000
0100
0000
0010
0000
0100
0000
0001
0010
,
0100
0000
0000
0000
1000
0000
0000
0000
0001
1000
0001
1000
0010
0000
0000
0000
,
0001
1000
0001
1000
0001
0100
0010
0100
,
0010
0100
0001
1000
0001
1000
0001
0100
,
0010
0100
0010
0100
0001
0010
0100
0010
,
0100
0010
0001
1000
0001
1000
0010
1000
,
0100
0010
0100
0010
0100
1000
0010
0100
,
0010
0100
0010
1000
0100
1000
0100
1000
,
0010
0100
0010
0100
0010
0000
0000
0000
0001
1000
0001
1000
0001
0000
0000
0000
,
0010
0100
0010
0100
0010
0000
0001
0000
0100
0000
1000
0000
0100
0000
0010
0000
,
0001
1000
0100
0010
0100
0010
0001
0100
,
0001
0000
1000
0100
0000
0000
1000
0100
0000
0000
0010
0100
0000
0000
0010
0001
,
0000
0010
0001
1000
0001
1000
0010
1000
,
0010
0000
0100
0010
0000
0000
0100
0001
0000
0000
0010
0001
0000
0000
0010
0001
,
0000
1000
0010
1000
0001
1000
0100
0010
,
0001
0000
0010
0100
0000
0000
0010
0100
0000
0000
1000
0001
0000
0000
1000
0100
,
0000
1000
0001
0010
0100
0010
0001
1000
,
0001
0000
1000
0001
0000
0000
0010
0100
0000
0000
0010
0100
0000
0000
1000
0001
,
0000
1000
0001
1000
0010
0100
0010
0100
,
0010
0000
1000
0100
0000
0000
1000
0010
0000
0000
1000
0010
0000
0000
0100
0010
,
0000
0100
0001
0010
0001
0010
0001
1000
,
0010
0000
0100
0010
0000
0000
0100
0001
0000
0000
0100
0001
0000
0000
0010
0000
,
0100
1000
0100
0000
1000
0000
0000
0000
0100
1000
0100
0000
0001
0000
0000
0000
,
0001
1000
0001
0000
0001
0000
1000
0000
0100
0000
1000
0000
0100
0000
0010
0000
,
0100
1000
0100
0000
0001
0000
0100
0000
0001
0000
0100
0000
0001
0000
0010
0000
,
0100
0010
0100
0010
0001
0100
0001
0010
,
0001
0100
0010
0100
0010
1000
0010
1000
,
0100
0000
1000
0000
0100
0000
0010
0000
0001
1000
0001
1000
0001
0000
1000
0000
,
0001
1000
0001
0100
0010
0100
0010
0100
,
0001
0010
0001
0010
0001
1000
0010
1000
,
0001
1000
0001
0100
0010
0100
0010
0100
,
0001
1000
1001
0000
1001
0000
0010
0100
,
0010
0100
0001
0010
0001
0100
0001
0010
,
0100
0010
0100
1100
2200
0000
3301
0010
,
0001
0010
0100
1000
0100
0010
0100
0010
,
0001
0100
0001
1000
0001
1000
0010
1000
,
0010
0100
0001
1000
0001
1000
0101
0101
,
0101
0000
0100
0000
0010
0000
0000
1000
0000
0000
1000
0000
0001
0000
0100
0000
,
0001
0010
0100
0010
0100
1000
0110
0000
,
0101
0000
0011
0000
0001
0100
0010
0100
,
0010
0100
0001
0010
0001
0010
0110
0000
,
0200
0000
1301
1001
0002
0000
0013
0100
,
0001
1000
0100
0010
0100
1000
0100
1000
,
0001
1000
0001
0100
0001
0100
0001
0100
,
0001
0000
1000
0000
0100
0000
0010
0000
0110
0000
0000
0011
0000
0000
0100
0000
,
0001
0000
0100
0000
0011
0000
0000
1100
0000
0000
1000
0000
0100
0000
1000
0000
,
0100
0000
0010
0000
0001
0000
1000
0000
0110
0000
0000
0000
1010
0000
0000
0110
,
0000
0101
0001
0100
0001
0100
0010
1000
,
0010
0000
1000
0000
0010
0000
0100
0000
0101
0000
0020
0000
0031
1000
0001
1000
,
0001
1000
0001
0000
0020
0000
0000
0000
1030
0000
0100
0000
0001
0000
0100
0000
,
0001
0100
0010
1000
0010
1000
0010
0100
,
0001
0000
0100
0000
0001
0000
0010
0000
0001
0000
0100
0010
0000
0000
0100
0000
,
0010
0000
0100
0001
0000
0000
1000
0000
0010
1000
0010
1000
0010
1000
0010
1000
,
0010
0000
0000
0000
;

//--------------- dance-single - B. M'Rey ----------------
#NOTEDATA:;
#STEPSTYPE:dance-single;
#DESCRIPTION:B. M'Rey;
#CREDIT:B. M'Rey;
#DIFFICULTY:Hard;
#METER:17;
#RADARVALUES:0,0,0,0,0;
#NOTES:
0000
0000
0000
0000
,
0000
0000
0000
0000
,
0001
1000
0010
1000
,
0100
0010
0100
1000
,
1000
0000
0100
0000
1000
0000
0100
0000
0010
0000
0100
0000
1000
0010
1000
0010
,
1000
0000
0001
0000
1000
0000
0010
0000
1000
0000
0010
0000
1000
0001
0100
0001
,
0100
0000
0001
0000
0100
0000
0010
0000
1000
0000
0010
0000
1000
0100
0010
0001
,
1000
0100
1000
0100
1001
0000
0000
0000
,
0100
0001
0100
0001
0100
0000
1000
0010
1000
0000
1000
0100
0000
0100
1000
0001
,
1000
0100
1000
0100
1000
0010
0100
0010
,
0100
0001
1000
0000
0100
0010
1000
0000
1000
0001
0100
0010
0100
0001
1000
0001
,
1000
0010
0001
0010
1001
0000
0110
0000
,
1000
0001
0010
0001
1000
0000
0100
1000
0100
0000
0010
0100
0000
0001
0010
0000
,
1000
0001
0100
0001
0100
0010
0100
0001
,
0010
0001
0010
0001
1000
0000
1000
0010
1000
0000
0100
0010
0000
0001
1000
0000
,
0100
0000
0000
0000
0001
0000
0000
0000
1000
0000
0000
0000
0001
1000
0001
1000
,
0001
0010
1000
0010
1000
0000
0010
0000
0010
0100
0010
0001
0100
0000
0100
0000
,
0010
0100
0010
0100
0010
0000
1000
0000
1000
0001
0100
0010
0100
0000
0100
0000
,
0010
0001
1000
0001
1000
0000
1000
0000
0010
0100
0010
0001
0010
0000
1000
0000
,
1000
0100
1000
0100
0010
0000
0010
0001
0010
0000
1000
0001
1000
0000
1000
0001
,
0010
0001
0010
0001
0100
0000
0100
0000
0100
0001
1000
0001
1000
0000
0010
0000
,
0010
0100
1000
0100
1000
0000
0100
0000
0100
0001
0010
0001
0010
0000
0010
0000
,
1000
0010
1000
0010
1000
0000
0100
0000
0100
0010
1000
0010
1000
0000
1000
0000
,
0010
0100
0010
0001
0010
0000
1000
0001
0000
0100
1000
0000
0010
0100
1000
0010
,
1000
0010
1000
0100
0010
0000
0010
0000
1000
0001
1000
0001
0100
0000
0100
0000
,
1001
1001
1100
0110
,
0010
0001
0010
0001
0010
0000
1000
0000
1000
0100
0010
0001
0010
0000
0010
0001
,
0010
0100
1000
0010
1000
0100
0010
0001
,
0010
0100
1000
0010
0100
0000
1000
0000
0010
0100
0010
0100
1000
0000
0100
0000
,
0011
0000
1100
0000
0011
0110
0220
0000
,
1330
0001
1000
0001
1000
0000
0100
0000
0100
0001
0000
0001
0010
0000
0010
0100
,
0010
0100
0000
0100
1000
0000
0010
0001
1000
0000
1000
0010
0100
0010
0100
0010
,
1000
0001
1000
0100
1000
0100
0010
0100
0010
0000
0001
0000
0010
0000
0001
0000
,
1000
0001
1000
0001
0010
0001
0010
0100
1000
0000
0001
0000
1000
0000
0001
0000
,
1000
0100
1000
0100
1000
0001
0100
0001
1000
0000
0001
0000
1000
0000
0001
0000
,
1000
0001
0100
0001
1000
0001
1000
0010
1000
0000
0001
0000
1000
0001
0010
0001
,
1000
0001
0100
0001
0100
0001
1000
0010
,
1000
0000
0010
0100
1000
0000
0100
0001
0010
0000
0100
1000
0010
0000
0100
0010
,
1000
0010
1000
0010
0100
0010
1000
0001
,
1000
0000
0001
0010
1000
0001
0100
0001
0010
0000
0100
0000
1000
0001
0010
0100
,
1000
0001
1000
0010
0100
0010
0100
0010
,
1000
0000
0001
0010
1000
0000
0001
0010
1000
0000
0010
1000
0100
0000
0001
0100
,
1000
0001
1000
0001
1000
0000
0000
0000
0100
0010
0100
0010
0100
0000
0000
0000
,
1000
0100
1000
0100
0010
0000
0001
0000
1000
0000
0100
0000
1000
0001
0010
0001
,
0010
1000
0010
1000
0010
0000
0001
0100
0001
0000
0001
0010
0000
0010
0001
1000
,
0010
0001
0100
0010
1000
0100
0010
0001
,
0010
1000
0001
0000
0010
0100
0001
0000
0001
1000
0010
0100
0010
1000
0001
1000
,
0100
0010
1000
0100
1000
0010
1000
0100
,
0001
1000
0100
1000
0001
0000
0010
0001
0010
0000
0100
0010
0000
1000
0100
0000
,
0010
0100
1000
0010
0100
0001
0010
0001
,
0100
1000
0100
1000
0001
0000
0001
0100
0001
0000
0010
0100
0000
1000
0001
0000
,
0001
0000
1000
0000
0001
0000
1000
0000
0100
0000
0001
0000
1000
0001
1000
0001
,
0100
0001
0100
0001
0100
0000
1000
0010
1000
0000
1000
0100
0000
0100
1000
0001
,
1000
0100
1000
0100
1000
0010
0100
0010
,
0100
0001
1000
0000
0100
0010
1000
0000
1000
0001
0100
0010
0100
0001
1000
0001
,
1000
0010
0001
0010
1000
0001
0010
0100
,
1000
0001
0100
0001
0100
0000
0000
0000
0010
0100
0010
0100
1000
0000
0000
0000
,
1000
0100
0010
0001
0010
0000
0000
0000
1000
0001
1000
0100
1000
0000
0000
0000
,
0100
0001
0100
0001
0100
0000
1000
0010
1000
0000
1000
0100
0000
0100
1000
0001
,
0100
0001
0100
0001
0100
0000
1000
0010
1000
0000
1000
0100
0000
0100
1000
0001
,
1000
0100
1000
0100
1000
0010
0100
0010
,
0100
0001
1000
0000
0100
0010
1000
0000
1000
0001
0100
0010
1000
0001
1000
0001
,
1000
0000
0010
0000
0010
0001
0010
0100
1000
0000
1000
0000
0010
0001
0010
0001
,
0010
0000
1000
0000
1000
0100
0010
0001
0010
0000
0010
0000
1000
0100
1000
0100
,
0010
0000
0010
0000
1000
0100
1000
0010
1000
0000
0100
0000
0001
0000
0100
0000
,
0010
0000
1000
0000
1001
0000
0000
0000
0011
0000
0000
0000
0010
0100
1000
0100
,
1000
0000
1000
0000
0100
0010
0100
0010
0100
0000
1000
0000
1000
0001
0100
0010
,
1000
0000
0100
0000
0100
0001
0000
0000
2000
0000
0000
0000
3010
0100
0010
0100
,
1000
0000
1000
0000
1000
0010
0100
0010
0100
0000
1000
0000
1000
0001
0100
0010
,
0100
0000
1000
0010
0100
0000
0010
0001
0010
0000
1000
0100
1000
0100
1000
0001
,
0010
0000
0010
0000
0100
0010
0100
0010
0100
0000
0010
0000
0011
0000
1010
0000
,
1010
0000
1000
0100
0010
0000
0010
0100
1000
0000
0000
0000
1000
0100
0010
0100
,
0010
0000
1000
0000
1000
0001
1000
0010
0100
0000
0100
0010
1000
0000
0001
0000
,
0100
0001
0000
0000
0010
0100
0000
0000
0010
0000
0100
0000
1000
0001
1000
0010
,
1000
0000
0100
0000
0100
0001
0100
0010
1000
0000
1000
0000
0110
0000
0000
0000
,
0110
0000
0000
0000
1010
0000
0101
0000
1001
0000
0000
0000
0100
0010
0100
0010
,
1000
0000
0000
0000
1000
0100
0010
0100
0010
0000
0000
0000
0100
0001
0100
0010
,
0100
0000
1000
0000
0010
0001
1000
0001
0100
0001
1000
0010
1000
0000
0100
0000
,
0010
0100
0010
0100
1000
0000
0100
0000
0100
0000
1000
0000
1000
0100
0010
0100
,
0010
0100
0010
0001
0010
0000
0001
0000
1000
0000
0010
0100
0010
0000
0001
0000
,
0100
0010
1000
0010
1000
0000
0100
0000
0100
0001
0000
0010
1000
0000
1000
0010
,
0000
0001
0100
0000
0100
0000
1000
0010
0000
1000
0100
0001
1000
0000
1000
0000
,
0010
0100
1000
0100
0010
0000
0010
0000
0011
0000
1000
0000
0001
1000
0001
0010
,
0100
0010
0100
0001
0200
0000
0000
0000
1300
0000
1000
0000
0010
0100
0010
0001
,
0010
0000
1000
0000
0010
0100
1000
0100
1000
0000
0010
0000
0100
0001
0100
0001
,
0010
0000
0010
0000
0010
0001
0100
0001
0100
0000
1000
0100
0010
0000
1000
0001
,
0010
0000
1000
0100
1000
0000
1000
0001
0100
0001
1000
0001
1000
0010
1000
0010
,
0100
0000
0000
0000
;

//--------------- dance-single - B. M'Rey ----------------
#NOTEDATA:;
#STEPSTYPE:dance-single;
#DESCRIPTION:B. M'Rey;
#CREDIT:B. M'Rey;
#DIFFICULTY:Challenge;
#METER:19;
#RADARVALUES:0,0,0,0,0;
#NOTES:
0000
0000
0000
0000
,
0000
0000
0000
0000
,
1000
0000
0001
0000
1000
0001
1000
0001
1000
0000
0010
0000
0100
0010
0100
0010
0100
0000
0001
0000
1000
0001
1000
0001
1000
0000
0010
0000
0001
0000
1000
0000
,
0100
0000
0000
0000
0000
0000
0010
0000
0000
0000
0000
0000
0100
0000
0000
0010
0000
0000
0100
0000
0000
0010
0000
0000
0100
0000
0000
0000
0000
0000
0001
0000
0000
0000
0000
0000
1000
0000
0000
0001
0000
0000
1000
0000
0000
0001
0000
0000
1001
0000
0000
0000
0000
0000
0000
0000
0000
0101
0000
0000
0000
0000
0000
0000
0000
0000
0220
0000
0000
0000
0000
0000
0000
0000
0000
0000
0000
0000
0000
0000
0000
0000
0000
0000
0331
0000
0010
0000
0001
0000
0010
0000
0001
0000
0010
0000
,
0001
0000
0000
0000
0000
0000
0100
0000
0000
0010
0000
0000
0000
0000
0000
1000
0000
0000
0001
0000
0000
1000
0000
0000
0001
0000
0000
0000
0000
0000
0001
0000
0000
0100
0000
0000
0000
0000
0000
0001
0000
0000
1000
0000
0000
0001
0000
0000
0010
0000
0000
0000
0000
0000
1000
0000
0000
0001
0000
0000
0000
0000
0000
0010
0000
0000
0100
0000
0000
0000
0000
0000
0100
0000
0010
0000
0100
0000
0010
0000
0000
0001
0000
0000
0010
0000
0000
0001
0000
0000
0010
0000
0000
0001
0000
0000
,
0010
0000
0000
0000
0000
0000
0001
0000
0000
0010
0000
0000
0000
0000
0000
0100
0000
0000
0010
0000
0000
0100
0000
0000
0010
0000
0000
0000
0000
0000
0001
0000
0000
1000
0000
0000
0000
0000
0000
0100
0000
0000
0010
0000
0000
0100
0000
0000
0010
0000
0000
0000
0000
0000
1000
0000
0000
0010
0000
0000
0000
0000
0000
0100
0000
0000
1000
0000
0000
0000
0000
0000
0001
0000
0010
0000
0001
0000
0010
0000
0000
0001
0000
0000
0010
0000
0000
0100
0000
0000
1000
0000
0000
0100
0000
0000
,
0010
0000
0000
0000
0000
0000
0100
0000
0000
0010
0000
0000
0000
0000
0000
0100
0000
0000
0001
0000
0000
0010
0000
0000
0100
0000
0000
0000
0000
0000
1000
0000
0000
0010
0000
0000
0000
0000
0000
1000
0000
0000
0001
0000
0000
0010
0000
0000
0001
0000
0000
0000
0000
0000
0010
0000
0000
0001
0000
0000
0000
0000
0000
1000
0000
0000
0100
0000
0000
1000
0000
0000
0100
0000
1000
0000
0100
0000
1000
0000
0000
0100
0000
0000
0010
0000
0000
0001
0000
0000
0010
0000
0000
0100
0000
0000
,
0001
0000
1000
0001
0000
0010
0100
1000
0010
0000
1000
0001
0000
0010
0100
1000
0100
0000
0000
0000
0010
0000
0000
0000
0100
0000
0000
0000
0010
0000
0000
0000
,
0010
0000
1000
0001
1000
0000
1000
0000
0100
0000
0010
0001
0000
0010
0100
0000
,
0001
0000
0100
0001
0010
0000
0100
1000
0001
0000
0010
0100
0001
0000
1000
0010
,
0001
0000
0100
0000
0010
0000
1000
0000
0001
0010
0100
0000
0001
0000
1000
0000
,
0001
0000
1000
0000
0100
0000
1000
0100
0000
0010
0100
0001
0100
0000
0001
0000
,
0010
0000
1000
0100
0001
0000
0100
0010
0001
0000
0100
0010
0000
0001
1000
0000
,
0100
1000
0001
0010
0100
1000
0001
1000
,
0001
0010
0100
0000
0001
0010
1000
0000
0100
0000
0100
0010
0000
0100
1000
0000
,
0001
0000
0010
0000
0001
0000
0010
0000
0001
0100
0001
0100
0010
0000
1000
0001
,
1000
0001
1000
0000
0010
0000
1000
0000
0100
0001
0100
0001
0100
0000
0010
0000
,
0100
1000
0100
1000
0100
0000
0001
0010
0001
0000
0010
0100
0010
0000
0100
1000
,
0100
0000
0010
0000
0001
0010
0001
0010
0001
0000
0100
0000
0100
1000
0001
1000
,
0001
0000
0100
0000
0010
0001
0010
0100
0011
0000
0000
0000
1001
0000
0000
0000
,
0100
0010
0001
0100
0010
0000
1000
0000
0001
0100
0001
1000
0010
0000
1000
0000
,
0001
0000
0010
1000
0010
0000
0010
0100
0001
0000
0001
0100
0010
0000
0010
0100
,
0001
1000
0010
0100
0010
0000
1000
0000
0001
0100
0010
0100
0001
0000
1000
0000
,
0100
0010
0100
0010
0100
0000
0001
0010
0001
0000
0010
0100
0010
0100
0010
0100
,
0010
1000
0100
1000
0010
0000
0001
0010
0001
1000
0001
0100
0010
0000
0001
0010
,
0100
0000
1000
0100
0011
0000
0001
0010
1100
0000
1000
0100
0011
0000
0001
0010
,
0100
0010
0100
0010
0001
0000
0100
0000
0010
1000
0010
1000
0001
0000
1000
0000
,
0001
1000
0100
1000
0100
0000
0001
1000
0100
0000
0001
0000
0100
0000
0001
0000
,
1000
0001
0100
0010
1000
0000
0001
0000
0100
0010
1000
0001
0010
0000
0010
0100
,
1000
0001
1000
0000
0000
0000
0010
0100
0010
0000
0000
0000
0001
0010
0000
0100
1000
0000
0110
0000
0000
0000
0000
0000
,
0011
0000
1010
0000
1010
0000
0101
0000
1000
0010
0000
0001
1000
0000
0010
0100
,
0010
0001
1000
0000
0100
0001
1000
0000
1000
0010
0100
0000
0100
0010
0100
0010
,
0100
0000
0010
0100
1000
0000
0100
0000
0010
0000
0001
0010
0100
0000
0001
0000
0000
0000
0110
0000
0000
0000
1010
0000
0000
0000
0100
0000
0001
0000
0100
0000
,
0010
0000
0001
0000
0100
0010
0100
0000
0010
0000
0100
1000
0000
1000
0100
0000
0010
0000
1000
0000
0010
0000
0100
0000
0010
0000
0100
0000
0010
0000
1010
0000
,
0110
0000
0010
0000
0001
0100
0000
0010
0001
0000
0100
0000
0010
0100
0000
0100
0010
0000
0011
0000
0000
0000
1010
0000
0000
0000
0100
0000
0001
0000
1000
0000
,
0010
0000
0100
0001
0100
0000
0001
1000
0000
0100
0010
0100
0001
0000
0010
1000
0100
0000
0001
0000
0100
0000
0001
0000
0100
0000
0001
1000
0010
0000
0100
0010
,
0100
0000
1000
0010
1000
0000
1000
0100
0010
0000
0010
0100
1000
0000
1000
0001
,
1000
0000
0100
0010
0100
0000
1000
0001
1000
0000
1000
0100
0010
0000
0010
0001
,
0010
0000
0100
0010
0100
0000
1000
0010
1000
0000
1000
0001
0100
0000
0100
0010
,
0100
0000
0001
0000
0100
0000
0001
0100
0000
0001
0100
0000
0010
0000
1000
0010
,
1000
0000
1000
0001
1000
0000
1000
0100
0010
0000
0010
0100
1000
0000
1000
0001
,
1000
0000
0010
0100
0010
0000
1000
0001
1000
0000
1000
0100
0010
0000
0010
0001
,
0010
1000
0010
1000
0010
0000
0000
0000
0001
1000
0001
0100
0001
0000
0000
0000
,
0001
1000
0001
1000
0010
0000
0101
0000
0110
0000
1100
0000
0001
1000
0001
1000
,
0001
0000
0100
0001
0100
0000
0010
0000
0100
1000
0100
0000
0100
0010
0000
1000
,
0010
0000
1000
0100
1000
0000
0010
0100
0010
0000
0010
0001
0010
0000
0010
0001
,
0010
0000
1000
0010
1000
0000
1000
0000
0100
0010
0000
0100
0001
0000
0010
0001
,
0100
0000
0001
0000
0010
0000
0100
0010
0001
0000
1000
0000
0100
0000
0010
0001
,
0100
0000
0010
0001
0010
0000
0100
0000
0010
0100
1000
0000
0001
1000
0000
1000
,
0100
0000
1000
0010
1000
0000
0100
0001
0100
0000
0010
0100
0010
0000
1000
0010
,
1000
0000
0001
0100
0001
0000
0010
0000
0001
1000
0001
0000
0010
1000
0000
1000
,
0001
0000
0010
0000
0001
0000
1000
0010
0001
0000
0100
0000
0010
0000
0100
0001
,
0010
0000
0100
0000
0001
1000
0001
0000
0100
0000
1000
0001
0000
1000
0010
0000
,
0100
0001
0010
0000
0001
1000
0010
0000
0001
0100
1000
0000
0010
0001
0100
0000
,
0010
0000
0100
1000
0010
0000
1000
0000
0100
0010
0000
0010
0001
0000
0100
0000
,
0010
0000
0100
0001
0100
0000
0100
0010
0100
0000
1000
0001
1000
0000
0100
0010
,
0001
0100
0001
0100
0001
0010
0000
0000
0010
1000
0100
0010
0100
1000
0000
0000
,
0100
1000
0100
1000
0010
1000
0000
0000
0001
1000
0010
0100
0001
1000
0000
0000
,
0010
0100
0010
1000
0100
0000
0001
0000
0100
0000
0010
0001
0000
0100
1000
0000
,
0010
0000
0100
0001
0000
0010
1000
0000
0100
0000
0100
0001
0010
0001
1000
0010
,
1000
0100
0010
0001
0010
0000
0100
0000
1000
0100
1000
0010
0000
0100
0010
0001
,
0010
0000
0101
0000
1010
0000
0110
0000
1001
0001
1000
0001
0010
1000
0100
0000
,
1000
0000
0001
0000
0010
1000
0100
0010
0100
1000
0010
0000
0100
0000
0100
0010
,
0100
0000
0100
1000
0010
0000
0100
0001
0010
0000
0001
0010
0100
0000
0001
0000
,
0010
0000
0010
0100
0010
0100
0010
0000
1000
0000
0100
1000
0101
0000
0011
0000
,
0110
0000
1010
0000
1000
0100
0010
0000
1000
0100
0010
0000
0100
1000
0001
1000
,
0010
0000
0100
0000
0001
1000
0001
1000
0001
0010
0100
0000
1000
0000
0001
0100
,
0001
0000
0000
0000
0000
0000
0010
0000
0000
1000
0000
0000
0100
0000
0000
0000
0000
0000
0001
0000
0100
0000
0000
0000
0010
0000
1000
0000
0000
0000
0100
0000
0010
0000
0000
0000
0010
0000
0000
1000
0000
0000
0001
0000
0000
1000
0000
0000
,
0001
0000
0100
0000
0010
0100
0010
1000
0010
0000
0001
0000
0010
1000
0010
0100
,
0001
0000
0010
0000
0100
0000
0100
1000
0010
0100
0010
1000
0100
0000
0010
0000
,
0001
0000
0000
1000
0000
0000
0001
0000
0000
0100
0000
0000
0001
0000
0000
0000
0000
0000
1000
0000
0000
0000
0000
0000
0100
0000
0000
0010
0000
0000
0100
0000
0000
0010
0000
0000
0010
0000
0001
0000
0000
0000
0001
0000
1000
0000
0000
0000
,
0010
0000
0100
0000
0000
0000
0100
0000
0010
0000
0000
0000
1000
0000
0001
0000
1000
0000
0001
0000
0000
0000
0010
0000
0100
0000
0010
0000
0100
0000
0001
0000
0000
0000
0000
0000
0100
0000
0000
0010
0000
0000
0100
0000
0000
0010
0000
0000
,
0100
0000
0100
0000
0100
0010
0100
0010
0100
0000
0010
0000
0110
0000
1100
0000
,
0101
0000
0010
0100
1000
0000
0100
0001
0010
0000
0100
1000
0010
0100
0001
0100
,
0001
0000
0000
0000
0000
0000
0001
0000
0000
0000
0000
0000
0010
0000
0000
1000
0000
0000
0100
0000
0000
1000
0000
0000
0001
0000
0000
0000
0000
0000
0001
0000
0000
0000
0000
0000
1000
0000
0001
0000
0000
0000
0010
0000
0000
0000
0000
0000
,
0110
0000
0000
0000
0000
0000
0010
0000
0000
0000
0000
0000
0100
0000
0001
0000
0000
0000
0001
0000
0100
0000
0000
0000
0110
0000
0000
0000
0000
0000
0000
0000
0000
0000
0000
0000
0001
0000
0000
0010
0000
0000
0100
0000
0000
0000
0000
0000
,
0001
1000
0100
0000
0100
1000
0100
0010
0001
0010
0100
1000
0100
0010
0100
0000
,
1001
0000
0100
0000
1000
0000
0100
0001
0100
1000
0010
1000
0010
0000
0001
0000
,
0100
0000
0000
1000
0000
0000
0100
0000
0000
0010
0000
0000
0100
0000
0000
0000
0000
0000
0001
0000
0000
0000
0000
0000
1000
0000
0001
0000
0000
0000
0100
0000
0000
0000
0001
0000
1000
0000
0000
0010
0000
0000
0100
0000
0000
0010
0000
0000
,
0100
0000
0000
0010
0000
0000
0100
0000
0010
0000
0000
0000
1000
0000
0001
0000
0000
0000
0001
0000
1000
0000
0000
0000
0001
0000
0000
0100
0000
0000
0010
0000
0000
0100
0000
0000
0001
0000
0000
0000
0000
0000
0010
0000
0000
0000
0000
0000
,
0100
1000
0001
0100
0010
0000
1000
0000
0100
1000
0100
0010
0001
0000
0010
0000
,
0100
1000
0010
0100
0010
0000
1000
0100
0001
0010
0001
1000
0010
0000
0001
0000
,
0010
0000
0000
1000
0000
0000
0010
0000
0000
1000
0000
0000
0010
0000
0000
0100
0000
0000
0001
0000
0000
0010
0000
0000
1000
0000
0001
0000
0000
0000
1001
0000
0000
0000
0000
0000
0010
0000
0000
0100
0000
0000
0010
0000
0000
0100
0000
0000
,
0010
1000
0001
1000
0100
0000
0010
0000
0100
1000
0001
1000
0001
0000
0001
0000
,
0010
1000
0100
1000
0100
0000
0001
0000
0100
0010
0100
1000
0001
0100
0001
0100
,
0001
0000
0000
1000
0000
0000
0010
0000
0000
0100
0000
0000
0010
0000
0000
1000
0000
0000
0010
0000
0000
0100
0000
0000
1000
0000
0010
0000
1000
0000
0010
0000
0000
0100
0000
0000
0000
0000
0000
1000
0000
0000
0010
0000
0000
0001
0000
0000
,
1000
0000
0001
0000
1000
0000
0001
0000
0000
0010
0000
0000
0000
0000
0000
0100
0000
0000
0010
0000
0000
0001
0000
0000
0100
0000
0001
0000
0100
0000
0001
0000
0100
0000
0001
0000
0100
0000
0001
0000
0100
0000
0001
0000
0100
0000
0001
0000
,
0100
0000
0000
0000
;
