#TITLE:You Are The Miserable;
#ARTIST:t+pazolite;
#GENRE:HARDCORE;
#MUSIC:You Are The Miserable.ogg;
#BANNER:You Are The Miserable-bn.png;
#BACKGROUND:You Are The Miserable-bg.png;
#CDTITLE:./CDTITLES/Dance Dance Revolution SPACE.PNG;
#SAMPLESTART:37.167;
#SAMPLELENGTH:15.000;
#OFFSET:-0.364;
#BPMS:0.000=163.031;

//--------------- dance-single - B. M'Rey ----------------
#NOTES:
     dance-single:
     B. M'Rey:
     Beginner:
     6:
     0,0,0,0,0:
0000
0000
0000
0000
,
2000
0000
0000
0000
,
0000
0000
0000
0000
,
3200
0000
0000
0000
,
0000
0000
0000
0000
,
0302
0000
0000
0000
,
0000
0000
0000
0000
,
2003
0000
0000
0000
,
0000
0000
0000
0000
,
3100
0000
0100
0000
,
0010
0000
0010
0000
,
1001
0000
0001
0000
,
1001
0000
1001
0000
,
0010
0000
0100
0000
,
1010
0000
0100
0000
,
1001
0000
0000
0101
0000
0000
0110
0000
,
0000
0000
0000
0000
,
1000
0000
0001
0000
,
0100
0000
0010
0000
,
1000
0000
0100
0000
,
1000
0000
0010
0000
,
0100
0000
0001
0000
,
0010
0000
1000
0000
,
0001
0000
1000
0000
,
1001
0000
0000
0000
,
1000
1000
1000
0000
,
0010
0010
0100
0000
,
0001
0001
0010
0000
,
1000
1000
0100
0000
,
0010
0010
0100
0000
,
0001
0001
0010
0000
,
1000
1000
0100
0000
,
0010
0000
1000
0000
,
0001
0010
0100
0000
,
1000
0100
0010
0000
,
0001
1000
0010
0000
,
1000
0100
0001
0000
,
0001
1000
0100
0000
,
0010
0100
0001
0000
,
1000
0010
0100
0000
,
0001
0000
1000
0000
,
0020
0000
0000
0000
,
0000
0000
0000
0000
,
0230
0000
0000
0000
,
0000
0000
0000
0000
,
2300
0000
0000
0000
,
0000
0000
0000
0000
,
3002
0000
0000
0000
,
0000
0000
0000
0000
,
1003
0000
0010
0000
,
0100
0000
0001
0010
,
1000
0000
0100
0000
,
0010
0000
1000
0100
,
0001
0000
0010
0000
,
0100
0000
1000
0010
,
0100
0000
0001
0000
,
1000
0001
0100
0000
,
1001
0000
0010
0000
,
0101
0000
0010
0000
,
1001
0000
0010
0000
,
0010
0000
1000
0000
,
1001
0101
0110
0000
,
1001
0110
1010
0000
,
1001
1001
1001
1001
,
0000
0000
0000
0000
,
1000
0000
0001
0000
,
0100
0000
0010
0110
,
0001
0000
1000
0000
,
0010
0000
0100
0110
,
1000
0000
0001
0000
,
0100
0000
0010
0101
,
0010
0000
1000
0000
,
0010
1000
0001
0000
,
1000
0001
1001
0000
,
0010
0100
0101
0000
,
0010
1000
1010
0000
,
0100
0010
1001
0000
,
0101
0000
1010
0000
,
0101
0000
1010
0000
,
0101
0000
1010
0000
,
1001
0000
0000
0000
,
1000
0000
0001
0000
,
0100
0000
0010
1000
,
0100
0000
0001
0000
,
0010
0000
0100
0001
,
1000
0000
0010
0000
,
0100
0000
1000
0010
,
0100
0000
0001
0000
,
1000
0000
0010
0000
,
1000
1000
1000
1000
,
0001
0001
0001
0001
,
0100
0100
0100
0100
,
0010
0010
0010
0010
,
1000
0001
1000
0010
,
0100
0001
1000
0010
,
0100
0001
1000
0010
,
0100
0001
0010
0100
,
1001
0000
0100
0000
,
0010
0000
0010
0000
,
1001
0000
0001
0000
,
1001
0000
1001
0000
,
0010
0000
0100
0000
,
1010
0000
0100
0000
,
1001
0000
0000
0101
0000
0000
0110
0000
,
1000
0001
1000
0001
,
2000
0000
0000
0000
,
0002
0000
0000
0000
,
3003
0000
0000
0000
;

//--------------- dance-single - B. M'Rey ----------------
#NOTES:
     dance-single:
     B. M'Rey:
     Easy:
     8:
     0,0,0,0,0:
0000
0000
0000
0000
,
2000
0000
0000
0000
,
0000
0000
0000
0000
,
3020
0000
0000
0000
,
0032
0000
0000
0000
,
0203
0000
0000
0000
,
2300
0000
0000
0000
,
3020
0000
0000
0000
,
0032
0000
0000
0000
,
1003
0001
0100
0000
,
0001
1000
0010
0000
,
0001
0100
1000
0000
,
1001
0110
0101
0000
,
0010
1000
0010
0000
,
0100
0010
0001
0000
,
1000
0010
0100
0000
,
1001
0000
0000
0000
,
1000
0001
1000
0001
,
0100
0010
0100
0010
,
1000
0100
1000
0100
,
0010
0100
0010
0100
,
0001
0010
0001
0010
,
1000
0100
1000
0100
,
0001
1000
0001
1000
,
2002
0000
0000
3003
,
0001
0000
1000
0000
0010
0000
0100
0001
,
0010
0000
1000
0000
0010
0000
0100
0001
,
1000
0000
0010
0000
0100
0000
0010
1000
,
0100
0000
0010
0000
0100
0000
0001
0100
,
0010
0000
1000
0000
0100
0000
0010
1000
,
0100
0000
0010
0000
1000
0000
0001
0100
,
0010
0000
1000
0000
0100
0000
0010
0100
,
1000
0001
0100
1000
,
0010
0000
1000
0000
0001
0000
1000
0001
,
1000
0010
0100
0001
,
1001
0000
0010
0000
0100
0001
0100
0000
,
0010
1000
0001
1000
,
0010
0000
0100
0000
0001
0000
1000
0001
,
1000
0010
0100
1010
,
0001
0000
0100
0000
0010
0100
0010
0000
,
0001
1000
0010
0100
,
0002
0000
0000
0000
,
2003
0000
0000
0000
,
3200
0000
0000
0000
,
2300
0000
0000
0000
,
3020
0000
0000
0000
,
0230
0000
0000
0000
,
0302
0000
0000
0000
,
0023
0000
0000
0000
,
1030
0000
1000
0000
,
0001
0000
0001
0001
,
0010
0000
0100
0000
,
0010
0000
1000
0001
,
0010
0000
0100
0000
,
0010
0000
1000
0001
,
0010
0000
0100
0000
,
0010
0000
1000
0100
,
0001
0000
1000
0000
,
0001
0000
1000
0001
,
1000
0001
1000
0010
,
0100
0001
1000
0010
,
1001
0110
0101
1010
,
0110
0101
1010
0101
,
1010
0110
0101
0110
,
1010
0000
0000
0000
,
1000
0001
1000
0001
,
1000
0001
1000
1001
,
0001
1000
0001
1000
,
0001
1000
0001
1001
,
0010
0100
0010
0100
,
0010
0100
0010
0110
,
0010
0100
0010
0100
,
0010
0100
0010
0110
,
0010
0100
0001
0010
,
1000
0100
1001
0110
,
0001
0010
1000
0100
,
0010
1000
1010
0101
,
0010
0100
0010
1000
,
0100
0010
1010
0101
,
0010
0100
0010
0100
,
0011
0000
1100
0000
,
0010
0100
0001
1000
,
0010
0000
0100
0000
0001
0000
1000
0001
,
1000
0010
0100
0010
,
1000
0000
0100
0000
1000
0000
0001
0010
,
0001
1000
0010
0100
,
0010
0000
1000
0000
0100
0000
1000
0100
,
1000
0010
0100
0001
,
0010
1000
0001
0010
,
1001
0010
0100
0010
,
1001
0010
0100
0010
,
1010
0100
0010
0100
,
0101
0010
1000
0100
,
0110
0001
0010
0001
,
1001
0010
0100
0010
,
1001
0010
0101
0010
,
1010
0010
0101
0010
,
2020
0000
0000
0000
0000
0000
0000
3030
,
0100
0000
0000
0000
,
1001
0000
0000
0000
0000
0000
0000
0001
,
1000
0000
0000
0000
,
0110
0000
0000
0000
0000
0000
0000
0001
,
1000
0000
0000
0000
,
0110
0000
0000
0000
,
0001
1000
0010
0100
,
2002
0000
0000
0000
,
0000
0000
0000
0000
,
3003
0000
0000
0000
;

//--------------- dance-single - B. M'Rey ----------------
#NOTES:
     dance-single:
     B. M'Rey:
     Medium:
     12:
     0,0,0,0,0:
0000
0000
0000
0000
,
0200
0000
0000
0000
,
0320
0000
0000
0000
,
0032
0000
0000
0000
,
0203
0000
0320
0000
,
0230
0000
0000
0000
,
0320
0000
0000
0000
,
0230
0000
0302
0000
,
2003
0000
0000
3000
,
1001
0000
0100
1000
0001
0000
0010
0100
,
1001
0000
0001
0100
0010
0000
0001
1000
,
1100
0000
0010
0100
0001
0000
0100
1000
,
0010
0000
0010
1000
0001
0010
0001
0010
,
0101
0000
0010
1000
0001
0000
0001
1000
,
0101
0000
0010
0100
0001
0000
0001
0100
,
0101
0000
0010
1010
0000
0100
1010
0000
,
0100
0001
0020
0000
,
0031
1000
0001
0100
0001
0000
0010
0000
,
0010
1000
0010
0100
0001
0000
1000
0000
,
0001
1000
0100
1000
0100
0000
0010
0000
,
0001
0010
0001
0000
0001
0100
0010
0000
,
0010
0100
0010
0100
0001
0000
1000
0000
,
0100
1000
0100
1000
0010
0000
0200
0000
,
0010
0001
0001
0001
,
0002
0000
0000
0303
,
0001
1000
0001
1000
0001
0100
0010
0100
,
0001
0100
0010
1000
0001
1000
0001
0000
,
0100
0010
0001
0010
0001
0010
0100
1000
,
0010
1000
0010
1000
0100
0000
0010
0000
,
0100
1000
0001
1000
0010
1000
0010
0100
,
0010
0100
0001
0100
0001
1000
0100
0000
,
0100
1000
0001
0100
0001
0010
0001
0010
,
0100
1000
0100
1010
,
0010
0100
0010
0100
0001
0100
0001
0010
,
0001
1000
0010
0100
0010
0100
0010
1000
,
0001
1000
0001
1000
0100
0010
0100
0010
,
0100
1000
0010
0100
0010
0100
0010
1000
,
0001
0010
0001
1000
0001
1000
0100
0010
,
0100
0010
0100
1000
0001
1000
0001
0010
,
0001
0010
0100
1000
0100
1000
0100
0010
,
0001
0010
0001
0010
0100
1000
0100
1000
,
0020
0000
0000
0000
,
0230
0000
0000
0000
,
0301
0000
0000
1000
0000
0000
0010
0000
0100
0000
0000
0010
0000
0000
0100
0000
,
0001
0000
0000
1000
0000
0000
0010
0000
0100
0000
0000
0000
0001
0000
0000
0000
,
0010
0000
0000
1000
0000
0000
0010
0000
0100
0000
0000
0001
0000
0000
1000
0000
,
0010
0000
0000
0100
0000
0000
0010
0000
0100
0000
0001
0000
1000
0000
0000
0000
,
0010
0000
0000
0100
0000
0000
0001
0000
1000
0000
0000
0010
0000
0000
0100
0000
,
0001
0000
0000
1000
0000
0000
0100
0000
0010
0000
0000
0000
0100
0000
0000
0000
,
0001
0000
0000
1000
0000
0000
0010
0000
0100
0000
0000
0010
0000
0000
0100
0000
,
0001
0000
0000
0010
0000
0000
1000
0000
0010
0000
0000
0000
1000
0000
0000
0000
,
0001
0000
0000
0100
0000
0000
0010
0000
0100
0000
0000
0001
0000
0000
1000
0000
,
0010
0000
0000
0100
0000
0000
0010
0000
0100
0000
0000
0000
0001
0000
0000
0000
,
0010
0000
0000
1000
0000
0000
0010
0000
0100
0000
0000
0010
0000
0000
1000
0000
,
0001
0000
0000
0100
0000
0000
0010
0000
0100
0000
0000
0000
0001
0000
0000
0000
,
1000
0000
0000
0010
0000
0000
0100
0000
0010
0000
0000
0100
0000
0000
0001
0000
,
1000
0000
0010
0000
0100
0001
0100
0010
,
1001
0101
0110
0101
,
1010
0000
0110
0000
0101
0000
0010
1000
,
0001
0110
0101
0110
,
1010
0011
0110
1010
,
1001
0110
0101
1010
,
0110
0101
1010
0101
,
0001
0000
1000
0000
0001
0000
1000
0000
0001
1000
0001
1000
0001
1000
0001
1000
,
0002
0000
0000
0003
,
0010
0000
0100
0010
0000
0100
0010
0000
0100
0010
0100
1000
,
0001
0000
0001
0100
0000
1000
0100
0000
0001
0100
0000
0000
,
0100
0000
0100
0010
0000
1000
0001
0000
0100
1000
0000
0010
,
0100
0000
0010
1000
0000
0100
0001
0000
0100
0010
0000
0000
,
0100
0000
0100
1000
0000
0100
0001
0000
0001
0100
0000
1000
,
0100
0000
0001
1000
0000
1000
0100
0000
0001
0100
0000
0000
,
0100
0000
0001
0100
0000
0010
0001
0000
0010
1000
0000
0010
,
0001
0000
0000
1000
0000
0000
0001
1000
0001
1000
0001
1000
,
0001
0000
0000
0000
0010
0000
1000
0001
1000
0000
0000
0000
0001
0000
0010
0100
,
0010
0000
0000
0000
1000
0000
0001
0010
0001
0000
0000
0000
1000
0000
0010
0000
,
0100
0000
0000
0000
1000
0000
0001
0010
0001
0000
0000
0000
1000
0000
0010
0100
,
0010
0000
0000
0000
0001
0000
1000
0100
1000
0000
0000
0000
0100
0000
0000
0000
,
0010
0000
0000
0000
1000
0000
0001
0010
0001
0000
0000
0000
0001
0000
0100
0010
,
0100
0000
0000
0000
0010
0000
1000
0100
1000
0000
0000
0000
0100
0000
0000
0000
,
0010
1000
0100
0010
,
0001
1000
0100
1000
0110
0000
0101
0000
,
0001
1000
0001
0100
0001
0100
0010
0100
,
0010
1000
0010
1000
0100
1000
0100
0010
,
0100
0010
0001
0010
0001
1000
0001
0100
,
0010
0100
0010
0100
0001
0010
0001
0010
,
0110
0011
1100
0110
,
1010
1100
0110
0101
,
1010
0101
0110
1010
,
0010
0100
0010
1000
0101
0000
1001
0000
,
0100
1000
0100
1000
0010
1000
0001
0000
,
0001
0100
0001
1000
0100
1000
0100
0000
,
0010
0100
0010
0100
0001
1000
0100
0000
,
0100
1000
0001
0010
0001
0010
0001
0000
,
0010
1000
0010
0000
0001
0100
0001
0000
,
0001
0010
0100
0010
0001
0010
0100
0000
,
0100
1000
0010
0100
0010
0100
0010
1000
,
0100
0010
0100
0010
0100
0010
0100
0010
0100
0010
0100
0010
0100
0010
0100
0000
,
1001
0000
0100
1000
0001
0000
0010
0100
,
1001
0000
0001
0100
0010
0000
0001
1000
,
1100
0000
0010
0100
0001
0000
0100
1000
,
0010
0000
0010
1000
0001
0010
0001
0010
,
0101
0000
0010
1000
0001
0000
0001
1000
,
0101
0000
0010
0100
0001
0000
0001
0100
,
0101
0000
0010
1010
0000
0100
1010
0000
,
0011
0101
1010
0011
,
2002
0000
0000
0000
0000
0000
0000
3003
,
0001
1000
0001
1000
0001
0010
0100
0010
,
0100
0000
0000
0000
;

//--------------- dance-single - B. M'Rey ----------------
#NOTES:
     dance-single:
     B. M'Rey:
     Hard:
     15:
     0,0,0,0,0:
0000
0000
0000
0000
,
1000
0000
0000
0000
,
0010
0000
0000
0000
,
0100
0000
0000
0000
,
0001
0000
0000
0000
,
0010
0000
0000
0000
,
0001
0000
0000
0000
,
0100
0000
0000
0000
,
0010
0000
0000
0000
,
1000
0000
0001
1000
0001
0000
0010
0000
0100
0010
0100
0000
0001
0000
1000
0000
,
0010
0000
1000
0010
1000
0000
0010
0000
0001
0010
0001
0000
0010
0000
0100
0000
,
0010
0000
0100
0010
0100
0000
0010
0000
0001
1000
0001
0000
0100
0000
1000
0000
,
0110
0000
0001
1010
0000
0100
1010
0000
,
0010
0000
0100
0001
0100
0000
0010
0000
0001
1000
0001
0000
0100
0000
0010
0000
,
0001
0000
1000
0100
1000
0000
0010
0000
0100
0010
0100
0000
0010
0000
1000
0000
,
0110
0000
0001
1001
0000
0010
0220
0000
,
0000
0000
0000
0000
0000
0000
0000
0330
,
0010
0000
1000
0100
1000
0000
0001
0000
0100
0000
0000
0000
0001
0000
0000
0000
,
0001
0000
0010
0001
0010
0000
1000
0000
0100
0000
0000
0000
1000
0000
0000
0000
,
0100
0000
1000
0001
1000
0000
0010
0000
0100
0000
0000
0000
0010
0000
0000
0000
,
0001
0000
0100
0010
0100
0000
1000
0000
0001
0000
1000
0100
1000
0000
0000
0000
,
0001
0000
0010
0001
0010
0000
0100
0000
0010
0000
0000
0000
1000
0000
0000
0000
,
0100
0000
0010
0100
0010
0000
0000
0000
1000
0000
0000
0000
0001
0000
0000
0000
,
1000
0010
0100
0010
,
2002
0000
0000
3003
,
0100
1000
0010
1000
0001
0010
0100
1000
,
0001
0000
1000
0000
0010
0000
1000
0000
0001
0000
1000
0001
1000
0000
0001
0000
,
0100
0010
0100
0001
0010
0100
0010
0001
,
1000
0000
0001
0000
0010
0000
0100
0000
0100
1000
0100
1000
0001
1000
0001
0010
,
0001
1000
0010
0100
0001
0010
0001
0010
,
0100
0000
0010
0000
0100
0000
1000
0000
0001
0000
1000
0001
0010
0000
1000
0000
,
0100
1000
0100
1000
0010
0100
0010
1000
,
0001
1000
0010
0110
,
0001
0100
0001
0100
0001
1000
0100
1000
,
0100
0000
1000
0000
0001
0000
0100
0000
0010
0000
0010
1000
0001
0000
0001
0000
,
1000
0001
1000
0010
0100
0001
0100
0001
,
0010
0000
0001
0000
1000
0000
0010
0000
0001
1000
0001
1000
0010
1000
0010
0100
,
1000
0001
1000
0001
0100
0001
0100
0010
,
0100
0000
0010
0000
1000
0000
0010
0000
0001
0000
0001
1000
0001
0000
1000
0000
,
0001
0010
0001
1000
0010
1000
0010
1000
,
0001
1000
0001
1000
0001
0010
0100
0010
0001
0010
0001
0100
0010
0100
0010
1000
,
0001
0000
0000
0000
,
1000
0000
0000
0010
0000
0000
0001
0000
1000
0000
0001
1000
0001
0000
0000
0000
,
0010
0000
0000
0100
0000
0000
0010
0000
1000
0000
0000
0010
0000
0000
0100
0000
,
0010
0000
0000
0100
0000
0000
0010
0000
0100
0000
0010
0100
0010
0000
0100
0000
,
1000
0000
0000
0001
0000
0000
1000
0000
0010
0000
0000
0100
0000
0000
0010
0000
,
1000
0000
0000
0010
0000
0000
0100
0000
0001
0000
1000
0001
1000
0000
0000
0000
,
0010
0000
0000
0100
0000
0000
0010
0000
0100
0000
0000
0001
0000
0000
0010
0000
,
1000
0000
0001
1000
0000
0001
1000
0000
0001
0000
1000
0001
1000
0001
1000
0001
,
1000
0000
0000
0010
0000
0000
0100
0000
0010
0000
0000
0100
0000
0000
0001
0000
,
0010
0000
0000
1000
0000
0000
0010
0000
0100
0000
0010
1000
0010
0000
0000
0000
,
0010
0000
0000
0100
0000
0000
0001
0000
0010
0000
0000
1000
0000
0000
0010
0000
,
0100
0000
0000
0001
0000
0000
1000
0000
0010
0000
1000
0000
0001
1000
0001
1000
,
0001
0000
0000
0010
0000
0000
0100
0000
0010
0000
0000
0100
0000
0000
0001
0000
,
0010
0000
0000
1000
0000
0000
0010
0000
0100
0000
0010
0100
0010
0000
0000
0000
,
0001
0000
0000
0010
0000
0000
1000
0000
0010
0000
0000
0100
0000
0000
0001
0000
,
0010
0000
0001
1000
0000
1000
0001
0000
0001
1000
0001
1000
0001
0100
0010
0000
,
1010
0000
0000
0000
0010
0000
0100
0000
0001
0100
0001
0010
0001
0010
0100
1000
,
0001
0000
1000
0000
0010
0000
0100
0000
0010
0000
0001
1000
0001
1000
0001
1000
,
0001
0000
1000
0000
0010
0000
0100
0000
0010
0000
0100
0000
0001
1000
0001
1000
,
0001
0000
1000
0000
0010
0000
0100
0000
0010
0000
0100
0000
0001
0010
0001
0000
,
1001
0110
0101
1010
,
0110
0101
0110
1001
,
0001
1000
0001
1000
0001
0010
0100
0010
0001
0010
0001
1000
0001
1000
0100
0000
,
2002
0000
0000
3003
,
0001
0000
0001
1000
0001
0010
0100
0000
0010
1000
0100
1000
,
0010
0000
0010
0100
0001
0010
0001
0000
0001
1000
0010
0000
,
0010
0000
0100
1000
0100
1000
0010
0000
0010
0100
0001
0100
,
0001
0000
0001
0010
0100
0010
0001
0000
0001
0100
0000
1000
,
0100
0000
0100
1000
0001
0010
0001
0000
0001
0100
0010
0100
,
0010
0000
0001
1000
0001
1000
0001
0000
0010
0100
0010
0000
,
0001
0000
0001
1000
0001
0010
0100
0000
0100
1000
0100
1000
,
0001
0000
0000
0000
1000
0000
0000
0000
0001
0000
0000
0000
0010
0000
0000
0000
0001
0000
0000
0000
0010
0000
0000
0000
0001
0000
0000
1000
0000
0000
0001
0000
0000
1000
0000
0000
0001
0000
0000
0010
0000
0000
0100
0000
0000
0010
0000
0000
,
0001
0000
0010
0000
1000
0000
1000
0001
1000
0000
0001
0000
1000
0000
0001
0010
,
0001
0000
1000
0000
0001
0000
0010
0100
0001
0000
1000
0000
0001
0000
1000
0000
,
0001
0000
0100
0000
0010
0000
0001
0010
0001
0000
1000
0000
0010
0000
0100
0010
,
0001
0000
1000
0000
0001
0000
1000
0100
0001
0000
1000
0000
1001
0000
0000
0000
,
0011
0110
1100
0101
,
0011
0110
1001
1100
,
1010
0110
1010
1100
,
0010
1000
0001
1000
1100
0000
0110
0000
,
0010
1000
0010
1000
0001
1000
0001
0100
,
0001
0000
0100
0000
0010
0000
0100
0000
0010
0000
0001
1000
0001
0000
0100
0000
,
0001
0100
0001
1000
0010
0100
0010
0100
,
0010
0000
1000
0000
0001
0000
0100
0000
0001
0000
0001
1000
0001
0010
0001
0010
,
1001
1000
0110
0100
0011
0010
1100
1000
,
0011
0000
0010
0000
0110
0000
0010
0000
0110
0000
1000
0001
0010
0000
0000
0000
,
0100
0010
0001
0010
0001
0100
0010
0100
,
0001
0100
0010
1000
0110
0000
0101
0000
,
0001
0010
0001
0000
0001
1000
0010
0000
0010
1000
0100
0000
0100
0010
0100
0000
,
0010
1000
0001
0000
0001
0100
0001
0000
0010
1000
0010
0000
0001
0010
0001
0000
,
0001
1000
0010
0000
0001
1000
0001
0000
0001
0010
0100
0000
0100
1000
0100
0000
,
0010
1000
0010
0000
0010
0100
0001
0000
0001
1000
0001
0000
0010
1000
0010
0000
,
1001
1000
1001
1000
0101
0100
0110
0100
,
0110
0100
1001
1000
1010
1000
1010
1000
,
0100
1000
0100
1000
0100
0010
0001
0010
0001
0010
0100
1000
0100
1000
0100
0010
,
0001
1000
0001
0010
0001
1000
0010
1000
0010
1000
0001
0100
0001
0010
0001
0100
,
1010
0000
0001
1000
0001
0000
0010
0000
0100
0010
0100
0000
0001
0000
1000
0000
,
0010
0000
1000
0010
1000
0000
0010
0000
0001
0010
0001
0000
0010
0000
0100
0000
,
0010
0000
0100
0010
0100
0000
0010
0000
0001
1000
0001
0000
0100
0000
1000
0000
,
0110
0000
0001
1010
0000
0100
1010
0000
,
0010
0000
0100
0001
0100
0000
0010
0000
0001
1000
0001
0000
0100
0000
0010
0000
,
0001
0000
1000
0100
1000
0000
0010
0000
0100
0010
0100
0000
0010
0000
1000
0000
,
0110
0000
0001
1001
0000
0010
0110
0000
,
1001
0110
0101
0110
,
0220
0000
0000
0000
0000
0000
0000
0330
,
0001
1000
0001
1000
0001
0100
0010
0100
0010
0100
0001
0010
0001
0010
0001
0100
,
0010
0000
0000
0000
;

//--------------- dance-single - B. M'Rey ----------------
#NOTES:
     dance-single:
     B. M'Rey:
     Challenge:
     18:
     0,0,0,0,0:
0000
0000
0000
0000
,
2000
0000
0000
0000
,
3200
0000
0000
0000
,
0302
0000
0000
0000
,
0203
0000
2300
0000
,
3020
0000
0000
0000
,
0032
0000
0000
0000
,
0203
0000
0000
0000
,
0320
0000
2030
0000
,
3001
0000
0001
1000
0001
0000
0010
0100
0010
0100
0010
0100
0010
0000
0101
0000
,
1010
0000
0010
1000
0001
0000
0100
0010
0100
1000
0100
0010
0001
0000
0010
0000
,
1100
0000
0010
0100
0001
0000
0001
0100
0001
0100
0010
0100
0010
0000
0001
0000
,
0010
0000
0100
1000
0010
0000
0010
0100
0001
0000
0100
0010
0001
0000
0001
0010
,
0001
0000
0100
1000
0010
0000
0001
0010
0100
1000
0100
0010
0001
0000
0100
0000
,
0100
0000
0001
1000
0001
0000
0001
1000
0010
0100
0010
0100
0010
0000
0100
0000
,
0011
0000
0001
0100
0001
0000
1010
0000
0100
1000
0001
0000
0110
0000
0010
1000
,
0001
0000
0000
0000
1000
0100
1000
0100
1000
1000
1000
1000
1000
1000
1000
1000
,
1000
0010
1000
0000
0100
1000
0001
0000
0010
1000
0010
0000
0001
0100
0010
0000
,
0010
1000
0010
0000
0001
1000
0001
0000
0001
0010
0100
0000
1000
0000
0000
0000
,
0001
0010
0001
0000
0010
0100
0001
0000
0001
0100
0010
0000
0001
1000
0001
0000
,
0100
0010
0001
0000
0001
1000
0010
0000
0010
0100
0010
0000
0001
0010
0100
0000
,
0001
1000
0010
0000
0001
1000
0100
0000
0100
0010
0001
0000
0010
0100
0010
0000
,
0100
1000
0010
0000
0010
0100
0010
0000
0001
1000
0100
1000
0001
0010
0100
0010
,
0100
1000
0010
0100
0010
1000
0010
0100
0001
0010
0100
1000
0001
1000
0001
0100
,
0002
0000
0000
0013
,
0010
1000
0010
0100
0001
0010
0001
0100
,
0010
0000
1000
0000
0010
0000
0100
0000
0001
0000
1000
0001
0010
0000
1000
0000
,
0010
0100
0001
0010
0100
0010
0100
1000
,
0010
0000
0100
0000
0010
0000
1000
0000
0100
0010
0001
1000
0001
1000
0010
1000
,
0100
1000
0100
1000
0100
0010
0001
0010
,
0001
0000
1000
0000
0001
0000
0100
0000
1000
0000
0001
1000
0010
0000
0100
0000
,
0001
0100
0010
0100
0010
1000
0010
0100
,
1000
0000
0001
0000
1000
0000
0000
0000
0000
0000
0000
0000
0100
0000
0010
0000
0100
0000
0000
0000
0000
0000
0000
0000
0010
0000
0001
0000
0010
0000
0000
0000
0000
0000
0000
0000
0001
0000
1000
0000
0001
0000
0100
0000
0000
0001
0000
0000
,
0010
1000
0010
0100
0001
0000
0001
1000
0010
0100
0010
0100
0001
0000
0100
0010
,
0001
0100
0010
0100
0001
0000
0100
1000
0001
1000
0001
0010
0100
1000
0100
0010
,
0001
0000
0100
1000
0100
0010
0100
1000
0001
0000
0001
0010
0001
1000
0010
1000
,
0010
0000
0100
0010
0100
0010
0100
1000
0001
0010
0001
0010
0100
1000
0010
0100
,
0010
0000
0100
0010
0100
1000
0010
0100
0010
0000
0010
1000
0001
0010
0001
0010
,
0001
0000
0000
0000
0100
0000
1000
0000
0010
0000
0100
0000
0001
0000
0010
0000
0100
0000
0010
0000
0100
0000
1000
0001
1000
0000
0010
0000
0001
0000
0100
0000
,
0001
0000
0010
0100
0001
0010
0100
1000
0010
0000
0100
0010
0001
0010
0001
0010
,
0100
0000
0010
0100
0001
0100
0001
1000
0100
1000
0100
1000
0001
0010
0100
0010
,
2000
0000
0000
0000
,
3002
0000
0000
0203
0000
0000
0301
0000
1000
0000
0010
0100
0020
0000
0000
0000
,
2030
0000
0000
3002
0000
0000
0023
0000
0230
0000
0000
0302
0000
0000
2003
0000
,
3020
0000
0000
0230
0000
0000
0302
0000
2003
0000
3001
1000
0001
1000
0001
1000
,
0002
0000
0000
0203
0000
0000
0320
0000
2030
0000
0000
3002
0000
0000
0203
0000
,
0320
0000
0000
0032
0000
0000
2003
0000
3010
0000
0100
0001
0200
0000
0000
0000
,
0320
0000
0000
2030
0000
0000
3002
0000
0203
0000
0000
0320
0000
0000
1030
0000
,
0001
0000
1000
0001
0000
0010
1000
0000
0001
1000
0100
0010
0001
1000
0010
0100
,
0001
0010
0000
1000
0001
0000
0010
0000
0100
0000
0001
1000
0000
0100
0010
0000
,
0001
0000
0000
0000
0000
0000
1000
0000
0000
0010
0000
0000
0000
0000
0000
0001
0000
0000
0100
0000
0000
0000
0000
0000
1000
0000
0000
0000
0000
0000
0001
0000
1000
0000
0001
0000
1000
0000
0000
0000
0000
0000
0100
0000
0000
0000
0000
0000
,
0010
1000
0000
0100
0010
0000
0001
0000
1000
0001
0000
0010
1000
0000
0100
0000
,
0001
0000
0000
0010
0000
0000
0000
0000
0000
1000
0000
0000
0100
0000
0000
0000
0000
0000
0010
0000
0000
0000
0000
0000
0100
0000
0000
0000
0000
0000
0001
0000
1000
0000
0001
0000
1000
0000
0000
0001
0000
0000
0010
0000
0000
0100
0000
0000
,
1000
0010
0000
0001
0010
0000
0100
0000
0010
0001
0000
0001
0010
0000
1000
0000
,
0010
0000
0000
0001
0000
0000
0000
0000
0000
0100
0000
0000
1000
0000
0000
0000
0000
0000
0001
0000
0000
0000
0000
0000
1000
0000
0000
0000
0000
0000
0001
0000
1000
0000
0001
0000
1000
0000
0000
0000
0000
0000
0100
0000
0000
0000
0000
0000
,
0011
0000
0000
0110
0000
0000
1100
0000
0110
0000
0000
1001
0000
0000
0110
0000
,
0101
0000
1000
0010
0000
0100
0001
0000
0001
0010
0100
1000
0010
1000
0001
1000
,
0001
1000
0010
1000
0010
1000
0001
0010
0001
0010
0001
1000
0010
1000
0010
1000
,
0001
0100
0001
0100
0001
0010
0100
0010
0100
0010
0001
1000
0001
1000
0001
0100
,
0010
0100
0010
0100
0001
0010
0001
0010
0100
0010
0100
1000
0010
1000
0010
1000
,
0100
0010
0001
0010
0001
0010
0100
1000
0100
1000
0100
0010
0001
0010
0001
0100
,
0001
0100
0010
0100
0010
1000
0010
1000
0100
1000
0100
0010
0100
0010
0001
1000
,
0001
1000
0001
0010
0100
0010
0100
0010
0001
1000
0001
1000
0001
0100
0010
0100
,
0010
0100
0001
0010
0100
0010
0100
0010
0001
0100
0001
1000
0001
1000
0010
0000
,
1001
0000
0000
000M
M000
000M
M000
000M
0M00
00M0
0M00
00M0
0M00
000M
00M0
000M
M000
000M
M000
00M0
0M00
000M
0M00
0000
,
0100
0000
0001
0100
0001
0100
0010
0000
0001
0010
0001
1000
,
0001
0000
0100
0010
0001
1000
0100
0000
0100
0010
0000
1000
,
0001
0000
0010
0100
0010
0100
0001
0000
0010
0100
0001
0010
,
0100
0000
0100
1000
0001
0010
0100
0000
0100
1000
0000
1000
,
0100
0000
0100
0010
0001
1000
0100
0000
0001
0010
0001
0010
,
0001
0000
0100
0010
0100
1000
0100
0000
0001
0100
0000
1000
,
0010
0000
0001
0100
0010
0100
0010
0000
0100
0010
0001
0100
,
0010
0000
0000
0000
0100
0000
0000
0000
0010
0000
0000
0000
0100
0000
0000
0000
0001
0000
0000
0000
1000
0000
0000
0000
0010
0000
0000
0100
0000
0000
0010
0000
0000
1000
0000
0000
0100
0000
0000
0010
0000
0000
0001
0000
0000
1000
0000
0000
,
0001
0000
0010
1000
0010
1000
0001
0010
0001
0000
0100
0010
0100
1000
0010
1000
,
0100
0000
0100
0010
0001
1000
0010
1000
0010
0000
0001
0010
0001
0100
0001
0100
,
0010
0000
0001
1000
0010
1000
0100
0010
0001
0000
0010
1000
0010
1000
0100
0010
,
0001
0000
0001
1000
0100
1000
0100
0010
0001
0000
0100
1000
0001
0100
0010
0100
,
0001
0000
0010
1000
0010
1000
0010
0100
0001
0000
0001
1000
0010
1000
0100
0010
,
0100
0000
0100
1000
0010
1000
0100
1000
0010
0000
0010
1000
0100
1000
0010
0100
,
0001
0000
0001
1000
0010
1000
0010
1000
0001
0000
0010
1000
0010
1000
0010
0000
,
1001
0011
0110
1110
,
0001
0000
0010
1000
0000
1000
0010
0100
0010
0000
0001
0010
0000
1000
0010
1000
,
0010
0000
0001
1000
0000
0100
0010
0000
0001
0100
0010
0100
0001
0010
0001
1000
,
0001
0000
0010
1000
0000
0100
0001
0010
0001
0000
0010
1000
0000
1000
0100
0010
,
0001
0000
0001
1000
0000
0010
0001
0000
0001
1000
0001
1000
0010
0100
0001
0100
,
0010
0000
0100
0010
0001
0000
0010
0100
0001
0000
0100
0010
0100
0000
0001
0010
,
0001
0000
0010
1000
0100
0000
0100
0010
0100
0000
0010
1000
0100
0000
0001
1000
,
0100
0000
0010
0100
0001
0000
0100
1000
0001
0000
0100
1000
0010
0000
0001
1000
,
0001
0100
0010
0100
1010
0000
0111
0000
,
0100
0010
0001
1000
0100
0000
0100
0010
0100
1000
0010
1000
0001
0000
0001
1000
,
0001
1000
0100
0010
0001
0000
0100
1000
0010
0100
0010
0100
0010
0000
0001
1000
,
0100
1000
0100
0010
0001
0000
0001
1000
0001
0100
0010
1000
0010
0000
0010
0100
,
0001
1000
0010
1000
0001
0000
0100
0010
0100
0010
0100
1000
0001
0000
0100
1000
,
0100
0010
0001
1000
0001
0000
0001
0010
0100
0010
0001
0100
0001
0000
0010
1000
,
0010
0100
0001
1000
0100
0000
0001
1000
0001
0100
0001
1000
0100
0000
0100
0010
,
0001
0010
0100
1000
0100
1000
0001
0010
0100
1000
0001
0100
0010
1000
0010
1000
,
0001
0100
0010
1000
0001
1000
0100
0010
0100
1000
0001
1000
0010
0100
0010
0001
,
1000
0000
0001
1000
0001
0000
0010
0100
0010
0100
0010
0100
0010
0000
0101
0000
,
1010
0000
0010
1000
0001
0000
0100
0010
0100
1000
0100
0010
0001
0000
0010
0000
,
1100
0000
0010
0100
0001
0000
0001
0100
0001
0100
0010
0100
0010
0000
0001
0000
,
0010
0000
0100
1000
0010
0000
0010
0100
0001
0000
0100
0010
0001
0000
0001
0010
,
0001
0000
0100
1000
0010
0000
0001
0010
0100
1000
0100
0010
0001
0000
0100
0000
,
0100
0000
0001
1000
0001
0000
0001
1000
0010
0100
0010
0100
0010
0000
0100
0000
,
0011
0000
0001
0100
0001
0000
1010
0000
0100
1000
0001
0000
0110
0000
0010
1000
,
0001
0000
1000
0001
1000
0000
1000
0100
1000
0000
1000
0000
1000
0001
1000
0001
,
2000
0000
0000
0000
,
3001
0010
0100
0010
0100
1000
0010
1000
0100
1000
0100
0010
0001
1000
0100
1000
,
0001
0000
0000
0000
;
