#TITLE:Wild;
#ARTIST:Jonas Blue ft. Chelcee Grimes, TINI, Jhay Cortez;
#GENRE:POP;
#CREDIT:B. M'Rey;
#MUSIC:wild.ogg;
#BANNER:Wild.png;
#BACKGROUND:Wild-bg.png;
#CDTITLE:./CDTITLES/Dance Dance Revolution SPACE.PNG;
#SAMPLESTART:44.947;
#SAMPLELENGTH:15;
#OFFSET:-0.110;
#BPMS:0=104.983;

//--------------- dance-single - B. M'Rey ----------------
#NOTES:
     dance-single:
     B. M'Rey:
     Beginner:
     3:
     0.113848,0.129771,0.021539,0,0,111,108,3,0,0,0,0.113848,0.129771,0.021539,0,0,111,108,3,0,0,0:
0000
0000
0000
0000
,
0000
0000
0000
0000
,
0000
0000
0000
0000
,
0000
0000
0000
0000
,
0000
0001
0000
0000
0000
0000
0000
0000
,
0000
0100
0000
1000
,
0000
0001
0000
0000
0000
0010
0000
0000
,
0000
0100
0000
0000
0000
0000
0000
0000
,
0000
0010
0000
0001
,
0000
0100
0000
0000
0000
1000
0000
0000
,
0000
0010
0000
0000
0000
0100
0000
0000
,
0000
0001
0000
0000
0000
0000
0000
0001
,
0000
0000
0000
0010
0000
0000
0000
0000
,
1000
0000
0000
0100
0000
0000
0000
0000
,
0000
0010
0000
0100
,
0000
0001
0000
1000
,
0000
0010
0000
0100
,
0000
0001
0000
0010
,
0000
0100
0000
1000
,
0000
0110
0000
0000
,
0000
0001
0000
0010
,
0000
0010
0000
1000
,
0000
1000
0000
0100
,
0000
0100
0000
0010
,
0000
0010
0000
0001
,
0000
0001
0000
0000
,
0000
1000
0000
0100
,
0000
0100
0000
0010
,
0000
0001
0000
0010
,
0000
0100
0000
1000
,
0000
0010
0000
0100
,
0000
0001
0000
0010
,
0010
0010
0000
0100
,
0000
1000
0000
0001
,
0000
0010
0000
0100
,
0000
1000
0000
0010
,
0010
0010
0000
0001
,
0000
0000
0010
0000
,
0000
0100
0000
0000
,
0000
1000
0000
0000
,
0000
0010
0000
0001
,
0000
0100
0000
0010
,
0000
1000
0000
0001
,
0000
0110
0000
0000
,
0000
0001
0000
0010
,
0000
0001
0000
0100
,
0000
1000
0000
0010
,
0000
0100
0000
0010
,
0000
0110
0000
0001
,
0000
1000
0000
0010
,
0000
0100
0000
0001
,
0000
0010
0000
0001
,
0000
1000
0000
0010
,
0000
0100
0000
0001
,
0000
0010
0000
0001
,
0000
0100
0000
0010
,
0010
0010
0000
0001
,
0000
0000
1000
0000
0000
0100
0000
0000
,
0000
1000
0000
0010
,
0000
0001
0000
0100
,
0100
0100
0000
0000
;

//--------------- dance-single - B. M'Rey ----------------
#NOTES:
     dance-single:
     B. M'Rey:
     Easy:
     5:
     0.183592,0.193041,0,0.021539,0.010769,179,179,0,3,0,0,0.183592,0.193041,0,0.021539,0.010769,179,179,0,3,0,0:
0000
0000
0000
0000
,
0000
0000
0000
0000
,
0000
0000
0000
0000
,
0000
0000
0000
0000
,
1000
0100
0010
0001
,
0010
0001
0010
0000
,
0100
1000
0010
0100
,
0001
0000
0000
0000
,
0010
0100
0001
0010
,
1000
0100
1000
0000
,
0010
0100
0001
0010
,
0001
0000
0000
0000
,
0010
0100
1000
0010
,
0001
0010
0100
0001
,
0000
1000
0010
0100
,
0000
0000
0001
0000
0010
0100
0000
0000
,
0010
1000
0100
0001
,
0010
0001
0100
0010
,
0000
1000
0100
1000
,
0000
0010
0000
0001
,
0000
0100
0000
0010
,
0010
0010
0000
0001
,
0001
0001
0000
1000
,
1000
1000
0000
0010
,
0010
0010
0000
0100
,
0100
0000
0100
0000
0000
0000
0001
0001
,
0000
0000
0001
0000
0000
0000
0010
0010
,
0000
0010
0000
1000
,
0000
0001
0010
0001
,
0010
0100
1000
0010
,
0100
0010
0001
0010
,
0001
0100
0010
1000
,
0000
0001
0010
0100
,
0010
0001
0010
0100
,
1000
0010
0100
0001
,
0010
0001
0010
0100
,
0000
0001
0000
0010
,
0000
0000
1000
0100
,
0010
0001
0000
0001
,
0010
0100
0000
1000
,
0000
0010
0000
0001
,
1000
0000
0000
0000
0000
0000
0000
0000
0020
0000
0000
0000
0000
0000
0000
0000
0000
0030
0000
0000
0000
0000
0000
0000
0100
0000
0000
0000
0000
0000
0000
0000
,
1000
0000
0000
0000
0000
0000
0000
0000
0000
0000
0000
0000
0000
0000
0000
0000
0000
0000
0000
0000
0000
0000
0000
0000
0000
0000
0000
0000
0000
0000
0000
0000
0000
0000
0000
0000
0000
0000
0000
0000
0000
0000
0000
0000
0000
0000
0000
0000
0200
0000
0000
0000
0000
0000
0000
0000
0000
0000
0000
0000
0000
0000
0000
0000
0000
0000
0000
0000
0000
0000
0000
0000
0000
0000
0000
0000
0000
0000
0000
0000
0000
0000
0000
0000
0000
0000
0000
0000
0000
0000
0000
0000
0000
0000
0000
0000
0000
0000
0000
0000
0000
0000
0000
0300
0000
0000
0000
0000
0000
0000
0000
0000
0000
0000
0000
0000
0000
0000
0000
0000
0000
0000
0000
0000
0000
0000
0000
0000
0000
0000
0000
0000
0000
0000
0000
0000
0000
0000
0000
0000
0000
0000
0000
0000
0001
0000
0000
0000
0000
0000
0000
0000
0000
0000
0000
0000
0000
0000
0000
0000
0000
0000
0000
0000
0000
0000
0000
0000
0000
0000
0000
0000
0000
0000
0000
0000
0000
0000
0000
0000
0000
0000
0000
0000
0000
0000
0000
0000
0000
0000
0000
0000
,
0010
0000
0000
0000
0000
0000
0000
0000
0000
0000
0000
0000
0000
0000
0000
0000
0000
0000
0000
0000
0000
0000
0000
0000
0002
0000
0000
0000
0000
0000
0000
0000
0000
0000
0000
0000
0000
0000
0000
0000
0000
0000
0000
0000
0000
0000
0000
0000
0000
0000
0000
0000
0000
0000
0000
0000
0000
0000
0000
0000
0000
0000
0000
0000
0000
0000
0000
0000
0000
0000
0000
0000
1000
0003
0000
0000
0000
0000
0000
0000
0000
0000
0000
0000
0000
0000
0000
0000
0000
0000
0000
0000
0000
0000
0000
0000
,
0000
0010
0000
0001
,
0001
0001
0000
0010
,
0010
0010
0000
0100
,
0100
0100
0000
1000
,
1000
0000
1000
0000
0000
0000
0010
0010
,
0000
0010
0000
0001
,
0001
0001
0000
0100
,
0100
0100
0000
0001
,
1000
0100
0010
0001
,
0010
0001
0010
0100
,
1000
0010
0100
0001
,
0010
0001
0010
1000
,
0000
0010
0100
0001
,
0010
0001
0010
0100
,
1000
0100
1000
0010
,
0100
0001
0010
0100
;

//--------------- dance-single - B. M'Rey ----------------
#NOTES:
     dance-single:
     B. M'Rey:
     Medium:
     6:
     0.267696,0.28117,0,0.035898,0.017949,261,261,0,5,0,0,0.267696,0.28117,0,0.035898,0.017949,261,261,0,5,0,0:
0000
0000
0000
0000
,
0000
0000
0000
0000
,
0000
0000
0000
0000
,
0000
0000
0000
0000
0000
0000
0000
0001
,
0010
0100
0000
0010
1000
0100
0000
0010
,
0001
0010
0000
0001
0001
0010
0000
0000
,
0100
1000
0000
0010
0100
0010
0000
0001
,
0010
1000
0000
0000
0000
0000
0000
0000
,
0010
0100
0000
0001
0010
1000
0000
0100
,
1000
0000
0000
0000
0000
0000
0000
0000
0000
0000
0000
0000
0020
0000
0000
0000
0000
0000
0000
0000
0000
0000
0000
0000
0000
0000
0000
0000
0000
0030
0000
0000
0000
0000
0000
0000
0100
0000
0000
0000
0000
0000
0000
0000
0000
0000
0000
0000
0001
0000
0000
0000
0000
0000
0000
0000
0000
0000
0000
0000
0020
0000
0000
0000
0000
0000
0000
0000
0000
0000
0000
0000
0000
0000
0000
0000
0000
0030
0000
0000
0000
0000
0000
0000
0000
0000
0000
0000
0000
0000
0000
0000
0000
0000
0000
0000
,
0001
1000
0000
0010
0100
0001
0000
0010
,
0001
1000
0000
0000
0000
0000
0000
0000
,
0010
0100
0001
0010
,
1000
0100
0010
0000
0001
0000
0010
0000
,
0000
0000
0001
0010
0100
1000
0010
0000
,
0000
1000
0100
0010
,
0001
1000
0001
0010
,
0100
0001
0010
1000
,
0000
0000
1000
0100
0010
0001
0010
0000
,
0000
0001
1000
0000
0000
0000
0010
0000
,
0100
0000
0001
0000
0000
0000
0010
0100
,
0000
1000
0010
0000
0000
0000
0100
0010
,
0000
0001
0010
0000
0000
0000
1000
0010
,
0000
0100
0001
0000
0010
0000
0100
0000
,
1000
0100
0010
0000
0001
0000
0010
0100
,
0000
1000
0001
0000
0000
0000
0010
0100
,
0000
0001
0010
0000
0000
0000
0001
1000
,
0000
0010
0100
0000
0000
0000
0010
0000
,
0001
0000
1000
0000
0100
0000
1000
0100
,
0010
0001
0001
0000
0010
0000
0001
0010
,
0001
0010
0100
0000
1000
0000
0100
1000
,
0100
0010
0001
0000
0010
0000
0010
0000
,
0100
0000
0001
0000
0010
0000
1000
0100
,
0010
0001
0010
0000
0010
0000
0001
0010
,
0100
1000
0100
0000
0010
0000
0001
0010
,
0100
1000
0010
0000
0100
0000
0001
0000
,
0010
0000
1000
0000
0100
0000
1000
0100
,
0010
0000
0000
0000
0001
0010
0100
0000
,
1000
0010
0100
0000
0001
0000
1000
0000
,
0010
0100
1000
0000
0010
0000
0001
0100
,
0010
0001
1000
0000
0000
0000
0010
0000
,
0100
0000
0000
0000
0000
0000
0000
0000
0000
0000
0000
0000
0000
0000
0000
0000
0000
0000
0000
0000
0000
0000
0000
0000
0000
0000
0000
0000
0000
0000
0000
0000
0000
0000
0000
0000
0000
0000
0000
0000
0000
0000
0000
0000
0000
0000
0000
0000
0002
0000
0000
0000
0000
0000
0000
0000
0000
0000
0000
0000
0000
0000
0000
0000
0000
0000
0000
0000
0000
0000
0000
0000
0000
0000
0000
0000
0000
0000
0000
0000
0000
0000
0000
0000
0000
0000
0000
0000
0000
0000
0000
0000
0000
0000
0000
0000
0000
0000
0000
0000
0000
0000
0000
0000
0000
0000
0000
0003
0000
0000
0000
0000
0000
0000
0000
0000
0000
0000
0000
0000
0000
0000
0000
0000
0000
0000
0000
0000
0000
0000
0000
0000
0000
0000
0000
0000
0000
0000
0000
0000
0000
0000
0000
0000
0010
0000
0000
0000
0000
0000
0000
0000
0000
0000
0000
0000
0000
0000
0000
0000
0000
0000
0000
0000
0000
0000
0000
0000
0000
0000
0000
0000
0000
0000
0000
0000
0000
0000
0000
0000
0000
0000
0000
0000
0000
0000
0000
0000
0000
0000
0000
0000
,
1000
0000
0000
0000
0000
0000
0000
0000
0000
0000
0000
0000
0200
0000
0000
0000
0000
0000
0000
0000
0000
0000
0000
0000
0000
0300
0000
0000
0000
0000
0000
0000
0000
0000
0000
0000
0001
0000
0000
0000
0000
0000
0000
0000
0000
0000
0000
0000
,
0010
0000
0000
0000
0002
0000
0000
0000
0000
0000
0000
0000
0000
0003
0000
0000
0000
0000
0000
0000
0000
0000
0000
0000
0100
0000
0000
0000
0000
0000
0000
0000
,
0010
0000
1000
0000
0000
0000
0001
0010
,
0000
0100
1000
0000
0000
0000
0010
0100
,
0000
0001
0010
0000
0000
0000
0001
0010
,
0000
1000
0100
0000
0010
0000
0001
0000
,
1000
0100
0010
0000
0000
0000
0001
0010
,
0000
0100
1000
0000
0000
0000
0010
0100
,
0000
0001
0010
0000
0000
0000
0001
0010
,
0000
1000
0100
0000
0010
0000
0001
0000
,
1000
0000
0001
0000
0010
0000
1000
0100
,
1000
0100
0010
0000
0001
0010
0000
0001
,
0010
0001
0100
0000
1000
0000
0010
1000
,
0010
1000
0100
0000
0010
0000
0001
0000
,
0010
0000
0001
0000
0010
0000
0001
0010
,
0001
0010
0100
0000
1000
0000
0100
1000
,
0100
1000
0010
0000
0001
0000
0010
0100
,
0010
0100
0001
0000
1000
0000
0010
0000
,
0100
0001
0000
0000
;

//--------------- dance-single - B. M'Rey ----------------
#NOTES:
     dance-single:
     B. M'Rey:
     Hard:
     10:
     0.380518,0.389313,0.150771,0.043077,0.039488,371,350,21,6,0,0,0.380518,0.389313,0.150771,0.043077,0.039488,371,350,21,6,0,0:
0000
0000
0000
0000
,
0000
0000
0000
0000
,
0000
0000
0000
0000
,
0000
0000
0000
0000
0000
0000
0000
0001
,
0010
0100
0000
1000
0100
0010
0000
0001
,
0010
0100
0000
1000
0100
1000
0000
0000
,
0011
0000
0000
0010
0001
0100
0000
0010
,
1000
0100
0000
0010
0000
0000
0001
0000
,
0010
0100
1000
0010
0100
0001
0000
0010
,
0001
0100
0000
0010
0001
1000
0000
0000
,
0010
0100
0000
0001
0010
1000
0000
0100
,
1000
0010
0000
0000
0000
0000
0000
0000
,
1000
0000
0100
0000
0010
0000
0000
0001
0000
0000
0010
0000
0100
0000
0000
0000
,
0001
0000
0010
0000
1000
0000
0000
0100
0000
0000
1000
0000
0010
0000
0000
0000
,
0000
0001
0010
0100
1000
0100
1000
0000
,
0000
0000
0010
0000
0100
0000
0001
0000
0010
0000
1000
0000
0000
0100
0000
0000
,
0001
0000
0010
0000
0100
0000
0000
1000
0000
0000
0100
0000
0001
0000
0000
0000
,
0010
0000
0001
0000
0100
0000
0000
0010
0000
0000
1000
0000
0100
0000
0000
0000
,
0000
0000
0001
0010
0100
1000
0010
0000
,
0000
0001
0010
0000
0000
0000
0001
0010
,
0100
1000
0100
0000
0010
0000
0001
0010
,
1000
0100
1000
0000
0010
0000
0001
0010
,
0100
0001
0010
0000
1000
0000
0100
0010
,
0001
0011
1100
0110
,
1001
0110
1001
0000
0010
0000
0001
0100
,
1000
0010
0100
0000
0001
0000
0010
0001
,
0100
1000
0010
0000
0100
0000
1000
0100
,
0010
0001
0010
0000
0100
0000
0001
0010
,
0100
1000
0001
0010
0100
0001
1000
0010
,
0100
0001
1000
0010
0100
1000
0010
0100
,
0001
0010
0001
0100
0010
0001
1000
0100
,
1000
0010
0100
0001
0010
0001
0110
0000
,
1001
0000
0010
0001
0100
0010
1000
0100
,
1000
0010
0001
0100
0010
0001
1000
0100
,
0010
0001
0010
0100
1000
0100
1000
0010
,
0001
0100
0010
0001
1000
0100
0010
0001
,
0010
0100
1000
0010
0001
0010
0100
1000
,
0010
0000
0000
0000
0000
0000
0000
0000
0000
0000
0000
0000
0000
0000
0000
0000
0000
0000
0000
0000
0000
0000
0000
0000
0000
0000
0000
0000
0000
0000
0000
0000
0000
0000
0000
0000
0000
0000
0000
0000
0000
0000
0000
0000
0000
0000
0000
0000
0001
0000
0000
0000
0000
0000
0000
0000
0000
0000
0000
0000
0100
0000
0000
0000
0000
0000
0000
0000
0000
0000
0000
0000
0020
0000
0000
0000
0000
0000
0000
0000
0000
0000
0000
0030
0000
0000
0000
0000
0000
0000
0000
0000
0000
0000
0000
0000
,
1000
0000
0000
0000
0000
0000
0100
0000
0000
0000
0000
0000
0020
0000
0000
0000
0000
0030
0000
0000
0000
0000
0000
0000
0001
0000
0000
0000
0000
0000
0010
0000
0000
0000
0000
0000
0100
0000
0000
0000
0000
0000
1000
0000
0000
0000
0000
0000
,
0100
0010
0001
0000
0000
0001
0010
0100
,
1000
0100
0010
0000
0001
0010
0100
1000
,
0100
0000
0000
0000
0000
0000
0000
0000
0000
0000
0000
0000
0020
0000
0000
0000
0000
0000
0000
0000
0000
0000
0000
0000
0000
0000
0000
0000
0000
0030
0000
0000
0000
0000
0000
0000
0001
0000
0000
0000
0000
0000
0010
0000
0000
0000
0000
0000
,
0100
0000
0000
0000
0000
0000
0000
0000
0000
0000
0000
0000
0000
0000
0000
0000
0000
0000
0000
0000
0000
0000
0000
0000
1000
0000
0000
0000
0000
0000
0000
0000
0000
0000
0000
0000
0000
0000
0000
0000
0000
0000
0000
0000
0000
0000
0000
0000
0200
0000
0000
0000
0000
0000
0000
0000
0000
0000
0000
0000
0000
0000
0000
0000
0000
0000
0000
0000
0000
0000
0000
0000
0000
0000
0000
0000
0000
0000
0000
0000
0000
0000
0000
0000
0000
0000
0000
0000
0000
0000
0000
0000
0000
0000
0000
0000
0000
0000
0000
0000
0000
0000
0000
0300
0000
0000
0000
0000
0000
0000
0000
0000
0000
0000
0000
0000
0000
0000
0000
0000
0000
0000
0000
0000
0000
0000
0000
0000
0000
0000
0000
0000
0000
0000
0000
0000
0000
0000
0000
0000
0000
0000
0000
0000
0001
0000
0000
0000
0000
0000
0000
0000
0000
0000
0000
0000
0000
0000
0000
0000
0000
0000
0000
0000
0000
0000
0000
0000
0010
0000
0000
0000
0000
0000
0000
0000
0000
0000
0000
0000
0000
0000
0000
0000
0000
0000
0000
0000
0000
0000
0000
0000
,
0100
0000
0000
0000
0000
0000
0000
0000
0000
0000
0000
0000
0001
0000
0000
0000
0000
0000
0000
0000
0000
0000
0000
0000
2002
0000
0000
0000
0000
0000
0000
0000
0000
0000
0000
0000
0000
0000
0000
0000
0000
0000
0000
0000
0000
0000
0000
3000
0000
0000
0003
0000
0000
0000
0000
0000
0000
0000
0000
0000
0010
0000
0000
0000
0000
0000
0000
0000
0000
0000
0000
0000
0100
0000
0000
0000
0000
0000
0000
0000
0000
0000
0000
0000
0001
0000
0000
0000
0000
0000
0000
0000
0000
0000
0000
0000
,
0010
1000
0100
0000
0010
0000
0001
0110
,
0000
1000
0010
0000
0100
0000
0010
1000
,
0100
0010
0001
0000
0010
0000
0001
0010
,
0100
0110
1001
0011
,
1100
0011
1100
0000
0010
0000
0001
0010
,
0100
1000
0100
0000
0010
0000
0001
0010
,
0100
1000
0100
0000
0010
0000
0001
0010
,
0100
0001
0010
0000
1000
0000
0100
0010
,
1000
0001
0010
0001
0100
1000
0100
0010
,
0001
0010
0001
0100
1000
0010
0100
0001
,
0010
0100
0001
0010
1000
0100
1000
0010
,
0001
0100
0010
0001
1010
0000
0011
0000
,
1100
0000
0010
0100
0001
0010
0100
0001
,
1000
0100
1000
0010
0001
0100
0010
0001
,
1000
0010
0001
0100
1000
0001
0010
0100
,
0001
1000
0010
0100
0001
0010
1000
0100
,
0010
0001
0110
0000
0000
0000
0000
0000
;
