#TITLE:volcanic;
#SUBTITLE:;
#ARTIST:DETRO a.k.a ルゼ;
#TITLETRANSLIT:;
#SUBTITLETRANSLIT:;
#ARTISTTRANSLIT:DETRO a.k.a luze;
#GENRE:VOLCANO;
#CREDIT:B. M'Rey;
#MUSIC:volcanic.ogg;
#BANNER:volcanic.png;
#BACKGROUND:volcanic-bg.png;
#CDTITLE:./CDTITLES/CHUNITHM STAR PLUS.png;
#SAMPLESTART:90.480;
#SAMPLELENGTH:15.000;
#SELECTABLE:YES;
#OFFSET:-0.057;
#BPMS:0.000=191.000
,280.000=764.000
,312.000=191.000
;
#STOPS:;
#DISPLAYBPM:191.000;
#BGCHANGES:;
#FGCHANGES:;

//--------------- dance-single - B. M'Rey ----------------
#NOTES:
     dance-single:
     B. M'Rey:
     Beginner:
     7:
     0,0,0,0,0:
0000
0000
0000
0000
,
0000
0000
0000
0000
,
0000
0000
0000
0000
,
1001
0000
0100
0000
,
0010
0000
1000
0000
,
0001
0000
0010
0000
,
0001
0000
0100
0000
,
0010
0010
1000
1000
,
0001
0000
0010
0000
,
0001
0000
0100
0000
,
0010
0000
1000
0000
,
0100
0100
0010
0010
,
0001
0000
1000
0000
,
0001
0000
1000
0000
,
0010
0000
0100
0000
,
0010
0000
0100
0000
,
0001
0001
1000
1000
,
0001
0001
1000
1000
,
0010
0010
0100
0100
,
0010
0000
0100
0000
,
0001
0000
1000
0000
,
0010
0010
0010
0000
,
0100
0000
0001
0000
,
1000
1000
1000
0000
,
0010
0000
0100
0000
,
0001
0001
0001
0000
,
0010
0000
0001
0000
,
0100
0100
0100
0000
,
0110
0000
1000
0000
,
0001
0001
0100
0000
,
0010
0000
1000
0000
,
1000
1000
0001
0001
,
0100
0000
0010
0000
,
1000
1000
0001
0001
,
0010
0000
0001
0000
,
0100
0000
0010
0000
,
1001
0000
0110
0000
,
0001
1000
0010
0000
,
0110
0000
0101
0000
,
0010
0000
1000
0010
,
1010
0000
0110
0000
,
0001
0100
0001
0000
,
0110
0000
1010
0000
,
0100
0000
0001
0000
,
1001
0000
0110
0000
,
0001
1000
0001
0000
,
0110
0000
1010
0000
,
0100
0010
0100
0000
,
0101
0000
0110
0000
,
0001
1000
0001
0000
,
0110
0000
0101
0000
,
0010
0000
1000
0000
,
1010
0000
1010
0000
,
1010
0000
1010
0000
,
1010
0000
1010
0000
,
0101
0000
0101
0000
,
1010
0000
1010
0000
,
1010
0000
1010
0000
,
0101
0000
0101
0000
,
0110
0000
1001
0000
,
0101
0000
0101
0000
,
1010
0000
1010
0000
,
0110
0000
0110
0000
,
1001
0000
1001
0000
,
0001
0000
1000
0000
,
0001
0000
1000
0000
,
0001
0000
1000
0000
,
0010
0000
0100
0000
,
0001
0010
0100
1000
,
0100
0010
0001
0010
,
2002
0000
0000
0000
,
0000
0000
0000
0000
,
0000
0000
0000
0000
,
0000
0000
0000
0000
,
0000
0000
0000
0000
,
0000
0000
0000
0000
,
0000
0000
0000
0000
,
3003
0000
0000
0000
,
0001
0000
1000
0000
,
0010
0010
0010
0000
,
0100
0000
0001
0000
,
1000
1000
1000
0000
,
0010
0000
0100
0000
,
0001
0001
0001
0000
,
0010
0000
0001
0000
,
0100
0100
0100
0000
,
0110
0000
1000
0000
,
0001
0001
0100
0000
,
0010
0000
1000
0000
,
1000
1000
0001
0001
,
0100
0000
0010
0000
,
1000
1000
0001
0001
,
0010
0000
0001
0000
,
0100
0000
0010
0000
,
1001
0000
0000
0000
;

//--------------- dance-single - B. M'Rey ----------------
#NOTES:
     dance-single:
     B. M'Rey:
     Easy:
     11:
     0,0,0,0,0:
0000
0000
0000
0000
,
0000
0000
0000
0000
,
0000
0000
0000
0000
,
1001
0000
1001
0000
,
1000
0010
0100
0010
,
0100
0010
1000
0100
,
1000
0100
1000
0001
,
0010
0001
0010
0001
,
0100
0010
0100
0010
,
0100
0001
0010
0001
,
0010
0001
1000
0100
,
1000
0100
1000
0001
,
0100
0000
0001
0000
,
1000
0000
0010
0000
,
0100
0000
1000
0000
,
1001
0000
0001
0010
1000
0000
0100
0001
,
0010
0100
0010
0100
,
1000
0001
1000
0001
,
1000
0100
0010
0100
,
0010
0001
0100
0000
1000
0100
0010
0000
,
1000
0010
1000
0001
,
0100
0000
0001
0000
0100
0010
0001
0000
,
1000
0100
1000
0100
,
1000
0000
0001
0000
0010
0000
0001
1000
,
0010
0001
1000
0100
,
0010
0000
0100
0000
0010
0001
0100
0000
,
1000
0001
0010
0001
,
1000
0000
0001
0000
1000
0010
0100
0000
,
0110
0100
0010
0100
,
1000
0000
0010
0000
1000
0010
0001
0000
,
1000
0001
0010
0001
,
1000
0000
0010
0000
0100
1000
0010
0000
,
0100
0001
0100
0010
,
1000
0000
0010
0000
1000
0001
0010
0000
,
0100
0001
0100
0010
,
0100
0001
0010
0000
1000
0100
0010
0000
,
1000
0001
0100
0001
,
0100
1000
0010
0000
0100
0010
0001
0000
,
0010
0001
0010
0001
,
0100
1000
0010
0000
0100
0001
0010
0000
,
0100
0001
1000
0001
,
1000
0010
0001
0000
0010
1000
0100
0000
,
0010
0100
0010
0001
,
0100
0001
0010
0000
0100
1000
0010
0000
,
0100
0001
0010
0001
,
0100
0001
0010
0000
1000
0100
0010
0000
,
1000
0010
0100
0001
,
0100
0001
0010
0000
0100
1000
0010
0000
,
1000
0010
1000
0100
,
1000
0001
0100
0000
0010
1000
0100
0000
,
0010
0001
0010
0001
,
1000
0010
0001
0000
1000
0001
0100
0000
,
0010
0100
0010
0100
,
1000
0010
1000
0010
,
1000
0001
0100
0001
,
0101
0101
1010
1010
,
1000
0010
1000
0100
,
0010
0100
0010
0100
,
1000
0001
1000
0001
,
1010
1010
0110
0110
,
0100
0010
1000
0001
,
1000
0001
1000
0010
,
0100
0010
0100
0010
,
1000
0100
1000
0100
,
0010
0100
0010
0001
,
0010
0001
1000
0001
,
0100
0010
0100
0010
,
0100
0001
0010
0001
,
1000
0001
1000
0001
1000
0100
0010
0100
,
0010
0100
1000
0001
1000
0001
0100
0001
,
2002
0000
0000
0000
,
0000
0000
0000
0000
,
0000
0000
0000
0000
,
0000
0000
0000
0000
,
0000
0000
0000
0000
,
0000
0000
0000
0000
,
0000
0000
0000
0000
,
3003
0000
0000
0000
,
1000
0010
1000
0001
,
0100
0000
0001
0000
0100
0010
0001
0000
,
1000
0100
1000
0100
,
1000
0000
0001
0000
0010
0000
0001
1000
,
0010
0001
1000
0100
,
0010
0000
0100
0000
0010
0001
0100
0000
,
1000
0001
0010
0001
,
1000
0000
0001
0000
1000
0010
0100
0000
,
0110
0100
0010
0100
,
1000
0000
0010
0000
1000
0010
0001
0000
,
1000
0001
0010
0001
,
1000
0000
0010
0000
0100
1000
0010
0000
,
0100
0001
0100
0010
,
1000
0000
0010
0000
1000
0001
0010
0000
,
0100
0001
0100
0010
,
0100
0001
0010
0000
1000
0100
0010
0000
,
2000
0000
0000
0000
,
0002
0000
0000
0000
,
3003
0000
0000
0000
;

//--------------- dance-single - B. M'Rey ----------------
#NOTES:
     dance-single:
     B. M'Rey:
     Medium:
     15:
     0,0,0,0,0:
0000
0000
0000
0000
,
0000
0000
0000
0000
,
0000
0000
0000
0000
,
1000
0001
1000
0001
,
1000
0100
1000
0100
1000
0010
0100
0010
,
0100
0010
1000
0100
1000
0010
1000
0100
,
0010
0100
0010
0100
1000
0010
1000
0100
,
1000
0100
0010
0100
0010
0001
0010
0001
,
0100
0010
0100
0010
0100
0001
1000
0001
,
1000
0100
1000
0001
0100
0001
1000
0001
,
1000
0010
1000
0010
0100
0010
0100
0001
,
0100
0001
0010
0001
0010
0100
0010
0100
,
1000
0001
1000
0000
1000
0100
0010
0000
,
0010
0100
1000
0000
0100
0001
1000
0000
,
1000
0100
1000
0000
0100
0001
0010
0000
,
0011
0011
0011
0000
1001
1001
1001
0000
,
1000
0001
1000
0001
1000
0100
0010
0001
,
0010
1000
0100
0001
,
0010
0001
1000
0001
1000
0001
0100
0010
,
1000
0010
1000
0000
0100
0001
0100
0000
,
0100
0010
1000
0010
1000
0010
0100
0001
,
1000
0001
1000
0010
1000
0010
0100
0010
,
0000
0001
1000
0010
1000
0001
0100
0001
,
0100
0001
1000
0010
1000
0010
1000
0001
,
0000
0001
0100
0001
1000
0010
0100
0001
,
1000
0100
1000
0001
1000
0100
0010
0001
,
0000
0001
0010
0100
1000
0100
1000
0001
,
1000
0000
0010
0000
0100
0000
0010
0001
,
1000
0001
1000
0100
0010
0100
0010
0100
,
1000
0010
1000
0010
1000
0001
0100
0001
,
0000
0001
1000
0100
1000
0001
1000
0100
,
0010
0100
0010
0100
1000
0001
1000
0001
,
0000
0100
0010
0100
1000
0100
0010
0001
,
0010
0001
0010
0100
1000
0100
1000
0100
,
0000
0001
0010
0001
0010
0100
1000
0100
,
1000
0010
1000
0010
,
1000
0000
0100
0000
1000
0000
0100
1000
0100
0000
0010
0000
0100
0000
0010
0000
,
1010
0000
1010
0000
1000
0100
0010
0100
,
1000
0000
0010
0000
0100
0000
0010
0100
0010
0000
0010
0000
1000
0000
0100
0000
,
0110
0000
0110
0100
1000
0010
1000
0010
,
1000
0000
0001
0000
0100
0000
0001
0100
0001
0000
0001
0000
0010
0000
0100
0000
,
0011
0000
0000
0000
0011
0000
0000
0000
1000
0000
0100
1000
0100
0000
0100
0000
,
0010
0000
0001
0000
0010
0000
0001
0000
0010
0000
0100
1000
0100
0000
0100
0000
,
1100
0011
0110
1010
,
1001
0000
0100
0000
1000
0000
0100
0000
0010
0000
0001
0100
0001
0000
0001
0000
,
1001
0000
0000
0000
0110
0000
0000
0000
1000
0000
0010
1000
0010
0000
0001
0000
,
0100
0000
0001
0000
1000
0000
0001
0000
0010
0000
0100
1000
0100
0000
0100
0000
,
1100
0000
0011
0000
1000
0100
1000
0100
,
1000
0000
0010
0000
0100
0000
0010
0000
0100
0000
0010
0100
1000
0000
0001
0000
,
1001
0000
0000
0000
0101
0000
0000
0000
0100
0000
0010
0001
0100
0000
0010
0000
,
1000
0000
0010
0000
1000
0000
0001
0000
1000
0000
0001
0010
0100
0000
0001
0000
,
0110
0000
0110
0000
0010
0001
1000
0001
,
1000
0100
1000
0100
0010
0100
0010
0001
,
0010
0001
1000
0001
1000
0010
1000
0010
,
0100
0010
0100
0001
0100
0001
1000
0001
,
1010
1010
0101
0101
,
1000
0010
0100
0010
1000
0010
1000
0100
,
1000
0100
0010
0100
0010
0001
0010
0001
,
1000
0001
1000
0100
1000
0100
0010
0100
,
0011
0011
1001
1001
,
1000
0001
0010
0001
,
0010
0001
0100
0010
,
0100
0010
1000
0010
,
1000
0100
1000
0100
,
0010
0001
0100
0001
0100
0010
0100
0010
,
1000
0010
1000
0100
1000
0100
0010
0100
,
0010
0001
0010
0001
1000
0001
0010
0100
,
0010
0001
0010
0001
0100
0010
0100
0010
,
1000
0100
1000
0100
1000
0100
1000
0100
1000
0100
1000
0100
,
1000
0100
1000
0001
0100
0001
0100
0001
0100
0001
0100
0001
,
0220
0000
0000
0000
,
0000
0000
0000
0000
,
0000
0000
0000
0000
,
0000
0000
0000
0000
,
0000
0000
0000
0000
,
0000
0000
0000
0000
,
0000
0000
0000
0000
,
0330
0000
0000
0000
,
0001
1000
0001
1000
0001
0010
0100
0010
,
0100
0010
0001
1000
0001
1000
0010
1000
,
0000
0100
0010
0100
0001
0100
0001
1000
,
0001
1000
0010
1000
0010
0100
0010
0100
,
0000
0100
0001
0010
0100
1000
0100
1000
,
0100
0010
0001
0010
0001
0010
0100
1000
,
0000
1000
0001
0010
0001
0100
0001
0100
,
0010
0100
0010
1000
0010
1000
0100
1000
,
0000
0100
0001
0100
0000
0100
0010
1000
,
0000
0100
0001
0100
0000
0100
0010
1000
,
0000
1000
0001
1000
0000
0100
0001
0100
,
0000
1000
0001
1000
0000
1000
0010
0100
,
0000
0100
0010
1000
0001
1000
0100
1000
,
0100
0010
0100
0010
0001
0010
0001
1000
,
0001
1000
0100
1000
0100
0010
0100
0010
,
0001
0010
0001
1000
0001
0010
0100
1000
,
0001
0000
1000
0000
,
0010
0000
0100
0000
,
0010
0000
0000
0000
;

//--------------- dance-single - B. M'Rey ----------------
#NOTES:
     dance-single:
     B. M'Rey:
     Hard:
     18:
     0,0,0,0,0:
0000
0000
0000
0000
,
0000
0000
0000
0000
,
0000
0000
0000
0000
,
0001
1000
0001
1000
0001
0100
0010
0100
,
0001
1000
0001
0000
0001
0100
0010
0000
0010
0100
0001
0000
0001
1000
0001
0000
,
0010
0100
0010
0000
0001
1000
0001
0000
0100
1000
0010
0000
0010
0100
0010
0000
,
0100
1000
0100
0000
0010
0100
0010
0000
0010
1000
0001
0000
0001
1000
0001
0000
,
0100
0010
0100
0000
0100
1000
0010
0000
0001
0100
0010
0000
0010
1000
0010
0000
,
0001
1000
0001
0000
0010
0100
0010
0000
0001
1000
0010
0000
0010
0100
0001
0000
,
0001
0100
0010
0000
0010
1000
0010
0000
0001
0100
0010
0000
0001
1000
0001
0000
,
0001
0010
0100
0000
0100
1000
0010
0000
0001
1000
0001
0000
0001
0100
0010
0000
,
0010
1000
0001
0000
0001
1000
0100
0010
0100
0000
0100
0000
0001
1000
0001
1000
,
0001
1000
0001
1000
,
0001
0010
0100
0010
,
0100
0010
0001
1000
,
0011
0011
0011
0000
1001
1001
1001
0000
,
0001
0000
0001
1000
0100
0000
0100
0010
0100
0000
0001
0010
0001
0000
0100
1000
,
0100
0000
0001
0100
0010
0000
0001
1000
0100
0000
0001
0010
0100
0000
0100
0010
,
0001
0000
0001
0100
0001
0000
0010
0100
0010
0000
0100
1000
0010
0000
0010
0100
,
0010
0101
0101
0000
0110
1100
1100
0000
,
0011
0000
0001
0010
0001
0000
0100
1000
0001
0000
0001
0010
0100
0000
0100
0010
,
0001
0000
0001
1000
0001
0000
0010
0100
0010
0000
0001
1000
0001
0000
0010
1000
,
0010
0000
0001
0100
0010
0000
0010
1000
0010
0000
0001
1000
0001
0000
0001
1000
,
0100
0000
0100
1000
0001
0000
0001
1000
0001
0000
0100
1000
0100
0000
0100
0010
,
0001
0000
0100
1000
0100
0000
0100
0010
0001
0000
0001
0010
0100
0000
0100
1000
,
0001
0000
0001
0100
0001
0000
0010
1000
0010
0000
0001
0100
0001
0000
0001
0010
,
0100
0000
0100
1000
0010
0000
0010
1000
0100
0000
0100
0010
0100
0000
0001
1000
,
0001
1000
0001
1000
0001
0010
0100
0010
,
0100
0000
0001
0010
0001
0000
0001
1000
0100
0000
0100
0010
0100
0000
0001
0010
,
0001
0000
0001
0100
0010
0000
0010
0100
0010
0000
0001
1000
0001
0000
0100
0010
,
0100
0000
0100
0010
0001
0000
0001
0010
0100
0000
0100
1000
0100
0000
0001
0100
,
0001
0000
0001
1000
0010
0000
0010
1000
0001
0000
0001
0010
0001
0000
0010
0100
,
0001
0000
0001
0010
0100
0000
0100
0010
0001
0000
0001
0100
0001
0000
0100
1000
,
0001
0000
0001
1000
0010
0000
0010
0100
0010
0000
0001
1000
0001
0000
0100
0010
,
0100
0000
0100
1000
0010
0000
0010
1000
0100
0000
0100
0010
0100
0000
0010
1000
,
0010
0010
1000
0010
,
0001
0000
1000
0001
1000
0000
1000
0001
1000
0000
0010
0000
0100
0000
0010
0000
,
0100
0000
0010
0001
0010
0000
1000
0001
1000
0000
1000
0000
0001
0000
0100
0000
,
0010
0000
0100
0010
0100
0000
0100
0001
0100
0000
1000
0000
0001
0000
1000
0000
,
0001
0000
0010
0100
0010
0000
0010
0000
0001
0000
0010
0000
0001
0000
1000
0000
,
0001
0000
1000
0010
1000
0000
1000
0010
1000
0000
0100
0000
0010
0000
0100
0000
,
0001
0000
0100
0001
0100
0000
1000
0100
1000
0000
1000
0000
0001
0000
1000
0000
,
0010
0000
0100
0001
0100
0000
0100
0010
0100
0000
0100
0000
0010
0000
1000
0000
,
0010
0000
1000
0001
1000
0000
0001
0000
0110
0000
0110
0000
1001
0000
1001
0000
,
0001
0000
1000
0001
1000
0000
1000
0010
1000
0000
0100
0000
0010
0000
0100
0000
,
0010
0000
1000
0001
1000
0000
1000
0001
1000
0000
0100
0000
0001
0000
0100
0000
,
0010
0000
0100
0010
0100
0000
1000
0010
1000
0000
0100
0000
0001
0000
1000
0000
,
0001
0000
1000
0001
1000
0000
0010
0000
0100
0000
0010
0000
0100
0000
1000
0000
,
0100
0000
1000
0010
1000
0000
1000
0001
1000
0000
0100
0000
0010
0000
0100
0000
,
0010
0000
0100
0001
0100
0000
1000
0001
1000
0000
0010
0000
0001
0000
0010
0000
,
0100
0000
0010
0100
0010
0000
1000
0010
1000
0000
1000
0000
0100
0000
1000
0000
,
0100
0010
0100
1000
0011
0011
1100
1100
,
0100
0000
0100
0010
1000
0000
1000
0010
1000
0000
0010
0001
0010
0000
1000
0001
,
1000
0000
0100
0001
1000
0000
1000
0010
0100
0000
1000
0100
0010
0000
1000
0100
,
1000
0000
0100
0010
1000
0000
0010
0100
0010
0000
0010
0100
1000
0000
1000
0100
,
0010
1010
0101
0101
,
1000
0000
0010
0100
0010
0000
0100
0010
1000
0000
0010
0001
0010
0000
1000
0010
,
1000
0000
1000
0100
0010
0000
1000
0010
1000
0000
1000
0001
0010
0000
1000
0010
,
1000
0000
0010
0100
1000
0000
0100
0010
1000
0000
0100
0010
0100
0000
1000
0100
,
0011
0011
1001
1001
,
1000
0000
0100
0001
1000
0000
0010
0001
0100
0000
1000
0010
0100
0000
0010
0001
,
0010
0000
0100
0010
1000
0000
0100
0010
0100
0000
1000
0100
1000
0000
1000
0100
,
0010
0000
0100
0001
0010
0000
0100
0010
0100
0000
0100
0010
1000
0000
0010
0100
,
0010
0000
0100
0001
0010
0000
1000
0010
0100
0000
0010
0100
0010
0000
0100
0001
,
0001
1000
0100
1000
0010
1000
0100
0010
,
0001
0010
0100
0010
0100
1000
0001
1000
,
0001
1000
0010
0100
0010
0100
0010
1000
,
0100
1000
0100
1000
0001
0010
0100
0010
,
0001
1000
0001
1000
0001
0010
0001
0010
0100
1000
0100
1000
,
0100
0010
0100
0010
0100
0010
0100
0010
0100
0010
0100
1000
,
0220
0000
0000
0000
,
0000
0000
0000
0000
,
0000
0000
0000
0000
,
0000
0000
0000
0000
,
0000
0000
0000
0000
,
0000
0000
0000
0000
,
0000
0000
0000
0000
,
0330
0000
0000
0000
,
1010
0000
1000
0010
1000
0000
0100
0001
1000
0000
1000
0010
0100
0000
0100
0010
,
1000
0000
1000
0001
1000
0000
0010
0100
0010
0000
1000
0001
1000
0000
0010
0001
,
0010
0000
1000
0100
0010
0000
0010
0001
0010
0000
1000
0001
1000
0000
1000
0001
,
0100
0000
0100
0001
1000
0000
1000
0001
1000
0000
0100
0001
0100
0000
0100
0010
,
1000
0000
0100
0001
0100
0000
0100
0010
1000
0000
1000
0010
0100
0000
0100
0001
,
1000
0000
1000
0100
1000
0000
0010
0001
0010
0000
1000
0100
1000
0000
1000
0010
,
0100
0000
0100
0001
0010
0000
0010
0001
0100
0000
0100
0010
0100
0000
1000
0001
,
1000
0001
1000
0001
1000
0010
0100
0010
,
0100
0000
1000
0010
1000
0000
1000
0001
0100
0000
0100
0010
0100
0000
1000
0010
,
1000
0000
1000
0100
0010
0000
0010
0100
0010
0000
1000
0001
1000
0000
0100
0010
,
0100
0000
0100
0010
1000
0000
1000
0010
0100
0000
0100
0001
0100
0000
1000
0100
,
1000
0000
1000
0001
0010
0000
0010
0001
1000
0000
1000
0010
1000
0000
0010
0100
,
1000
0000
1000
0010
0100
0000
0100
0010
1000
0000
1000
0100
1000
0000
0100
0001
,
1000
0000
1000
0001
0010
0000
0010
0100
0010
0000
1000
0001
1000
0000
0100
0010
,
0100
0000
0100
0001
0010
0000
0010
0001
0100
0000
0100
0010
0100
0000
0010
0001
,
1000
0100
1000
0100
0010
0100
0010
0001
0100
0000
0100
0001
0010
0100
0010
0100
,
1000
0001
0010
0001
,
0010
0001
0100
0010
,
0001
0000
0000
0000
;

//--------------- dance-single - B. M'Rey ----------------
#NOTES:
     dance-single:
     B. M'Rey:
     Challenge:
     20:
     0,0,0,0,0:
0000
0000
0000
0000
,
0000
0000
0000
0000
,
0000
0000
0000
0000
,
1001
0000
0001
1000
0001
1000
0001
1000
0110
0000
1010
0000
0101
0000
0011
0000
,
0011
0000
0010
0001
0010
0100
1000
0000
1000
0100
0010
0001
0010
0001
0010
0000
,
1000
0100
1000
0001
1000
0001
0100
0000
0100
0010
0100
0001
0010
0001
0010
0000
,
1000
0100
1000
0100
1000
0001
0100
0000
0100
0010
0100
0001
0010
0001
0010
0000
,
0100
0010
1000
0010
1000
0010
0100
0000
0100
0010
0100
0001
1000
0010
1000
0000
,
1000
0001
0100
0001
1000
0001
1000
0000
1000
0100
0010
0100
1000
0001
0010
0000
,
0100
0010
0100
0010
0100
0001
0010
0000
0010
0001
1000
0010
1000
0010
1000
0000
,
0010
0001
0010
0001
1000
0100
1000
0000
1000
0010
0100
0010
0100
0010
1000
0000
,
0101
0000
1001
0000
0110
0000
0001
0010
0001
0000
1010
0000
0110
0000
0011
0000
,
1000
0001
1000
0010
1000
0010
0100
0010
,
0100
0001
0100
0010
1000
0010
1000
0010
,
0100
0001
0100
0010
0100
0010
1000
0010
,
0100
0001
0100
0001
0100
0010
1000
0010
1000
0000
0011
0000
0011
0000
1010
0000
,
1010
0000
0010
0100
1000
0100
1000
0000
1000
0001
0100
0001
0100
0010
0100
0000
,
1000
0010
1000
0001
1000
0001
0100
0000
0100
0010
0100
0010
1000
0010
1000
0000
,
1000
0001
0100
0001
1000
0100
1000
0000
1000
0001
0010
0001
0010
0001
1000
0000
,
1100
0000
1010
0000
0110
0000
1000
0010
1000
0001
1000
0000
0101
0000
0110
0000
,
1000
0001
1000
0001
1000
0100
0010
0100
0010
0100
1000
0001
0010
0001
1000
0001
,
0100
0010
0100
0010
0100
0001
1000
0100
1000
0001
1000
0001
0100
0010
0100
0010
,
0100
0001
0010
0001
0010
0001
1000
0010
1000
0010
1000
0100
0010
0100
0010
0100
,
1000
0001
0010
0001
0010
0001
0100
0010
0100
0010
0100
0001
1000
0001
1000
0001
,
0100
0010
0100
0010
0100
0001
1000
0001
1000
0010
1000
0010
0100
0010
0100
0001
,
1000
0001
0010
0001
0010
0100
0010
0001
0100
0001
0100
0001
1000
0100
0010
0100
,
0010
0001
0010
0001
1000
0001
1000
0010
1000
0010
0100
0010
0100
0001
0100
0001
,
1001
0000
1001
0000
0101
0000
0100
0010
0100
0000
1001
0000
0101
0000
0101
0000
,
1000
0001
1000
0001
1000
0100
0010
0100
0010
0100
1000
0001
1000
0100
1000
0001
,
0100
0001
0100
0001
1000
0010
1000
0010
1000
0001
0100
0001
0100
0010
0100
0010
,
1000
0010
1000
0001
1000
0010
0100
0010
0100
0010
1000
0001
1000
0001
1000
0010
,
0100
0001
0100
0001
0100
0010
1000
0010
1000
0001
1000
0001
0100
0001
0100
0010
,
0100
0010
1000
0010
1000
0001
1000
0001
0100
0001
0100
0010
0100
0010
1000
0010
,
1000
0001
1000
0100
0010
0100
0010
0100
1000
0001
1000
0001
1000
0100
0010
0100
,
0010
0100
1000
0010
1000
0010
1000
0100
0010
0100
0010
0001
0100
0010
0100
0001
,
0010
0001
0010
0001
0010
0100
1000
0100
,
1010
0000
1000
0010
0100
0000
0100
0010
1000
0000
1000
0001
0100
0000
1000
0000
,
0100
0000
0010
0100
0010
0000
0100
0010
1000
0000
0010
0000
0100
0000
0010
0000
,
1000
0000
0100
0001
0010
0000
0100
0010
1000
0000
0010
0000
1000
0000
0010
0000
,
1000
0001
0100
0000
0100
0010
1000
0100
0010
0001
0010
0100
0010
0100
1000
0001
,
1000
0000
1000
0100
1000
0000
0010
0100
0010
0000
1000
0100
0010
0000
0100
0000
,
1000
0000
1000
0100
0010
0000
0010
0100
1000
0000
0100
0000
0001
0000
0100
0000
,
0010
0000
1000
0001
0100
0000
0010
0100
1000
0000
0100
0000
1000
0000
0100
0000
,
1000
0000
1100
0000
1010
0000
0101
0000
0110
0000
1000
0100
1000
0010
0100
0001
,
1100
0000
1000
0100
0010
0000
0010
0100
1000
0000
1000
0001
0010
0000
1000
0000
,
0010
0000
0100
0010
0100
0000
0010
0100
1000
0000
0100
0000
0010
0000
0100
0000
,
1000
0000
0010
0001
0100
0000
0010
0100
1000
0000
0100
0000
1000
0000
0100
0000
,
1000
0001
0010
0000
0010
0100
1000
0010
0100
0001
0100
0010
0100
0010
1000
0001
,
1000
0000
1000
0010
1000
0000
0100
0010
0100
0000
1000
0010
0100
0000
0010
0000
,
1000
0000
1000
0010
0100
0000
0100
0010
1000
0000
0010
0000
0001
0000
0010
0000
,
0100
0000
1000
0001
0010
0000
0100
0010
1000
0000
0010
0000
1000
0000
0010
0000
,
1000
0000
1010
0000
1100
0000
0011
0000
0110
0000
1000
0010
1000
0100
0010
0001
,
0100
0000
0100
0010
1000
0000
1000
0010
1000
0000
0010
0001
0010
0000
1000
0001
,
1000
0000
0100
0001
1000
0000
1000
0010
0100
0000
1000
0100
0010
0000
1000
0100
,
1000
0000
0100
0010
1000
0000
0010
0100
0010
0000
0010
0100
1000
0000
1000
0100
,
1000
0000
1000
0001
0110
0000
0010
0001
0110
0000
1000
0100
1100
0000
0100
0010
,
1000
0000
0010
0100
0010
0000
0100
0010
1000
0000
0010
0001
0010
0000
1000
0010
,
1000
0000
1000
0100
0010
0000
1000
0010
1000
0000
1000
0001
0010
0000
1000
0010
,
1000
0000
0010
0100
1000
0000
0100
0010
1000
0000
0100
0010
0100
0000
1000
0100
,
0011
0000
0010
0001
0110
0000
1000
0100
0110
0000
1000
0001
0110
0000
0100
0001
,
1000
0000
0010
0001
1000
0000
0100
0001
0010
0000
1000
0100
0010
0000
0100
0001
,
0100
0000
0010
0100
1000
0000
0010
0100
0010
0000
1000
0010
1000
0000
1000
0010
,
0100
0000
0010
0001
0100
0000
0010
0100
0010
0000
0010
0100
1000
0000
0100
0010
,
0100
0000
0010
0001
0100
0000
1000
0100
0010
0000
0100
0010
0100
0000
0010
0001
,
0110
0011
0110
1010
0110
0101
0110
1010
,
0101
0110
1100
1100
0011
0011
0101
0110
,
1010
0101
0110
1010
0101
0011
0101
0110
,
1001
0110
0110
0011
0110
1010
0110
1100
,
0010
0100
1000
0010
0100
0010
1000
0100
1000
0010
1000
0100
,
0010
0100
1000
0001
0010
0100
0010
0001
0100
0010
1000
0100
,
1000
0001
1000
0001
,
1000
0001
1000
0001
,
1000
0001
1000
0001
,
1000
0001
1000
0001
,
1000
0001
1000
0001
,
1000
0001
1000
0001
,
1000
0001
1000
0001
,
1001
0000
0000
0000
,
1000
0001
0010
0001
0010
0100
0010
0100
1000
0100
1000
0001
1000
0001
0010
0001
,
0010
0100
0010
0100
1000
0100
0010
0001
0010
0001
0010
0100
1000
0100
1000
0100
,
0010
0001
0010
0001
0100
0001
0100
0010
0100
0010
1000
0010
1000
0100
1000
0100
,
0010
0100
0010
0001
0010
0001
1000
0001
0010
0100
0010
0100
0010
0001
1000
0001
,
0010
0001
0010
0100
0010
0100
1000
0100
1000
0001
1000
0001
0010
0001
0010
0100
,
0010
0100
1000
0001
1000
0010
1000
0001
0010
0001
0010
0001
0100
0010
0100
0001
,
0100
0001
0010
0001
0010
0100
0010
0100
1000
0100
1000
0001
0100
0010
0100
0010
,
0101
0000
0011
0000
0011
0000
1000
0100
1000
0000
1001
0000
0101
0000
0101
0000
,
0010
0100
0010
0100
0010
0000
0100
0000
1000
0001
1000
0010
1000
0000
0100
0000
,
0100
0001
0100
0001
0010
0000
0100
0000
0100
0010
0100
0001
1000
0000
1000
0000
,
0010
0100
0010
0100
0010
0000
0100
0000
0100
0001
1000
0010
0100
0000
0100
0000
,
0100
0001
0100
0001
0100
0010
1000
0001
1000
0001
1000
0100
0010
0100
0010
0100
,
1000
0000
1000
0010
1000
0000
0100
0010
0100
0000
0100
0010
1000
0000
1000
0010
,
0100
0000
0100
0001
0100
0000
1000
0010
1000
0000
0100
0001
0100
0000
0100
0010
,
1000
0000
0100
0010
0100
0000
0100
0001
0010
0000
0010
0100
0010
0000
1000
0100
,
1000
0010
1000
0010
0100
0010
0100
0001
0010
0000
0010
0001
0100
0010
0100
0010
,
1000
0001
0100
0001
,
0100
0001
0010
0100
,
0001
0000
0000
0000
;
