#TITLE:Tusa;
#ARTIST:KAROL G, Nicki Minaj;
#GENRE:POP;
#CREDIT:B. M'Rey;
#MUSIC:TUSA.ogg;
#BANNER:TUSA-bn.png;
#BACKGROUND:TUSA-bg.png;
#CDTITLE:./CDTITLES/Dance Dance Revolution SPACE.PNG;
#SAMPLESTART:36.832;
#SAMPLELENGTH:15;
#OFFSET:-0.060;
#BPMS:0=101;

//--------------- dance-single - B. M'Rey ----------------
#NOTES:
     dance-single:
     B. M'Rey:
     Beginner:
     3:
     0,0,0,0,0:
0000
0000
0000
0000
,
0000
0000
0000
0000
,
0000
0000
0000
0000
,
0000
0000
0000
0000
,
0000
0000
0000
0010
,
1000
0000
0000
0100
,
0010
0000
0010
0000
,
0100
0001
0000
0010
,
0100
0000
0001
0000
,
0010
0100
0000
0010
,
0000
1000
0000
0100
,
0001
1000
0000
0010
,
0000
0010
0001
0000
,
0001
0000
0001
0000
,
0100
0000
0001
0000
,
0000
0100
0001
0000
,
0000
0000
0010
0000
,
0001
0000
0001
0002
,
0003
0000
0010
0000
,
0100
0200
0000
1300
,
0000
1000
0010
0000
,
0010
0000
0001
2000
,
3000
0000
0100
0000
,
0001
0000
0010
0000
,
0000
0000
0002
0003
,
0001
0000
0010
0000
,
0001
0000
0100
1000
,
0000
0100
0001
0000
,
0100
0000
0100
0000
,
0100
0000
0001
0100
,
0001
0000
0100
0000
,
0001
0000
0001
0000
,
0100
0000
0100
0000
,
0001
0000
0001
0010
,
0001
0000
0010
0000
,
0001
0000
0100
0000
,
0100
0000
1000
0000
,
0000
0010
0001
0000
,
0000
0010
0100
0000
,
0000
1000
0100
0000
,
0000
0001
0000
0000
,
1000
0000
0000
0000
,
0010
0000
0001
0000
,
0001
0002
0003
0000
,
0010
0000
0100
0200
,
0300
1000
0000
1000
,
0010
0000
0010
0000
,
0001
2000
3000
0000
,
0100
0000
0001
0000
,
0010
0000
0000
0000
,
0001
0000
0001
0000
,
0010
0000
0001
0000
,
0100
0000
1000
0000
,
0100
0000
0001
0000
,
0100
0000
0100
0000
,
0001
0000
0100
0000
,
0001
0000
0000
0000
;

//--------------- dance-single - B. M'Rey ----------------
#NOTES:
     dance-single:
     B. M'Rey:
     Easy:
     5:
     0.168156,0.223943,0.029612,0.09624,0,159,155,4,13,0,0,0.168156,0.223943,0.029612,0.09624,0,159,155,4,13,0,0:
0000
0000
0000
0000
,
0000
0100
1000
0000
,
0000
0010
0001
0000
,
0000
0100
1000
0000
,
0000
0000
0000
1000
,
0001
0001
0000
1000
,
0001
0001
1000
0010
,
0001
0000
0001
0000
0000
0000
0000
0001
,
0000
0010
0000
1000
0000
0000
1000
0000
,
0001
0001
0000
1000
,
0001
0001
1000
0010
,
0001
0001
0000
1000
,
0100
1000
1001
1000
,
0001
1000
1001
1000
,
0100
1000
0020
0000
,
0000
0030
0000
0000
1000
0000
1000
0000
,
1000
1000
0010
0000
,
0100
0100
0001
0010
,
1000
0000
0001
1000
,
0001
0000
2000
0000
0000
3000
0001
0000
,
0100
1000
0100
0000
,
0100
0100
0001
0010
,
1000
0000
0001
1000
,
0001
0000
2000
0000
0000
3000
0001
0000
,
0010
0100
1000
0000
,
0100
0000
0010
0000
,
1000
0000
1000
0001
,
1000
0001
1001
0000
,
1001
0000
0000
0010
0100
0000
0010
0000
,
0100
0000
0010
0000
0010
0000
1000
0100
,
1000
0000
0010
0000
0001
0000
0010
1000
,
0100
0000
0010
0000
0001
0000
0010
1000
,
0100
0000
1001
0000
,
1001
0000
0000
0010
0100
0000
0010
0000
,
0100
0000
0010
0000
0010
0000
1000
0100
,
1000
0000
0010
0000
0001
0000
0010
1000
,
0100
0000
0002
0000
,
0203
0000
0320
0000
,
2030
0000
3002
0000
,
0203
0000
0320
0000
,
2030
0000
3000
0000
,
1000
1000
1000
1000
,
0010
0000
0100
0100
,
0001
0010
1000
0000
,
0001
1000
0001
2000
,
0000
3000
0001
0000
0100
0000
1000
0000
,
0100
0000
0100
0100
,
0001
0010
1000
0000
,
0001
1000
0001
2000
,
0000
3000
0000
0000
0000
0000
0000
0000
,
0100
1000
0001
1000
,
0001
1000
0100
0010
,
0100
0010
0100
1000
,
0001
1000
0001
1000
,
0100
0010
0100
0010
,
0100
0000
0000
0000
;

//--------------- dance-single - B. M'Rey ----------------
#NOTES:
     dance-single:
     B. M'Rey:
     Medium:
     8:
     0.342657,0.456029,0.081434,0.059225,0.092538,324,313,11,8,0,0,0.342657,0.456029,0.081434,0.059225,0.092538,324,313,11,8,0,0:
0000
0000
0000
0000
,
0000
0000
0100
0000
1000
0000
0000
1000
,
0000
0000
0010
0000
0001
0000
0000
0001
,
0000
0000
0100
0000
1000
0000
0000
1000
,
0000
0000
0000
1000
,
0001
0000
0001
0010
0000
0000
1000
0000
,
0001
0010
0001
0000
1000
0100
0010
0000
,
0001
0010
0001
0010
0000
0000
0000
0001
,
0000
0010
0000
1000
0100
0000
1000
0000
,
0001
0000
0001
0010
0000
0000
1000
0000
,
0001
0010
0001
0000
1000
0100
0010
0000
,
0001
0010
0001
0000
0000
0000
0000
1000
,
0001
0000
0100
1000
0010
0000
0000
1000
,
0001
0000
0100
1000
0010
0000
0000
1000
,
0100
0000
0100
1000
0020
0000
0000
0030
,
0000
0001
0000
0000
1000
0001
1000
0100
,
1000
0001
1000
0000
0010
0000
0000
1000
,
0100
1000
0100
0001
0001
0000
0010
0000
,
1000
0000
0000
0010
0001
0010
1000
0010
,
0001
0010
1000
0002
0000
0003
1000
0100
,
1000
0100
0010
1000
0100
0000
0000
1000
,
0100
1000
0100
0001
0001
0000
0010
0000
,
1000
0000
0000
0010
0001
0010
1000
0010
,
0001
0010
1000
0002
0000
0003
0000
0000
,
0000
0000
0000
0000
1000
0001
0000
0001
,
1000
0000
0001
0000
0000
0001
0010
0000
1000
0000
0001
0000
0000
0000
0001
0000
,
1000
0000
0001
0000
0000
0001
0100
0000
1000
0000
0001
0000
0000
0000
0001
0000
,
1000
0000
0001
0000
0000
0001
0010
0000
1000
0000
0001
0000
0000
0000
0001
0000
,
1000
0000
0000
0010
0100
0000
0010
0010
,
0100
0000
0010
0001
0010
0100
1000
0100
,
1000
0000
0010
0010
0001
0001
0010
0010
,
0100
0000
0010
0010
0001
0001
0010
0010
,
0100
0000
0000
0000
0000
0000
0000
0000
1001
0000
0000
0001
0010
0000
0001
0000
,
1000
0000
0000
0001
0010
0000
0001
0000
1000
0000
0100
0000
0001
0000
0001
0000
,
1000
0000
0000
0000
0001
0000
0010
0000
0100
0000
0000
1000
0001
0000
0100
1000
,
0010
0000
0000
0000
0001
0000
0010
0000
0100
0000
0000
1000
0001
0000
0100
1000
,
0010
0000
0000
0000
0000
0000
1001
0000
0000
0100
1000
0100
0001
0000
1000
0000
,
0000
0010
1000
0010
0001
0000
1000
0000
0000
0100
1000
0100
0001
0000
1000
0000
,
0000
0010
1000
0010
0001
0000
1000
0000
0000
0100
1000
0100
0001
0000
1000
0000
,
0000
0010
1000
0010
0001
0000
1000
0000
0000
0100
1000
0100
0001
0000
1000
0000
,
0000
0010
1000
0010
0001
0000
1000
0000
0000
0000
0000
0000
0000
0000
0000
0000
,
1000
0001
1000
0100
1000
0001
1000
0000
,
0010
0001
0010
0100
1000
0100
1000
0001
,
1001
0000
0011
0000
1100
0002
0000
0013
,
0001
0010
1000
0100
0001
0100
1000
0022
,
0000
0033
1000
0100
1000
0001
0010
0000
,
0010
0001
0010
0100
1000
0100
1000
0001
,
1001
0000
0011
0000
1100
0000
0000
0010
,
0001
0010
1000
0100
0001
0100
1000
0022
,
0000
0000
0000
0033
1001
0000
0000
0000
,
1000
0000
0100
0000
1000
0000
0100
0100
,
0010
0000
0001
0000
0010
0000
0010
0010
,
0100
0000
1000
0000
0100
0000
0100
0100
,
0010
0000
0001
0000
0010
0000
0010
0010
,
0100
0000
1000
0000
0100
0000
0100
0100
,
0010
0000
0001
0000
0010
0000
0010
0010
,
0100
0000
0000
0000
;

//--------------- dance-single - B. M'Rey ----------------
#NOTES:
     dance-single:
     B. M'Rey:
     Hard:
     11:
     0.435724,0.518215,0.125852,0.037015,0.236898,412,395,17,5,0,0,0.435724,0.518215,0.125852,0.037015,0.236898,412,395,17,5,0,0:
0000
0000
0000
0000
,
0000
0010
0100
0001
1000
0000
0000
1000
,
0000
0100
0010
1000
0001
0000
0000
0001
,
0000
0010
0100
0001
1000
0000
0000
1000
,
0000
0010
0100
0001
1000
0000
1000
0100
,
0001
1000
0001
0010
0000
0000
1000
0100
,
0001
0010
0001
0010
1000
0100
0010
1000
,
0001
0010
0001
0010
0000
0000
0000
0001
,
1000
0010
0001
1000
0100
0000
1000
0100
,
0001
1000
0001
0010
0000
0100
1000
0010
,
0001
0010
0001
0000
1000
0100
0010
1000
,
0001
0000
0010
0000
0001
0000
0100
0000
0000
0000
0000
0000
0000
0010
1000
0100
,
0001
0000
0010
1000
0000
0100
1000
0000
0010
0000
0000
0000
0000
0100
1000
0100
,
0001
0000
0010
0100
0000
0010
1000
0000
0010
0000
0000
0000
0000
0000
1000
0000
,
0100
0001
0100
1000
0020
0000
0000
0030
,
0000
0001
0000
0000
1000
0001
1000
0100
,
1000
0001
1000
0000
0010
0001
0000
1000
,
0100
1000
0100
0001
1001
0000
0011
0000
,
1100
0000
0000
0010
0001
0010
1000
0010
,
0001
0010
1000
0002
0000
0003
1000
0100
,
1000
0000
0100
0000
0010
0000
0000
0100
0000
1000
0000
0000
0000
0000
1000
0000
,
0100
1000
0100
0001
1001
0000
0011
0000
,
1100
0000
0000
0010
0001
0010
1000
0010
,
0001
0010
1000
0002
0000
0103
0010
1000
,
0001
0000
0000
0100
0000
0000
0010
0000
1000
0000
0001
0000
0000
0000
0001
0000
,
1000
0000
0001
0000
0000
0001
0010
0000
1000
0000
0001
0000
0000
0000
0001
1000
,
0100
0010
0001
1000
0010
0001
0100
0000
1000
0000
0001
0000
0000
0000
0001
0000
,
1000
0000
0001
0000
0100
0001
0010
0000
1000
0000
0001
0000
0000
0000
0001
0000
,
1000
0000
0000
0000
0000
0000
0010
0000
0100
0000
0000
1000
0010
0000
0010
0000
,
0100
0000
0000
0001
0010
1000
0001
0000
0010
0000
0100
0010
1000
0001
0100
0000
,
1000
0000
0000
0000
0010
1000
0010
0100
0001
0000
0001
1000
0010
0100
0010
0000
,
0100
0000
0000
1000
0010
0100
0010
1000
0001
0000
0001
0100
0010
1000
0010
0000
,
0100
0000
0000
0010
0001
0100
0010
0000
1001
0000
0000
0001
0010
0000
0001
0000
,
1001
0000
0000
0001
0010
0000
0001
0000
1000
0000
0100
0010
0001
1000
0001
0000
,
1000
0000
0000
1000
0001
0100
0010
0000
0100
0000
0000
1000
0001
0000
0100
1000
,
0010
0000
0000
1000
0001
0100
0010
0000
0100
0000
0000
1000
0001
0000
0100
1000
,
0010
0000
0000
0000
0000
0000
1001
0000
0000
0100
1000
0100
1000
0000
1000
0000
,
0000
0010
0100
0010
0100
0000
0100
0000
0000
0010
0001
0010
0001
0000
0001
0000
,
0000
0100
0001
0100
0001
0000
0100
0000
0000
0001
1000
0001
1000
0000
1000
0000
,
0000
0010
1000
0010
1000
0000
1000
0000
0000
0100
0010
0100
0010
0000
0100
0000
,
0000
0010
1000
0010
0001
0000
1000
0000
0000
0000
0000
0000
0000
0000
0000
0000
,
1000
0001
1000
0100
1000
0001
1000
0000
,
0010
0001
0000
1000
0100
1000
0100
0001
,
1001
0000
0011
0000
1100
0011
1100
0010
,
0001
0010
1000
0010
0001
0010
1000
0002
,
0000
0000
0003
0000
1000
0000
0100
0000
1000
0000
0100
0000
0010
0000
0000
0100
,
0000
1000
0000
0000
0000
0000
1000
0000
0100
0000
1000
0000
0100
0000
0001
0000
,
1001
0000
0011
0000
1100
0000
0000
0010
,
0001
0010
1000
0010
0001
0010
1000
0002
,
0000
0000
0103
0000
0000
0000
0001
1000
0001
0000
1000
0000
0001
0000
1000
0000
,
0001
0000
0100
0001
1000
0001
0100
1000
,
0010
0000
0001
1000
0010
0001
0010
1000
,
0100
0000
1000
0001
0100
0010
0100
1000
,
0010
0000
0001
0000
0010
1000
0010
0001
,
0100
0000
1000
0000
0100
0001
0100
1000
,
0010
0000
0001
0000
0010
1000
0010
0001
,
0100
0000
0000
0000
;
