#TITLE:This is Love;
#ARTIST:D-crew;
#GENRE:CORE POP;
#CREDIT:B. M'Rey;
#MUSIC:This is Love.ogg;
#BANNER:This is Love.png;
#BACKGROUND:This is Love-bg.png;
#CDTITLE:./CDTITLES/beatmania IIDX 13 DistorteD.png;
#SAMPLESTART:85.773;
#SAMPLELENGTH:15;
#OFFSET:-0.089;
#BPMS:0=175;

//--------------- dance-single - B. M'Rey ----------------
#NOTES:
     dance-single:
     B. M'Rey:
     Beginner:
     4:
     0,0,0,0,0:
0000
0000
0000
0000
,
0000
0000
0000
0000
,
0000
0000
0000
0000
,
0000
0000
0000
0000
,
1001
0000
0000
0000
,
1000
0000
0000
0000
,
0010
0000
0000
0000
,
0100
0000
0000
0000
,
0001
0000
1000
0000
,
0110
0000
0000
0000
,
1000
0000
0000
0000
,
0001
0000
0010
0000
,
0100
0000
0000
0000
,
1010
0000
0000
0000
,
0100
0000
0010
0000
,
0001
0000
0000
0000
,
0010
0000
1000
0000
,
0010
0000
0000
0000
,
0100
0000
0000
0000
,
0010
0000
0000
0000
,
1001
0000
1001
0000
,
0010
0000
0000
0000
,
0100
0000
1000
0000
,
0001
0000
0000
0000
,
0010
0000
0100
0000
,
0001
0000
0000
0000
,
1000
0000
0010
0000
,
0100
0000
0000
0000
,
0011
0000
0000
0000
,
0000
0010
0000
1000
,
0000
0001
1000
0001
,
0000
0010
0000
0100
,
0000
0010
0100
0010
,
0000
0001
0000
0010
,
0000
0100
0001
0100
,
0000
0010
0000
1000
,
0000
0010
0000
0001
,
0000
0010
0000
1000
,
0000
0010
0100
0000
,
1000
0000
0001
0000
,
0100
0000
0001
0000
,
0001
0000
1000
0000
,
1000
0000
0010
0000
,
0010
0000
0000
0000
,
0100
0000
0000
0000
,
1001
0000
0000
0000
,
0110
0000
0000
0000
,
0101
0000
0000
0000
,
1010
0000
0000
0000
,
0110
0000
0000
0000
,
1001
0000
0000
0000
,
0101
0000
0000
0000
,
0110
0000
0000
0000
,
1000
0000
0001
0000
,
1000
0000
0001
0000
,
0010
0000
0100
0000
,
0010
0000
0100
0000
,
0001
0000
0010
0000
,
0001
0000
1000
0000
,
0100
0000
1000
0000
,
0100
0000
0010
0000
,
1001
0000
0000
0000
,
0000
0000
0000
0000
,
1000
0000
0001
0000
,
0010
0000
0100
0000
,
0110
0000
0110
0000
,
0110
0000
0000
0000
,
0001
0000
1000
0000
,
0010
0000
0100
0000
,
0001
0000
1000
0000
,
0010
0000
0100
0000
,
0001
0000
1000
0000
,
0010
0000
0100
0000
,
1001
0000
1001
0000
,
1001
0000
0100
0000
,
0001
0000
0010
0000
,
1000
0000
0010
0000
,
0100
0000
0010
0000
,
0001
0000
0000
0000
,
1001
0000
0000
0000
;

//--------------- dance-single - B. M'Rey ----------------
#NOTES:
     dance-single:
     B. M'Rey:
     Easy:
     7:
     0,0,0,0,0:
0000
0000
0000
0000
,
0000
0000
0000
0000
,
0110
0000
1100
0000
,
0100
0000
0100
0000
,
1001
0000
0000
0000
,
0010
0001
0010
0100
,
0010
0100
1000
0100
,
1000
0010
1000
0010
,
0100
0000
1000
0000
,
1001
0001
1000
0100
,
0010
0100
0010
0100
,
1000
0000
0001
0000
,
1000
0000
0010
0100
,
0010
0100
1000
0001
,
0100
0001
0100
0001
,
0010
0100
1000
0100
,
0010
0100
1000
0001
,
1000
0001
0010
0100
,
0010
0100
0010
0001
,
1000
0001
1000
0100
,
1001
0000
0011
0000
,
0010
0001
0100
0010
,
0100
0010
0100
0001
,
1000
0001
1000
0001
,
0100
0010
0100
0010
,
0100
0001
1000
0001
,
1000
0001
0010
0100
,
0010
0001
1000
0001
,
0011
0000
0110
0000
,
0000
0001
0100
0001
,
0000
0010
0100
0001
,
0000
0001
0010
0001
,
0000
0100
1000
0010
,
0000
0010
0100
0010
,
0000
0001
1000
0010
,
0000
0010
0100
0010
,
0000
1000
0000
0001
,
0000
0001
0010
0100
,
0000
0100
1000
0100
,
0000
0001
1000
0100
,
0000
0001
1000
0001
,
0000
0001
0010
0100
,
0000
0100
0010
0001
,
0000
0001
0100
0010
,
0000
0010
0100
0001
,
1001
0000
0000
0000
,
0110
0000
0000
0000
,
0101
0000
0000
0000
,
1010
0000
0000
0000
,
0110
0000
0000
0000
,
0101
0000
0000
0000
,
0110
0000
0000
0000
,
1000
0000
0001
0000
,
1000
0001
0010
0100
,
0010
0100
1000
0100
,
1000
0001
0010
0001
,
0010
0001
1000
0010
,
1000
0001
1000
0010
,
0100
0010
0100
0010
,
1000
0001
1000
0001
,
1000
0100
0010
0001
,
0011
0000
0000
0000
,
0000
0000
1000
0100
,
0010
0001
0100
0001
,
1000
0001
1000
0100
,
0010
0000
0010
0000
,
0010
0000
0000
0010
,
1000
0001
1000
0100
,
0010
0001
0010
0100
,
0100
0000
1000
0000
,
0100
0000
0010
0001
,
1000
0001
1000
0100
,
1000
0010
0100
0001
,
0100
0000
0100
0000
,
0100
0000
1000
0100
,
1000
0000
0010
0100
,
0010
0001
0010
0100
,
1000
0000
0010
0000
,
0001
0000
0000
0000
,
1001
0000
0000
0000
;

//--------------- dance-single - B. M'Rey ----------------
#NOTES:
     dance-single:
     B. M'Rey:
     Medium:
     10:
     0,0,0,0,0:
0000
0000
0000
0000
,
0000
0000
0000
0000
,
1000
0001
1000
0001
,
1000
0100
0010
0100
,
0110
0000
0000
0000
,
1000
0000
1000
0001
0000
0100
0000
0010
,
0000
0100
0000
0010
0000
1000
0000
0010
,
0100
0000
0001
0000
1000
0000
0100
0010
,
1000
0000
0100
0001
0100
0000
0100
0010
,
1000
0000
1000
0010
0000
0001
0000
0010
,
0000
0001
0000
1000
0000
0100
0000
0010
,
1000
0010
1000
0100
,
0010
0000
0100
0000
0010
0100
1000
0100
,
0010
0100
1000
0010
,
1000
0000
0010
0001
1000
0100
1000
0100
,
0010
0100
0010
0100
,
1000
0100
1000
0000
0010
0100
1000
0000
,
0010
0100
0010
0000
0010
0001
0100
0000
,
2000
0000
0001
0000
0001
0000
3100
0001
,
0010
0000
0100
0001
0100
0000
0010
0100
,
0110
0000
1001
0000
,
0100
0000
0100
0010
1000
0000
1000
0001
,
0100
0010
0100
0001
,
1000
0010
0100
0010
0100
0001
1000
0010
,
1000
0100
0010
0100
,
0010
0000
1000
0001
0000
0100
0000
0100
,
1000
0000
1000
0001
1000
0000
0010
0001
,
0010
0000
0010
0001
0100
0000
0100
0001
,
0010
0010
0000
0100
0000
0001
0100
0001
,
0000
0000
0010
0000
0010
0100
0000
0002
,
0000
0000
1003
0000
1000
0100
0000
0002
,
0000
0003
0010
0000
0100
1000
0000
0010
,
0000
0100
0000
0010
0000
1000
0000
0001
,
0000
0010
1000
0000
0100
0001
0000
0100
,
0010
1000
0000
0000
0010
0100
0000
0001
,
1000
0000
1000
0100
0010
0100
0010
0100
,
1000
0000
1000
0010
0000
0100
0010
0000
,
0010
0000
1000
0010
1000
0010
1000
0001
,
0100
0000
1000
0001
1000
0100
1000
0100
,
0010
0000
0010
0001
0010
0001
1000
0001
,
1000
0000
1000
0001
0100
0000
0010
0000
,
0100
0000
1000
0010
1000
0000
0001
0000
,
0010
0000
0010
0001
1000
0100
1000
0100
,
1000
0100
0001
0100
,
1000
0100
1000
0000
1000
0010
0100
0000
,
0001
0000
1000
0000
,
0010
0000
0100
0000
,
0010
0000
1000
0000
,
0001
0000
0010
0000
,
0100
0000
0010
0000
,
1000
0000
0100
0000
,
1000
0000
0001
0000
,
1000
0000
0001
0000
,
1000
0010
1000
0001
,
1000
0100
0010
0001
,
1000
0001
1000
0100
,
1000
0001
0100
0001
,
0010
0001
0010
0100
,
0010
0001
0100
0010
,
0100
0010
1000
0010
,
0100
0001
1000
0100
,
0011
0000
0000
0000
,
0000
0000
0100
0100
,
1000
0010
1000
0001
0000
0100
0010
0000
,
0001
0100
0001
0010
,
1100
0000
0110
0000
,
0011
0000
0000
1000
,
0010
0000
0010
0001
0000
0100
1000
0000
,
0100
0001
1000
0100
,
0001
0010
1000
0000
0100
0010
0100
0000
,
0100
0001
1000
0000
1000
0000
0010
0000
,
0100
0000
0100
0001
0000
0100
1000
0000
,
0100
0010
1000
0100
,
0010
0000
0011
0000
,
0101
0000
0100
0010
,
1000
0000
1000
0100
,
1000
0100
1000
0010
,
0110
0100
0110
1000
,
0110
0000
0010
0100
1000
0001
1000
0000
,
1010
0000
0000
0000
;

//--------------- dance-single - B. M'Rey ----------------
#NOTES:
     dance-single:
     B. M'Rey:
     Hard:
     14:
     0,0,0,0,0:
0000
0000
0000
0000
,
0000
0000
0000
0000
,
0100
0010
0100
0001
1000
0001
0010
0100
,
0000
0001
1000
0000
1000
0100
0000
0010
,
0110
0000
0000
0000
,
0100
0010
0100
0001
0100
0001
0010
0100
,
0010
0100
1000
0001
0100
0010
0100
0001
,
1000
0001
1000
0001
0010
0100
1000
0001
,
1000
0100
0010
1000
,
0110
0000
1000
0100
0010
0100
0010
0001
,
1000
0010
1000
0100
1000
0001
0100
0010
,
1000
0000
0100
0010
0100
0000
1000
0100
,
1000
0000
0010
0001
1100
0000
1001
0000
,
0100
0000
0100
0001
1000
0000
1000
0010
1000
0000
0100
0010
0100
0000
0100
0001
,
0010
0000
0010
0100
0010
0000
1000
0100
1000
0000
1000
0001
0100
0000
1000
0010
,
1000
0000
1000
0001
0010
0000
0010
0001
1000
0000
1000
0100
0010
0000
0010
0001
,
0010
1000
0110
0000
0010
0001
0100
0000
,
1000
0000
1000
0100
0010
0000
1000
0001
0010
0000
0010
0100
1000
0000
1000
0100
,
0010
0000
0010
0001
0010
0000
1000
0100
1000
0000
0010
0001
0010
0000
0100
0001
,
0010
0000
0010
0100
0010
0000
0100
0001
0100
0000
1000
0010
1000
0000
0001
0000
,
0101
0000
0110
0000
,
0100
0001
0100
0001
1000
0100
0010
0001
,
0100
0010
1000
0100
0010
0100
0010
0001
,
0100
0010
1000
0100
1000
0001
0010
0001
,
0010
0001
1000
0010
1000
0001
0010
0001
,
1000
0000
1000
0001
1000
0000
0010
0100
1000
0000
1000
0010
1000
0000
0010
0100
,
0010
0000
1000
0001
1000
0000
0010
0001
0100
0000
0100
0010
0100
0000
1000
0001
,
1000
0000
1000
0010
0100
0000
0100
0001
0100
0000
1000
0010
1000
0000
0100
0000
,
0110
0110
0000
0011
0000
0001
0010
0001
,
0000
0000
1000
0010
1000
0100
0010
0001
,
0100
0000
1000
0001
1000
0100
0010
0001
,
0100
0000
0100
0010
0100
0001
1000
0100
,
1000
0100
0010
0001
,
0100
0001
0010
0100
1000
0100
1000
0000
,
0100
0001
0010
0100
0010
0001
0100
0010
,
0100
0000
0010
0001
0010
0100
0010
0100
,
1000
0000
0010
0001
0100
0000
1000
0010
,
1000
0001
0100
0001
0100
0001
1000
0100
,
1000
0100
0010
0100
0010
0001
0010
0100
,
1000
0010
1000
0100
1000
0100
0010
0100
,
0010
0001
0010
0001
1000
0001
1000
0010
,
1001
0000
0110
0000
0101
0000
0010
0100
,
0110
0000
1100
0000
0011
0000
1000
0010
,
0100
0000
1000
0000
0010
0000
0010
0100
,
1000
0000
1000
0100
0010
0000
0010
0001
,
1000
0010
1000
0100
,
1000
0100
0010
0100
,
0010
0001
0010
0100
,
1000
0001
1000
0001
,
1000
0010
0100
0001
,
0100
0001
0100
0010
,
1000
0010
1000
0010
,
0100
0001
0100
0001
,
1000
0001
1000
0001
1000
0100
0010
0100
,
0010
0100
1000
0001
1000
0001
1000
0100
,
0010
0100
0010
0100
1000
0001
1000
0001
,
1000
0010
0100
0001
0010
0001
0100
0001
,
0100
0010
0100
0010
1000
0010
1000
0001
,
0010
0001
0010
0001
0100
0010
0100
0010
,
0100
0001
1000
0010
1000
0001
0100
0010
,
0100
0010
0100
0001
1000
0001
1000
0000
,
0202
0000
0000
0000
,
0000
0303
1000
0001
,
1000
0001
1000
0001
1000
0010
0100
0010
,
0100
0010
1000
0100
0010
0100
0010
0100
,
1010
0100
0110
1000
,
1100
0000
1000
0000
0100
0000
0100
0001
,
0010
0100
0010
0100
1000
0100
1000
0001
,
1000
0001
0100
0001
0100
0010
0100
0001
,
1000
0000
0010
0100
0010
0000
1000
0100
,
1000
1000
0100
0010
,
1000
0001
1000
0001
0100
0001
0100
0010
,
0100
0010
1000
0010
1000
0001
0100
0001
,
0100
1000
1100
1000
,
0110
0000
0100
0000
1000
0001
1000
0001
,
1000
0000
0100
0010
0100
0010
1000
0001
,
0100
0000
0100
0001
1000
0100
1000
0100
,
1000
0010
0011
0100
,
0110
0000
0100
0001
1000
0001
1000
0001
,
0110
0000
0000
0000
;

//--------------- dance-single - B. M'Rey ----------------
#NOTES:
     dance-single:
     B. M'Rey:
     Challenge:
     18:
     0,0,0,0,0:
0000
0000
0000
0000
,
0000
0000
0000
0000
,
0110
0000
0000
0000
0010
0000
1000
0000
0110
0000
0000
0000
0100
0010
0100
0010
,
0001
0000
1000
0000
0010
1000
0000
1000
0100
0000
1000
0000
0010
0000
0100
0000
,
0101
0000
0000
0000
,
1000
0000
1000
0100
0010
0000
1000
0100
1000
0000
1000
0001
0010
0000
0010
0100
,
1000
0000
1000
0001
1000
0000
0010
0100
1000
0000
1000
0100
0010
0000
0010
0001
,
1000
0000
1000
0010
1000
0000
0100
0010
0100
0000
1000
0001
1000
0000
0010
0100
,
1000
0100
0010
0100
0010
0000
0010
0000
1000
0100
0010
0100
0010
0000
0001
0000
,
0101
0000
0100
0010
1000
0000
1000
0010
0100
0000
0100
0001
0100
0000
1000
0001
,
1000
0000
1000
0010
0100
0000
0100
0001
0100
0000
1000
0001
1000
0000
0100
0010
,
0100
0000
1000
0100
1000
0000
1000
0001
0100
0000
0100
0001
1000
0000
1000
0100
,
0010
0000
0010
0001
0010
0000
1000
0001
1000
0010
1000
0010
0100
0010
0100
0001
,
1000
0100
1000
0100
0010
0100
0010
0001
,
0010
0001
1000
0001
0100
0010
0100
0010
,
0100
0001
1000
0010
1000
0010
1000
0100
,
0010
0001
0011
0001
0010
0100
1000
0001
,
1000
0010
1000
0100
0010
0001
0010
0001
,
0010
0100
1000
0001
1000
0001
1000
0010
,
0100
0010
1000
0100
1000
0001
1000
0001
,
0101
0101
0000
0000
0110
0110
0000
0000
,
0100
0000
0100
0001
0100
0000
1000
0010
1000
0000
0100
0001
0100
0000
0100
0010
,
1000
0000
1000
0001
0010
0000
0010
0100
0010
0000
1000
0100
1000
0000
0100
0001
,
0100
0000
1000
0010
1000
0000
0100
0010
1000
0000
0010
0001
0010
0000
0010
0100
,
1000
0000
1000
0001
1000
0000
0100
0001
0100
0000
0100
0010
1000
0000
1000
0100
,
1000
0000
0001
0010
0001
0000
1000
0100
0010
0100
0010
0100
0010
0100
0010
0100
,
0010
0000
0001
0010
0001
0000
0010
1000
0010
1000
0010
1000
0010
1000
0010
1000
,
0010
0000
0100
0001
0100
0000
0010
0100
0010
0100
0010
0100
0010
0100
0010
0100
,
0010
0000
1010
0000
0000
0100
1000
0000
0100
0001
1000
0010
0100
0001
0010
0000
,
0000
0000
0110
1000
0010
1100
1000
0100
,
1000
0001
0100
0001
0010
0100
1000
0010
,
0100
0010
1100
0100
0010
0101
0100
0001
,
0010
0100
1000
0100
0010
0001
0100
0001
,
0010
0001
0110
0010
1000
0101
0100
0001
,
0010
0100
0010
0001
0100
0001
1000
0010
,
1000
0100
1100
0100
0010
1001
1000
1100
,
1000
0010
0100
0110
0100
0001
1010
0010
,
0100
0001
1100
0100
0010
1100
1000
0010
,
0100
0010
0101
0001
1000
0110
0100
0001
,
0100
0001
0011
0001
0100
0110
0100
0101
,
0100
0010
1000
0100
1000
0010
1000
0010
,
0100
0001
0100
0001
1000
0000
0010
0000
1000
0000
0100
0000
0010
0000
0001
0000
,
0100
0010
0100
0010
1000
0000
0001
0000
0010
0000
0100
0000
0010
0000
0001
0000
,
0110
0100
1010
0010
1100
0100
0011
0001
,
0110
0010
1000
0001
1000
0100
0010
0001
,
0100
0000
0101
0101
0000
0101
0101
0000
,
0100
0000
1010
1010
0000
1010
1010
0000
,
1000
0000
1100
1100
0000
1100
1100
0000
,
0010
0000
0110
0110
0000
0011
0011
0000
,
0010
0000
1001
1001
0000
1001
1001
0000
,
1000
0000
1010
1010
0000
0101
0101
0000
,
0100
0000
0011
0011
0000
0011
0011
0000
,
0110
0101
1010
0110
,
0010
0000
1000
0010
1000
0000
0010
0001
0010
0000
0010
0001
1000
0000
1000
0100
,
0010
0000
1000
0010
0100
0000
0100
0010
1000
0000
0100
0010
0100
0000
0100
0001
,
0010
0000
1000
0001
0100
0000
1000
0001
0010
0000
1000
0010
0100
0000
1000
0010
,
1000
0000
0010
0100
1000
0000
0010
0100
1000
0000
0010
0100
1000
0000
0100
0010
,
1000
0000
0010
0001
0100
0000
1000
0001
0100
0000
1000
0010
1000
0000
1000
0010
,
0100
0000
1000
0010
0100
0000
0010
0100
0010
0000
0010
0100
1000
0000
0100
0010
,
1000
0000
0010
0001
1000
0000
0100
0001
0010
0000
0010
0001
0100
0000
0010
0100
,
0010
0000
1000
0100
0010
0000
1000
0010
1000
0000
1000
0100
0010
0000
1000
0010
,
0220
0000
0000
0000
,
0000
0330
0001
0010
,
1000
0000
0010
0001
0010
0000
0010
0100
1000
0000
1000
0001
1000
0000
0100
0001
,
0100
0000
0100
0010
1000
0000
1000
0100
1000
0000
0010
0100
0010
0000
0010
0001
,
1000
0000
1000
0010
1000
0000
0100
0010
0100
0000
0100
0001
0010
0000
0010
0100
,
0010
0000
1000
0100
0010
0000
1000
0100
1000
0000
1000
0001
0100
0000
0100
0001
,
0010
0000
0010
0100
0010
0000
1000
0100
1000
0000
1000
0001
0010
0000
1000
0100
,
1000
0000
0010
0001
0010
0000
0010
0100
1000
0000
1000
0001
1000
0000
0010
0100
,
0010
0000
0010
0001
1000
0000
1000
0100
1000
0000
0010
0100
0010
0000
0010
0001
,
0100
0000
0100
0010
0100
0000
1000
0010
1000
0000
0010
0001
0010
0000
0010
0100
,
1000
0000
1000
0001
1000
0000
0010
0100
0010
0000
0010
0100
1000
0000
1000
0100
,
0010
0000
0010
0001
0010
0000
1000
0100
1000
0000
0010
0001
1000
0000
0100
0010
,
0100
0000
0100
0001
1000
0000
0010
0001
1000
0000
1000
0010
1000
0000
0100
0001
,
0100
0000
1000
0100
1000
0000
1000
0001
0100
0000
0100
0001
0010
0000
0010
0001
,
0100
0000
0010
0001
0100
0000
0100
0010
1000
0000
1000
0001
0100
0000
0010
0001
,
0100
0000
0100
0001
0010
0000
1000
0001
0010
0000
0010
0100
0010
0000
1000
0100
,
1000
0000
1000
0010
0100
0000
0100
0010
1000
0000
1000
0001
1000
0000
0100
0010
,
1000
0000
0100
0001
0100
0000
0100
0010
1000
0000
1000
0010
0100
0000
0100
0010
,
0100
0000
0000
0000
;
