#TITLE:This Life;
#ARTIST:Craig Connelly feat. Roxanne Emery;
#GENRE:TRANCE;
#CREDIT:B. M'Rey;
#MUSIC:This Life.ogg;
#BANNER:This Life.png;
#BACKGROUND:This Life-bg.png;
#CDTITLE:./CDTITLES/Dance Dance Revolution SPACE.PNG;
#SAMPLESTART:62.610;
#SAMPLELENGTH:15;
#OFFSET:0.020;
#BPMS:0=138.010,128.5=69.135,185.5=138.030;

//--------------- dance-single - B. M'Rey ----------------
#NOTES:
     dance-single:
     B. M'Rey:
     Beginner:
     2:
     0.091178,0.14159,0.006718,0.033592,0.057106,95,94,1,5,0,0,0.091178,0.14159,0.006718,0.033592,0.057106,95,94,1,5,0,0:
0000
0000
0000
0000
,
0000
0100
0000
0000
0000
0000
0000
0000
,
0000
0001
0000
0000
0000
0000
0000
0000
,
0000
1000
0000
0000
0000
0000
0000
0000
,
0000
0010
0000
0000
0000
0000
0000
0000
,
0000
0100
0000
0000
0000
0000
0000
0000
,
0000
0010
0000
0000
0000
0000
0000
0000
,
0000
1000
0000
0000
0000
0000
0000
0000
,
0000
0000
0000
0000
,
0000
0010
0000
0000
0000
0000
0000
0000
,
0000
0100
0000
0000
0000
0000
0000
0000
,
0000
0001
0000
0000
0000
0000
0000
0000
,
0000
0000
0000
0000
,
0000
0100
0000
0000
0000
0000
0000
0000
,
0000
1000
0000
0000
0000
0000
0000
0000
,
0000
0001
0000
0000
0000
0000
0000
0000
,
0000
1000
0000
0000
0000
0001
0000
0000
,
0000
1000
0000
0000
0000
0001
0000
0000
,
0000
1000
0000
0000
0000
0001
0000
0000
,
0000
1000
0000
0000
0000
0001
0000
0000
,
0000
1000
0000
0000
0000
0100
0000
0000
,
0000
0010
0000
0000
0000
0001
0000
0000
,
0000
0010
0000
0000
0000
0000
0000
0000
,
0000
0000
0000
0000
,
0000
0100
0000
0000
0000
0010
0000
0000
,
0000
0100
0000
0000
0000
0010
0000
0000
,
0000
0100
0000
0000
0000
0010
0000
0000
,
0000
0100
0000
0000
0000
0010
0000
0000
,
0000
0100
0000
0000
0000
0000
0000
0000
,
0000
0001
0000
0000
0000
0000
0000
0000
,
0000
1000
0000
0000
0000
0000
0000
0000
,
0000
0020
0000
0000
0000
0000
0000
0000
,
0000
0230
0000
0000
0000
0000
0000
0000
,
0000
0000
0000
0000
,
0000
0300
0000
0000
0000
0001
0000
0000
,
0000
0000
0000
0000
0000
0100
0000
0000
0000
0000
0000
0000
0000
0000
0000
0000
,
0000
0000
0000
0001
0000
0000
0000
0000
0000
0000
0000
0000
0000
0100
0000
0000
,
0000
0000
0000
0000
0000
1000
0000
0000
0000
0000
0000
0000
0000
0000
0000
0000
,
0000
0000
0000
0000
0000
1001
0000
0000
0000
0000
0000
0000
0000
0100
0000
0000
,
0000
0000
0000
0000
0010
0000
0000
0000
0000
0000
0000
0000
0000
1000
0000
0000
,
0000
0000
0000
0000
0001
0000
0000
0000
0000
0000
0000
0000
0000
0100
0000
0000
,
0000
0000
0000
0000
0000
0010
0000
0000
0000
0000
0000
0000
0000
1000
0000
0000
,
0000
0000
0000
0000
0000
0001
0000
0000
0000
0000
0000
2000
0000
0000
0000
0000
,
0000
0000
0000
0000
0000
0000
0000
0000
0000
0000
0000
3000
0000
0000
0000
0100
,
0000
0010
0000
0001
0000
0000
0000
0000
0000
0000
0000
0020
0000
0000
0000
0000
,
0000
0000
0030
0000
,
0000
0000
0000
0000
0000
1000
0000
0000
0000
0000
0000
0000
0000
0000
0000
0000
,
0000
0001
0000
0000
,
0000
0100
0000
0000
,
0000
0010
0000
0000
,
0000
1000
0000
0000
,
0000
0001
0000
0000
,
0000
0100
0000
0000
,
0000
0010
0000
0000
,
0000
1000
0000
0001
,
0000
1000
0000
0001
,
0000
1000
0000
0001
,
0000
1000
0000
0001
,
0000
1000
0000
0100
,
0000
0010
0000
0001
,
0000
0010
0000
0100
,
0000
1000
0000
0010
,
0000
0100
0000
0010
,
0000
0100
0000
0010
,
0000
0100
0000
0010
,
0000
0100
0000
0010
,
0000
0100
0000
0000
,
0000
0001
0000
0000
,
0000
1000
0000
0000
,
0000
0020
0000
0000
,
0000
0030
0000
0000
;

//--------------- dance-single - B. M'Rey ----------------
#NOTES:
     dance-single:
     B. M'Rey:
     Easy:
     7:
     0.161242,0.212385,0.013437,0.120931,0.057106,168,166,2,18,0,0,0.161242,0.212385,0.013437,0.120931,0.057106,168,166,2,18,0,0:
0000
0000
0000
0000
,
0000
0100
0000
0000
0000
0001
0000
0000
,
0000
0100
0000
0000
0000
1000
0000
0000
,
0000
0010
0000
0000
0000
0100
0000
0000
,
0000
0001
0000
0000
0000
0100
0000
0000
,
0000
1000
0000
0000
0000
0001
0000
0000
,
0000
0200
0000
0000
0000
0000
0000
0000
,
0000
0000
0000
0000
0000
0300
0000
0000
,
0000
0010
0000
0000
0000
0001
0000
0000
,
0000
0010
0000
0000
0000
0100
0000
0000
,
0000
2000
0000
0000
0000
0000
0000
0000
,
0000
0000
0000
0000
0000
3000
0000
0000
,
0000
0001
0000
0000
0000
0100
0000
0000
,
0000
0010
0000
0000
0000
1000
0000
0000
,
0000
0002
0000
0000
0000
0000
0000
0000
,
0000
0000
0000
0000
0000
0003
0000
0000
,
0000
0100
0000
0010
0000
1000
0000
0001
,
0000
0010
0000
0001
0000
0100
0000
0010
,
0000
1000
0000
0010
0000
0100
0000
0001
,
0000
0010
0000
0100
0000
0010
0000
0001
,
0000
1000
0000
0010
0000
0100
0000
0001
,
0000
0010
0000
0100
0000
0010
0000
1000
,
0000
0001
0000
0000
0000
1000
0000
0000
,
0000
0001
0000
0000
0000
1000
0000
0000
,
0000
0001
0000
0010
0000
0100
0000
0010
,
0000
1000
0000
0001
0000
0010
0000
0001
,
0000
0100
0000
0010
0000
1000
0000
0010
,
0000
0100
0000
0001
0000
0010
0000
0001
,
0000
0100
0000
0010
0000
1000
0000
0100
,
0000
1000
0000
0001
0000
0010
0000
0001
,
0000
0100
0000
0010
0000
1000
0000
0001
,
0000
0010
0000
0001
0000
0100
0000
0010
,
0000
0002
0000
0000
0000
0000
0000
0000
,
0000
0000
0000
0000
,
0000
0003
0000
0000
0000
0010
0000
0000
,
0000
0000
0000
0000
0000
0001
0000
0000
0000
0000
0000
0000
0000
0000
0000
0000
,
0000
0000
0000
0010
0000
0000
0000
0000
0000
0000
0000
0000
0000
0001
0000
0000
,
0000
0000
0000
0000
0000
0100
0000
0000
0000
0000
0000
0000
0000
0000
0000
0000
,
0000
0000
0000
0000
0000
0110
0000
0000
0000
0000
0000
0000
0000
0001
0000
0000
,
0000
0000
0000
0000
1000
0000
0000
0000
0000
0000
0000
0000
0000
0100
0000
0000
,
0000
0000
0000
0000
0010
0000
0000
0000
0000
0000
0000
0000
0000
0001
0000
0000
,
0000
0000
0000
0000
0000
1000
0000
0000
0000
0000
0000
0000
0000
0100
0000
0000
,
0000
0000
0000
0000
0000
0010
0000
0000
0000
0000
0000
0200
0000
0000
0000
0000
,
0000
0000
0000
0000
0000
0000
0000
0000
0000
0000
0000
0300
0000
0000
0000
0001
,
0000
1000
0000
0010
0000
0000
0000
0000
0000
0000
0000
2000
0000
0000
0000
0000
,
0000
0000
3000
0000
,
0000
0000
0000
0000
0000
1000
0000
0000
0000
0000
0000
0000
0001
0000
0000
0000
,
0000
0010
0000
0001
,
0000
0100
0000
0010
,
0000
1000
0000
0001
,
0000
0200
0000
0000
,
0000
0320
0000
0000
,
0000
0032
0000
0000
,
0000
0003
0000
0000
,
0000
1000
0010
0100
,
0001
0010
0001
0100
,
0010
1000
0100
1000
,
0010
0100
0001
0010
,
0001
0010
0100
0010
,
1000
0010
0100
0001
,
0010
0001
0100
0010
,
1000
0100
0001
0100
,
0010
1000
0001
0001
,
0100
0000
0020
0000
0000
2030
0000
0000
,
3002
0000
1000
0000
,
1000
0000
1003
2000
,
3200
0320
0000
0000
,
0000
0000
0032
0000
0000
0023
0000
0000
,
0230
0000
0010
0000
,
0010
0000
0010
0310
,
0001
0110
0000
0000
;

//--------------- dance-single - B. M'Rey ----------------
#NOTES:
     dance-single:
     B. M'Rey:
     Medium:
     9:
     0.285052,0.353976,0.026874,0.120931,0.144446,297,293,4,18,0,0,0.285052,0.353976,0.026874,0.120931,0.144446,297,293,4,18,0,0:
0000
0000
0000
0000
,
0000
0001
0000
0010
0000
0100
0000
2000
,
0000
0000
0000
0000
0000
0000
0000
3100
,
0000
0010
0000
1000
0000
0010
0000
0100
,
0000
0001
0000
0010
0000
0001
0000
0100
,
0000
0010
0000
1000
0000
0100
0000
1000
,
0000
0020
0000
0000
0000
0000
0000
0130
,
0000
0001
0000
0100
0000
0010
0000
1000
,
0000
0001
0000
0010
0000
0001
0000
0100
,
0000
0010
0000
1000
0000
0100
0000
1000
,
0000
0020
0000
0000
0000
0000
0000
0000
,
0000
0000
0000
0000
0000
0030
0000
1000
,
0000
0100
0000
1000
0000
0010
0000
0100
,
0000
0001
0000
0010
0000
0001
0000
0200
,
0000
0000
0000
0000
,
0000
0000
0000
0000
0000
0300
0000
0000
,
0000
1000
0100
1000
0000
0010
0100
0010
,
0000
0001
0010
0100
0000
1000
0100
0010
,
0000
0100
0001
0100
0000
0010
1000
0010
,
0000
0001
0010
0001
0000
0010
0100
0010
,
0000
0100
0010
0100
0000
1000
0100
1000
,
0000
0100
1000
0100
0000
0010
0100
0010
,
0000
0001
0000
0010
0000
0100
0000
1000
,
0000
0100
0000
0010
0000
0001
0000
0010
,
0000
0100
0001
0010
0000
1000
0010
0100
,
0000
0010
0100
0010
0000
0001
0010
0001
,
0000
1000
0010
1000
0000
0010
0001
0010
,
0000
0001
1000
0001
0000
0010
0100
0010
,
0000
1000
0100
1000
0000
0010
0100
0010
,
0000
0001
1000
0001
0000
0010
0100
0010
,
0000
0001
0000
0010
0000
0100
0000
1000
,
0000
0100
0000
0010
0000
0001
0000
0010
,
0000
2002
0000
0000
0000
0000
0000
0000
,
0000
0000
0000
0000
0000
0000
0000
3003
,
0000
0000
0000
0000
0000
0110
0000
0000
0000
1000
0000
0010
0000
0000
0000
0100
,
0000
0001
0000
0010
0000
0100
0000
0000
0000
0000
0000
0000
1000
0000
0000
0100
,
0000
0000
0000
0001
0000
0000
0000
0000
0010
0000
0100
0000
1000
0000
0000
0000
,
0100
0000
0000
0000
0010
0000
0000
0000
0000
0000
0000
0000
0000
0001
0000
0000
,
1000
0000
0000
0010
0000
0000
0000
0000
0000
0000
0000
0000
0100
0000
0000
0000
,
0001
0000
0000
0000
0010
1000
0010
0000
0000
0000
0000
0000
0100
0000
0000
0000
,
0010
0000
0000
0000
1000
0000
0000
0000
0000
1000
0000
0000
0001
0000
0000
0000
,
0010
0000
0000
0000
0100
0000
0000
0000
0000
0000
0000
0000
0000
1000
0000
0000
,
0010
0000
0000
0001
0000
0000
0000
0000
0000
0000
0000
0000
0000
2000
0000
0000
,
3002
0000
0000
0023
0000
0000
0000
0000
0000
0000
0000
0000
0000
0030
0000
0000
,
0000
1000
0000
0001
0000
0100
0000
0000
0000
0000
0000
0000
0000
0002
0000
0000
,
2003
0000
0000
3200
0000
0000
0000
0000
0000
0000
0300
0000
0000
0000
0000
0000
,
0000
1000
0000
0001
0000
0010
0000
0000
1000
0000
0000
0000
0001
0000
0000
0000
,
0100
1000
0010
0100
,
0001
0010
0001
0100
,
0010
1000
0001
0010
,
0001
0000
1000
0010
0100
0000
0010
0001
,
0010
0000
0100
0010
1000
0000
0100
0001
,
0010
0000
0100
0010
1000
0001
0010
0001
,
0100
0010
1000
0000
0000
0000
0001
0000
,
0001
0000
0000
0000
0100
0000
0001
0000
0100
0000
0000
0001
0000
0000
0010
0000
,
0000
0100
0000
0000
0100
0000
1000
0000
0001
0000
0000
0010
0000
0000
0001
0000
,
0000
1000
0000
0000
0010
0000
0100
0000
1000
0000
0000
0001
0000
0000
1000
0000
,
0000
0001
0000
0000
0001
0000
0010
0000
1000
0000
0000
0010
0000
0000
1000
0000
,
0000
0100
0000
0000
0001
0000
0010
0000
1000
0000
0000
0010
0000
0000
0001
0000
,
0000
0100
0000
0000
0001
0000
1000
0000
0010
0000
0000
1000
0000
0000
0100
0000
,
0000
0001
0000
0000
0010
0000
1000
0000
0001
0000
0000
1000
0000
0000
0010
0000
,
0000
0001
0000
0000
1000
0000
0010
0000
0001
0000
0000
1000
0000
0000
0001
0000
,
0000
0100
0000
0000
0010
0000
0001
0000
0010
0000
0000
0100
0000
0000
1000
0000
,
0000
0010
0000
0000
2000
0000
0000
0000
0000
0000
3200
0000
0000
0000
0000
0000
,
2300
0001
0001
3001
,
1001
1000
1000
1000
,
0001
1000
0010
0010
,
1000
0000
2000
0000
0000
3020
0000
0000
,
2030
0000
0010
3010
,
0010
0001
0001
0100
,
0001
1001
0000
0000
;

//--------------- dance-single - B. M'Rey ----------------
#NOTES:
     dance-single:
     B. M'Rey:
     Hard:
     11:
     0.394466,0.401172,0.013437,0.16796,0.12765,411,409,2,25,0,0,0.394466,0.401172,0.013437,0.16796,0.12765,411,409,2,25,0,0:
0000
0000
0000
0000
,
1000
0001
0000
0000
0010
0000
0000
0200
,
0000
0010
0000
0010
0000
0010
0000
0010
,
0000
0001
0000
0001
0000
0001
0000
0001
,
0000
1000
0000
1000
0000
1000
0000
1300
,
1000
0001
0000
0010
0000
0100
0000
0010
,
0100
1000
0000
0001
0000
0100
0000
0001
,
0010
1000
0000
0100
0000
0010
0000
0100
,
0010
0001
0000
0010
0000
0100
0000
1000
,
0001
0010
0000
0100
1000
0000
0000
0100
,
0010
0002
0000
0010
0000
0010
0000
0100
,
0000
0100
0000
0010
0000
0013
0000
0100
,
0000
0100
0000
1000
0000
0010
0000
0100
,
0001
0010
0000
1000
0000
0100
0000
0010
,
0000
2000
0000
0000
0000
0000
0000
3002
,
0000
0000
0000
0000
0000
0003
0000
0000
,
0000
1000
0100
1000
0010
0100
0001
0010
,
0001
1000
0010
0100
0001
0010
0100
0001
,
0010
0001
1000
0010
0100
0001
0010
0100
,
1000
0100
0001
0010
0001
0100
0010
1000
,
0010
0100
0001
0010
0001
0010
0100
1000
,
0010
0100
0010
0001
0010
0001
1000
0010
,
0100
0001
0010
0100
0010
1000
0001
0100
,
0001
0010
0001
0100
0010
1000
0100
0010
,
1000
0001
0010
0001
0100
0010
0001
0010
,
0100
0010
1000
0100
1000
0001
0100
0010
,
0001
0010
0001
1000
0010
0100
1000
0001
,
0100
0001
0010
0001
0100
0010
1000
0100
,
0001
0010
0001
0100
0010
1000
0010
0100
,
0001
0010
0100
0001
0010
0001
1000
0010
,
0100
0001
0000
0001
0000
0010
0000
0100
,
0000
0010
0000
0100
0000
1000
0000
0100
,
0000
2001
0000
0000
0000
3200
0000
0000
,
0000
0320
0000
0000
0000
0000
0000
0000
,
0000
0000
0000
0000
0032
0000
0000
0000
0000
0000
0003
0000
0000
0000
0000
0000
0100
0000
1000
0000
0000
0000
0000
0010
0000
0000
0000
0000
0000
0000
0001
0000
,
0010
1000
0100
0001
0000
0001
0000
0000
0000
0000
0000
0000
0100
0020
0000
0000
,
2030
0000
0000
3002
0000
0000
0003
0000
0000
0010
0000
0100
2000
0000
0000
3100
,
0002
0000
0000
0103
0020
0000
0000
1030
0000
0000
0000
0000
0000
0002
0000
0000
,
0103
0000
0000
0020
0000
0000
0000
0030
0000
0000
0000
0000
1000
0001
0000
0010
,
0000
0000
0000
0000
0100
1000
0001
0000
0000
0000
0000
0001
0010
0000
0000
1000
,
0100
0000
0000
0001
0010
0000
0000
0000
0000
0100
0000
1000
0010
0000
0000
0010
,
0001
0000
0000
0010
0100
0000
0000
1000
0000
0000
0000
0000
0000
0020
0000
0000
,
0230
0000
0000
0302
0000
0000
0003
0000
0000
0000
0000
0000
0000
2000
0000
0000
,
3002
0000
0000
0023
0000
0000
0000
0000
0000
0000
0000
0000
0000
0030
0000
0000
,
0000
1000
0000
0001
0000
0100
0000
0000
0000
0000
0000
0000
0000
0002
0000
0000
,
2003
0000
0000
3200
0000
0000
0000
0000
0000
0000
0300
0000
0000
0000
0000
0000
,
0000
1000
0000
0001
0000
0010
0000
0000
1000
0000
0000
0000
0001
0000
0000
0000
,
0100
1000
0010
0100
,
0001
0010
0001
0100
,
0010
1000
0001
0010
,
0001
0000
1000
0010
0100
0000
0010
0001
,
0010
0000
0100
0010
1000
0000
0100
0001
,
0010
0000
0100
0010
1000
0001
0010
0001
,
0100
0010
1000
0000
0000
0000
0001
0000
,
0001
0000
0100
0001
0100
1000
0001
0010
,
1000
0010
0100
1000
0001
0010
1000
0001
,
0010
1000
0010
0100
1000
0001
0010
1000
,
0001
0100
0001
0010
1000
0010
0001
1000
,
0100
1000
0001
0010
1000
0010
1000
0001
,
0100
1000
0001
1000
0010
1000
0010
0100
,
1000
0001
0010
1000
0001
1000
0100
0010
,
0001
0010
1000
0010
0001
1000
0100
0001
,
1000
0100
0010
1000
0010
0001
1000
0010
,
1000
0001
1000
0100
0001
0100
0010
0001
,
1000
0010
1000
0010
0100
1000
0001
0100
,
0010
0001
0010
1000
0010
0001
1000
0100
,
0001
0010
1000
0010
0001
1000
0100
1000
,
0001
0010
1000
0001
0010
1000
0010
0100
,
1000
0001
0010
1000
0010
0001
1000
0100
,
0001
0010
1000
0010
0001
1000
0100
0000
,
0001
0110
0000
0000
;
