#TITLE:The Colosseum;
#ARTIST:Djjaner (feat. Diva);
#GENRE:DRUM'N BASS;
#CREDIT:B. M'Rey;
#MUSIC:The Colosseum.ogg;
#BANNER:The Colosseum-bn.png;
#BACKGROUND:The Colosseum-bg.png;
#CDTITLE:./CDTITLES/Dance Dance Revolution SPACE.PNG;
#SAMPLESTART:53.998;
#SAMPLELENGTH:15;
#OFFSET:-0.065;
#BPMS:0=89,64=178;

//--------------- dance-single - B. M'Rey ----------------
#NOTES:
     dance-single:
     B. M'Rey:
     Beginner:
     5:
     0,0,0,0,0:
0000
0000
0000
0000
,
0000
0000
0000
0000
,
0000
0000
0000
0000
,
0000
0000
0000
0000
,
2002
0000
0000
0000
,
0000
0000
0000
0000
0000
0000
0000
3003
,
0020
0000
0000
0000
,
0000
0000
0000
0000
,
0230
0000
0000
0000
,
2300
0000
0000
0000
,
3002
0000
0000
0000
,
0203
0000
0000
0000
,
0320
0000
0000
0000
,
2030
0000
0000
0000
,
3020
0000
0000
0000
,
0032
0000
0000
0000
,
1003
0000
0001
0000
,
0100
0000
0010
0000
,
1000
0000
0001
0000
,
0010
0000
0100
0000
,
0001
0000
0001
0000
,
1000
0000
1000
0000
,
0010
0000
0010
0000
,
0001
0000
0001
0000
,
1000
0001
1000
0000
,
0010
0100
0010
0000
,
0001
0000
1000
0000
,
0010
0000
0100
0000
,
0001
0000
0010
0000
,
0001
0000
0100
0000
,
0010
0000
1000
0000
,
0001
0000
0100
0000
,
0010
0100
0010
0000
,
0001
0010
0001
0000
,
1000
0000
0010
0000
,
0100
0000
0001
0000
,
0010
0000
0001
0000
,
0100
0000
0010
0000
,
1000
0000
0001
0000
,
0100
0000
0010
0000
,
0001
0000
0001
0000
,
1000
0000
1000
0000
,
0010
0100
0010
0000
,
0100
0010
0100
0000
,
0001
0000
1000
0000
,
0010
0000
0100
0000
,
0001
0000
0010
0000
,
0001
0000
0100
0000
,
0010
1000
0010
0000
,
0100
0001
0100
0000
,
0010
0000
1000
0000
,
0100
0000
0001
0000
,
0010
0000
0001
0000
,
0100
0000
0010
0000
,
1000
0000
0010
0000
,
0220
0000
0000
0000
0000
0000
0000
0330
,
0001
0000
0001
0000
,
1000
0000
1000
0000
,
0010
0000
0010
0000
,
0001
0000
0001
0000
,
1000
0000
0001
0000
,
0100
0000
0010
0000
,
1000
0000
0100
0000
,
0001
0000
0010
0000
,
0001
0010
0001
0000
,
0100
0010
0100
0000
,
1000
0100
1000
0000
,
0010
0100
0010
0000
,
0001
0000
1000
0000
,
0010
0000
0100
0000
,
0001
0000
0010
0000
,
1000
0000
0000
0000
,
0001
0010
0001
0000
,
0100
0010
0100
0000
,
1000
0000
0001
0000
,
0010
0000
0001
0000
,
0100
0000
0010
0000
,
1000
0000
0010
0000
,
0100
0000
0001
0000
,
0010
0000
0001
0000
,
1000
0100
1000
0000
,
0010
0100
0010
0000
,
0001
0000
0010
0000
,
0001
0000
0100
0000
,
0020
0000
0000
0000
,
2030
0000
0000
0000
,
3200
0000
0000
0000
,
0302
0000
0000
0000
,
2000
0000
0000
0000
,
0000
0000
0000
0000
,
0000
0000
0000
0000
,
3003
0000
0000
0000
;

//--------------- dance-single - B. M'Rey ----------------
#NOTES:
     dance-single:
     B. M'Rey:
     Easy:
     7:
     0,0,0,0,0:
0000
0000
0000
0000
,
0000
0000
0000
0000
,
0000
0000
0000
0000
,
0000
0000
0000
0000
,
2000
0000
0000
0000
,
3002
0000
0000
0000
,
0203
0000
0000
0000
,
0320
0000
0000
0000
,
0032
0000
0000
2003
,
3020
0000
0000
0000
,
0230
0000
0000
0000
,
0302
0000
0000
0000
,
2003
0000
0000
3020
,
0230
0000
0000
0000
,
0302
0000
0000
0000
,
2003
0000
0000
0000
,
3100
0000
1000
0000
,
0001
0000
0010
0000
,
0100
0000
1000
0000
,
0001
0000
0010
0000
,
0001
0000
0010
0000
,
0100
0000
0001
0100
,
0001
0000
0100
0000
,
0001
0000
0001
1000
,
0010
0100
0001
0010
,
0100
1000
0010
0100
,
0010
0100
0001
0010
,
0100
1000
0100
1000
,
0001
0100
0001
1000
,
0100
0010
0100
1000
,
0001
1000
0010
0100
,
0001
0010
0001
0010
,
0001
1000
0100
1000
,
0001
0010
0001
1000
,
0010
0100
0001
0010
,
0001
0010
0100
0010
,
0100
1000
0010
1000
,
0100
1000
0100
0010
,
0001
0100
0010
0100
,
0010
1000
0001
0000
,
1001
0010
0100
1000
,
0110
0010
0100
0010
,
0001
1000
0100
0010
,
0001
0100
0001
0010
,
0001
1000
0100
1000
,
0100
1000
0010
0100
,
0010
1000
0010
0100
,
0001
1000
0010
1000
,
0011
0010
0100
0010
,
0110
0010
0001
0100
,
0010
1000
0010
0100
,
0010
0100
0001
0100
,
0001
0010
0100
0010
,
0001
1000
0100
0010
,
0100
0010
0100
1000
,
0002
0000
0203
0000
,
0310
1000
0010
0100
,
0010
1000
0001
0100
,
0010
1000
0100
0010
,
0100
1000
0010
1000
,
0010
0100
0001
1000
,
0010
1000
0100
0010
,
0100
1000
0010
0100
,
0010
0100
0001
0100
,
0001
0010
0100
1000
,
0001
0010
0100
1000
,
0001
1000
0100
1000
,
0010
0100
0001
0010
,
0001
0010
0100
1000
,
0001
0010
0001
0010
,
0100
1000
0010
1000
,
0200
0000
0000
0000
,
0310
1000
0001
1000
,
0100
0010
0100
1000
,
0001
0100
0010
1000
,
0010
0100
0010
0100
,
0001
1000
0010
0100
,
0010
0100
0001
1000
,
0001
0100
0010
1000
,
0010
0100
0001
1000
,
0100
0010
0001
1000
,
0010
0100
0001
1000
,
0001
1000
0001
0010
,
0100
0010
0100
0010
,
0002
0000
0000
0000
,
0023
0000
0000
1030
,
0200
0000
0000
0000
,
0320
0000
0000
0000
,
0002
0000
0000
0000
,
0000
0000
0000
0000
,
0000
0000
0000
0000
,
0033
0000
0000
0000
;

//--------------- dance-single - B. M'Rey ----------------
#NOTES:
     dance-single:
     B. M'Rey:
     Medium:
     11:
     0,0,0,0,0:
0000
0000
0000
0000
,
0000
0000
0000
0000
,
0000
0000
0000
0000
,
0000
0000
0000
0000
,
2000
0000
0000
3020
,
0230
0000
0000
0000
,
0302
0000
0000
0000
,
2003
0000
0000
0000
,
3020
0000
0000
0230
,
0320
0000
0000
0000
,
2030
0000
0000
0000
,
3002
0000
0203
0000
,
0320
0000
0000
2030
,
3200
0000
0000
0000
,
0302
0000
0000
0000
,
2003
0000
3002
0000
,
0103
0010
0100
0000
0001
0000
0010
0000
,
0001
0010
0001
0000
1000
0000
0010
0000
,
0010
1000
0010
0000
0100
0000
0010
0000
,
0010
0100
0010
0000
0001
0000
0010
0000
,
1000
0010
1000
0000
0010
0000
0100
0000
,
0001
0100
0001
0000
0010
0000
1000
0000
,
0010
0100
0010
0000
1000
0000
0100
0000
,
0001
1000
0010
0000
0001
0000
1000
0000
,
0001
0000
1000
0000
0010
0100
0010
0000
,
0001
0000
0010
0000
1000
0100
1000
0000
,
0010
0000
0100
0000
0001
0010
0001
0000
,
0010
0000
0100
0000
1000
0100
1000
0000
,
0010
0100
0010
0000
0001
0010
0001
0000
,
0010
0100
0010
0000
1000
0100
1000
0000
,
0010
0100
0010
0000
0001
0010
0001
0000
,
0010
0100
0010
0000
1000
0100
1000
0000
,
0010
0100
0001
0000
0010
0000
1000
0000
,
0010
0100
1000
0000
0100
0000
0010
0000
,
0001
0010
0001
0000
0010
0100
0010
0000
,
0100
1000
0100
0000
0010
0100
0010
0000
,
0001
0010
0001
0000
0010
1000
0010
0000
,
0100
1000
0100
0000
0010
0100
0010
0000
,
0001
0010
0001
0000
0010
0100
0010
0000
,
1000
0001
0100
0010
,
1001
0000
0010
0001
0010
0000
0010
0000
,
0110
0000
1000
0100
1000
0000
0100
0000
,
1010
0100
0011
0010
,
1001
0100
1100
0010
,
0001
0010
0001
0000
0001
0010
0001
0000
,
1000
0100
1000
0000
0100
1000
0100
0000
,
0010
0100
0010
0000
0100
0010
0100
0000
,
0010
0100
0010
0000
0001
0010
0001
0000
,
0101
1000
0011
0100
,
1100
0100
1010
0001
,
0001
0010
0001
0000
0001
0010
0001
0000
,
0001
0010
0001
0000
0100
1000
0100
0000
,
1000
0100
1000
0000
0100
1000
0100
0000
,
1000
0100
1000
0000
0010
0100
0010
0000
,
0100
0010
0001
0010
,
0002
0000
2003
0000
,
3010
0000
0001
0100
0001
0000
0100
0000
,
0010
1000
0100
1000
0100
0000
0010
0000
,
0010
0000
0100
0001
0100
0000
0010
0000
,
0001
0100
0001
0100
0001
0000
0010
0000
,
1000
0000
0100
1000
0100
0000
1000
0000
,
0010
1000
0010
1000
0010
0000
0100
0000
,
0010
0000
0001
0010
0001
0000
0010
0000
,
0010
0100
0010
0100
0010
0000
1000
0000
,
0100
0000
1000
0100
1000
0000
0100
0000
,
0010
0100
0010
0100
0010
0000
0001
0000
,
0010
0000
0001
0010
0001
0000
0010
0000
,
0010
0100
0010
0100
0010
0000
1000
0000
,
0100
1000
0100
0000
0010
0100
0010
0000
,
0001
0010
0001
0000
0010
0100
0010
0000
,
1000
0100
1000
0000
0010
0100
0010
0000
,
0001
0000
1000
0000
,
0010
0000
0100
0001
0100
0000
0001
0000
,
0001
0000
0010
0100
0010
0000
1000
0000
,
0010
1000
0010
1000
0010
1000
0010
0000
,
0001
0100
0001
0100
0001
0100
0001
0000
,
0010
1000
0010
1000
0010
1000
0010
0000
,
0001
0100
0001
0100
0001
0100
0001
0000
,
0010
1000
0010
1000
0010
1000
0010
0000
,
0100
0001
0100
0001
0100
0001
0100
0000
,
0001
0000
0010
1000
0010
0000
0100
0000
,
0010
0000
0100
0001
0100
0000
0010
0000
,
0010
1000
0010
0000
0100
0010
0100
0000
,
0001
0010
0001
0000
0010
0100
0010
0000
,
0010
0001
0100
0010
,
0001
0100
0010
0100
,
0001
0010
0001
0010
,
0100
0010
0100
1000
,
2002
0000
0000
0000
,
0000
0000
0000
0000
,
0000
0000
0000
0000
,
3003
0000
0000
0000
;

//--------------- dance-single - B. M'Rey ----------------
#NOTES:
     dance-single:
     B. M'Rey:
     Hard:
     15:
     0.389683,0.564215,0.046851,0,0.32015,524,515,9,0,0,0,0.389683,0.564215,0.046851,0,0.32015,524,515,9,0,0,0:
0000
0000
0000
0000
,
0000
0000
0000
0000
,
0000
0000
0000
0000
,
0000
0000
0000
0000
,
2000
0000
0000
3020
,
0230
0000
0302
0000
,
2003
0000
0000
0000
,
3020
0000
0230
0000
,
2300
0000
0000
3020
,
0230
0000
0320
0000
,
0032
0000
2003
0000
,
3020
0000
0230
0000
,
2300
0000
3002
0023
,
0032
0000
0203
0000
,
0320
0000
2030
0000
,
3002
0000
0023
0000
,
0130
1000
0100
0000
0010
0000
0100
0000
,
0001
0010
0001
0000
0010
0000
0100
0000
,
0010
0100
0010
0000
1000
0000
0100
0000
,
1000
0100
1000
0000
0010
0000
0100
0000
,
0010
0100
0001
0000
0010
0000
1000
0000
,
0100
1000
0100
0000
0010
0000
0100
0000
,
0001
0010
0100
0000
0001
0000
1000
0000
,
0010
1000
0100
0000
0001
0000
0010
0000
,
0001
0100
0010
1000
0010
1000
0100
1000
,
0001
0100
0001
0010
0100
1000
0001
0010
,
0100
0010
0001
1000
0001
1000
0001
0010
,
0100
0010
0100
1000
0001
0100
0001
1000
,
0100
1000
0010
0100
0010
0100
0010
1000
,
0001
1000
0100
0010
0001
0010
0100
1000
,
0010
0100
0010
0100
0001
0100
0010
1000
,
0100
1000
0001
1000
0001
0010
0001
0100
,
0010
1000
0100
1000
0100
0010
0100
1000
,
0010
0100
0001
0100
0010
0100
0010
1000
,
0001
0010
0001
1000
0001
1000
0100
0010
,
0100
1000
0001
1000
0001
0010
0001
0010
,
0100
1000
0001
0100
0010
0100
0001
1000
,
0010
1000
0010
1000
0001
0100
0001
0010
,
0001
0100
0010
0100
0010
0100
0001
1000
,
0010
1000
0010
1000
0001
0000
0100
0000
,
0010
0000
0001
1000
0010
0000
0100
0000
,
1000
0000
0010
0100
0010
0000
0001
0000
,
0010
0000
0001
1000
0010
0000
0100
0000
,
1000
0100
1000
0000
0010
0100
0010
0000
,
0001
0000
0010
0001
0100
0000
0010
0000
,
1000
0000
0010
1000
0010
0000
0100
0000
,
0001
0100
0010
0000
0001
1000
0010
0000
,
0100
0010
1000
0000
0010
0100
0001
0000
,
0010
0000
0001
1000
0010
0000
0100
0000
,
0010
0000
1000
0100
1000
0000
0010
0000
,
0100
0001
0100
0000
0010
1000
0010
0000
,
0100
0010
0100
0000
0001
0010
0001
0000
,
0010
0000
1000
0100
1000
0000
0010
0000
,
0001
0000
0010
0100
0010
0000
0100
0000
,
0001
1000
0010
0100
,
0001
0000
1000
0000
,
0100
1000
0001
0010
0001
0010
0100
0010
,
0001
1000
0010
1000
0001
0010
0001
0010
,
0001
0100
0010
1000
0010
1000
0010
0100
,
0001
0100
0001
1000
0010
1000
0001
0100
,
0010
1000
0001
0100
0001
1000
0100
1000
,
0010
1000
0010
0100
0001
0100
0010
1000
,
0100
0010
0001
0100
0001
1000
0001
0010
,
0100
1000
0100
1000
0100
0010
0001
0100
,
0001
0010
0001
0010
0001
0000
0000
0000
0100
0000
0010
0000
0100
0000
0000
0000
,
0010
0100
0010
0100
0010
0000
0000
0000
0100
0000
1000
0000
0010
0000
0000
0000
,
0010
0100
0010
0100
0010
0000
0000
0000
0001
0000
0100
0000
0001
0000
0000
0000
,
0001
1000
0001
1000
0001
0000
0000
0000
0001
0000
1000
0000
0010
0000
0000
0000
,
0001
0100
0011
0000
0100
1000
1100
0000
,
0100
0010
0101
0000
0001
1000
0110
0000
,
0010
1000
0101
0000
0001
0010
0110
0000
,
0001
1000
0010
0100
,
0010
0100
0010
0100
0001
0000
0000
0000
0010
0000
0100
0000
0010
0000
0100
0000
,
0001
0010
0001
0010
0001
0000
0000
0000
0100
0000
0010
0000
0100
0000
1000
0000
,
0001
1000
0001
1000
0001
0000
0000
0000
0001
0000
0010
0000
0100
0000
1000
0000
,
0010
0100
0010
0100
0010
0000
0000
0000
0100
0000
0010
0000
0100
0000
1000
0000
,
0010
1000
0100
0010
0100
0010
0100
1000
,
0010
1000
0100
0010
0100
0010
0001
0100
,
0010
1000
0010
1000
0001
1000
0001
0010
,
0100
1000
0100
1000
0001
1000
0010
0100
,
0010
1000
0010
1000
0010
0000
0000
0000
0100
0000
0010
0000
0100
0000
1000
0000
,
0001
1000
0001
1000
0001
0000
0000
0000
0010
0000
0100
0000
0001
0000
0010
0000
,
0001
0100
0010
1000
0100
1000
0001
0100
,
0010
1000
0010
0100
0010
0100
0001
1000
,
0020
0000
0230
0000
,
0302
0000
2003
0000
,
3020
0000
0230
0000
,
0302
0000
0023
0000
,
2032
0000
0000
0000
,
0000
0000
0000
0000
,
0000
0000
0000
0000
,
3003
0000
0000
0000
;
