#VERSION:0.83;
#TITLE:Thank You For Playing;
#ARTIST:SUPER STAR 満-MITSURU-;
#GENRE:ONLY ONE EPILOGUE;
#CREDIT:JMRDragonXVI;
#MUSIC:Thank You For Playing.ogg;
#BANNER:Thank You For Playing-bn.png;
#BACKGROUND:Thank You For Playing-bg.png;
#CDTITLE:./CDTITLES/beatmania IIDX 16 EMPRESS.PNG ;
#SAMPLESTART:62.734;
#SAMPLELENGTH:15;
#OFFSET:0.795;
#BPMS:0=170,268=160,269.5=145,271=140,272=128,273=117,274=99,275=45,276=145;
#BGCHANGES:0.000=THANK YOU FOR PLAYING.avi=1.000=1=0=1===CrossFade==,;

//--------------- dance-single - JMRDragonXVI ----------------
#NOTEDATA:;
#STEPSTYPE:dance-single;
#DESCRIPTION:JMRDragonXVI;
#CREDIT:JMRDragonXVI;
#DIFFICULTY:Beginner;
#METER:5;
#RADARVALUES:0,0,0,0,0;
#NOTES:
0000
0000
0000
0000
,
0000
0000
0000
0000
,
0000
0000
0000
0000
,
0000
0000
0000
0000
,
0000
0000
0000
0000
,
1000
0000
0000
0000
,
0010
0000
0100
0000
,
0001
0000
0010
0000
,
0001
0000
1000
0000
,
1001
0000
0000
0000
,
0000
0000
0000
0000
,
1000
0000
0010
0000
,
0100
0000
0001
0001
,
1000
0000
0010
0000
,
0100
0000
0010
0010
,
1000
0000
0010
0000
,
0100
0000
0001
0000
,
0010
0010
0100
0000
,
1000
1000
0100
0000
,
0001
0000
0010
0000
,
0100
0000
1000
1000
,
0100
0000
0001
0000
,
0010
0000
0001
0001
,
0010
0000
1000
0000
,
0100
0000
1000
0000
,
0010
0000
0100
0000
,
0001
0001
1000
1000
,
0010
0000
0100
0000
,
0001
0000
1000
0001
,
1000
0000
0010
0000
,
0100
0000
0010
0100
,
0010
0000
1000
0000
,
0000
0000
0001
1000
,
0001
0000
0010
0000
,
0100
0000
1000
0000
,
0010
0000
0001
0000
,
0100
0000
0010
0000
,
1000
0100
1000
0000
,
0001
0000
0000
0000
,
0100
0000
0000
0000
,
0010
0000
1000
0000
,
0001
0000
0001
0000
,
0010
0000
0010
0000
,
0100
0000
0100
0000
,
1000
0000
0000
0000
,
0010
0000
0100
0000
,
0001
0000
1000
1000
,
0100
0000
0010
0000
,
0100
0000
0001
0001
,
0010
0000
1000
0000
,
0100
0000
1000
1000
,
0010
0000
0100
0000
,
0001
0000
0010
0000
,
0001
0000
1000
0000
,
0010
0100
1000
0000
,
0010
0000
0100
0000
,
0010
0000
0001
0000
,
1000
0000
0010
0000
,
0100
0000
0001
0000
,
0001
0010
0100
0000
,
1000
0100
0010
0000
,
0001
0000
0000
0000
,
0000
0000
1000
0000
,
0010
0000
0000
0000
,
0000
0000
0100
0000
,
0001
0000
0000
0000
,
1000
0000
0010
0000
,
0100
0000
0000
0000
,
0001
0000
0010
0000
,
1000
0000
0000
0000
;

//--------------- dance-single - JMRDragonXVI ----------------
#NOTEDATA:;
#STEPSTYPE:dance-single;
#DESCRIPTION:JMRDragonXVI;
#CREDIT:JMRDragonXVI;
#DIFFICULTY:Easy;
#METER:8;
#RADARVALUES:0,0,0,0,0;
#NOTES:
0000
0000
0000
0000
,
0000
0000
0000
0000
,
0000
0000
0000
0000
,
0000
0000
0000
0000
,
0000
0000
0000
0000
,
1000
0000
0010
0000
,
0100
0000
0001
0000
,
0010
0000
0001
0000
,
0010
0000
0000
1000
0001
0000
0000
0000
,
0020
0000
0000
0000
,
0000
0000
0000
0000
,
0130
1000
0010
1000
,
0001
0000
0100
0000
0010
0000
1000
0001
,
0100
0010
0100
1000
,
0010
0000
0100
0000
0001
0000
1000
0100
,
0001
0100
0010
1000
,
0010
0100
0001
0010
,
0100
0010
0100
1000
,
0010
0000
1000
0001
0100
0000
1000
0000
,
0010
0100
0001
0100
,
0010
0000
0100
0000
0010
0000
1000
0001
,
0100
1000
0010
0100
,
0001
0000
0010
0000
0100
0000
1000
0100
,
0001
0010
0100
1000
,
0010
0100
0001
0010
,
0001
0100
0001
0010
,
0100
0010
0001
0100
,
0001
0000
1000
0010
0000
0001
0010
0100
,
0000
0010
1000
0100
,
0001
0000
0001
0010
0000
1000
0010
0100
,
0000
0000
0010
0001
,
0010
0000
0001
1000
0000
0010
0100
0010
,
0000
0001
1000
0010
,
0001
0000
0100
0000
,
0010
1000
0100
0010
,
1000
0000
0001
0000
0010
0000
0001
0010
,
0000
0000
1000
0100
,
0010
0100
0001
0000
,
2002
0000
0000
0000
0000
0000
0000
3003
,
0010
0000
0100
0000
,
0001
0000
1000
0000
,
0001
1000
0001
1000
,
0010
0100
0010
0100
,
0010
0001
0010
0001
,
1000
0001
1000
0001
1000
0000
0000
0000
,
0001
0010
0100
0001
,
1000
0000
0010
0000
0100
0000
0001
0010
,
1000
0010
0100
1000
,
0100
0000
0010
0000
0001
0000
0001
0010
,
0100
1000
0100
0010
,
1000
0000
0100
0000
0001
0000
0001
0010
,
1000
0000
0010
0000
0000
0100
0010
0000
,
0001
0000
1000
0010
1000
0000
0010
0000
,
0001
0100
0010
0001
,
0001
1000
1000
1000
,
0010
0100
1000
0100
,
0001
0010
0100
0000
1000
0100
0010
0000
,
0001
0010
0100
0010
,
1000
0100
0010
0001
,
0001
0010
0001
0000
1000
0100
1000
0000
,
0010
0100
0010
0100
,
0001
0000
1000
0001
0000
0000
0010
0000
,
0100
0001
0002
0000
,
1003
0000
0010
0100
0000
0000
0010
0000
,
1000
0100
0020
0000
,
0031
0000
0010
1000
0000
0000
0100
0000
,
0010
1000
0002
0000
,
0023
0000
0000
0230
0000
0000
0302
0000
,
2003
0000
3020
0000
,
0230
0000
0000
0000
,
0000
0000
0000
0000
,
0300
0000
0000
0000
;

//--------------- dance-single - JMRDragonXVI ----------------
#NOTEDATA:;
#STEPSTYPE:dance-single;
#DESCRIPTION:JMRDragonXVI;
#CREDIT:JMRDragonXVI;
#DIFFICULTY:Medium;
#METER:10;
#RADARVALUES:0,0,0,0,0;
#NOTES:
0000
0000
0000
0000
,
0000
0000
0000
0000
,
0000
0000
0000
0000
,
0000
0000
0000
0000
,
0000
0000
0000
0000
,
1000
0000
0010
0000
,
0100
0000
0001
0000
,
0010
0001
0010
0100
,
1000
0000
0000
0001
1000
0000
0000
0000
,
0020
0000
0000
0000
,
0200
0000
0000
0000
0000
0000
0000
0330
,
0001
0010
0001
0000
1000
0100
1000
0000
,
0010
0000
0100
0000
0001
0010
0001
0000
,
0010
1000
0100
0000
0010
0000
0100
0000
,
0001
0000
0010
0000
1000
0100
1000
0000
,
0010
0100
0010
0000
0001
0000
0010
0000
,
0001
0000
0010
0000
1000
0100
1000
0000
,
0010
0100
1000
0001
,
1001
0000
0000
0010
0100
0000
0001
0000
,
0010
0001
0010
0000
1000
0100
1000
0000
,
0010
0000
0100
0000
0001
0010
0001
0000
,
1000
0100
1000
0000
0010
0000
0100
0000
,
0001
0010
0001
0000
0010
0000
0100
0000
,
1000
0000
0010
0100
0010
0000
1000
0000
,
0100
0000
0001
0000
0010
0001
0010
0000
,
0010
0000
0100
1000
0000
0100
1000
0000
,
0010
0100
0001
0010
,
0001
0000
1000
0100
0000
0010
0100
0001
,
0000
0010
1000
0000
0010
0000
0100
0000
,
0001
0000
0010
1000
0000
0010
0100
0001
,
0000
0010
0100
0000
0010
0000
1000
0000
,
0001
0000
0100
0010
0000
0001
1000
0010
,
0000
0100
1000
0000
0010
0000
0100
0000
,
0101
0000
0000
0010
1000
0000
0010
0000
,
0100
0000
0001
0000
1000
0000
0010
0100
,
0001
0000
0010
0000
1000
0000
0001
1000
,
0000
0010
0100
0000
0001
0100
0001
0100
,
0010
1000
0100
0010
,
2002
0000
0000
0000
0000
0000
0000
3003
,
0010
0000
0100
0000
0001
0000
1000
0010
,
1000
0000
0000
0010
1000
0000
0000
0000
,
0001
0010
0100
1000
,
0001
0010
0100
1000
,
0001
0010
0100
1000
,
0100
0001
0000
1000
0010
0000
0000
0000
,
1000
0100
1000
0000
0001
0010
0001
0000
,
0010
0000
0100
0000
0001
0010
0001
0000
,
1000
0100
1000
0000
0010
0000
0100
0000
,
0010
0100
0010
0000
0001
0000
0010
0001
,
0010
0000
1000
0100
1000
0000
0010
0100
,
0010
0000
0001
0000
0010
0000
0001
0010
,
0001
0000
0010
1000
0000
0100
0010
0000
,
0001
0000
1000
0010
0100
0000
0010
0000
,
0001
0010
1000
0100
,
0001
0100
0001
0100
0001
0100
0001
0100
,
0001
0010
1000
0010
,
0010
1000
0010
0000
0001
0100
0010
1000
,
0001
0000
0010
0000
0100
0000
0001
0100
,
0010
1000
0100
0010
,
0010
1000
0010
1000
0010
1000
0010
1000
,
0001
0100
0001
0100
0001
0100
0001
0100
,
0002
0000
0013
0000
,
1000
0000
0100
0000
0010
0000
0001
0010
,
0001
0000
0010
1000
0000
0000
0010
0000
,
0100
0000
1000
0000
1000
0000
0010
0100
,
0010
0000
0001
0010
0000
0000
0001
0000
,
1000
0010
0100
0001
,
0020
0000
0000
0230
0000
0000
0320
0000
,
2030
0000
3002
0000
,
0203
0000
0000
0000
,
0000
0000
0000
0000
,
0300
0000
0000
0000
;

//--------------- dance-single - JMRDragonXVI ----------------
#NOTEDATA:;
#STEPSTYPE:dance-single;
#DESCRIPTION:JMRDragonXVI;
#CREDIT:JMRDragonXVI;
#DIFFICULTY:Hard;
#METER:15;
#RADARVALUES:0,0,0,0,0;
#NOTES:
0000
0000
0000
0000
,
0000
0000
0000
0000
,
0000
0000
0000
0000
,
0000
0000
0000
0000
,
0000
0000
0000
0000
,
1000
0000
0001
0010
0000
0001
0010
0000
,
0010
0100
0010
0000
2000
0000
0000
0000
,
3100
0000
1000
0100
0000
0010
0100
0000
,
0002
0000
0000
0000
0000
0000
0013
0100
0010
0000
0000
0000
0010
0000
0000
0000
,
2002
0000
0000
0000
,
3000
0000
0000
0000
0000
0000
0000
0000
0000
0000
0000
0000
0000
0000
0000
0003
,
0001
1000
0001
1000
0001
0100
0010
0100
,
0010
0100
0001
1000
0001
0000
0001
0010
,
0100
0000
0100
1000
0100
1000
0001
0010
,
0100
0010
0100
0010
0001
0000
0010
0100
,
0010
0000
0001
0010
0001
1000
0001
0010
,
0100
1000
0100
1000
0100
0000
0001
0010
,
0001
0000
0010
0100
0000
1000
0010
0000
,
0001
0100
0010
0000
0010
1000
0010
0000
,
0100
1000
0100
0010
0100
0010
0001
0010
,
0001
1000
0001
1000
0010
0000
0010
0100
,
0010
0000
0001
0100
0001
0010
0100
0010
,
0001
0010
0001
1000
0001
0000
0010
0100
,
0010
0000
0001
1000
0010
1000
0010
1000
,
0001
0100
0001
0100
0001
0000
0100
1000
,
0100
0000
0010
0100
0000
0100
0010
0000
,
1001
0110
0101
1010
,
1000
0000
0001
0010
0000
0001
0010
0001
,
0000
0010
1000
0010
0100
1000
0100
1000
,
0010
0000
0100
0010
0000
0100
0010
1000
,
0000
0100
1000
0100
1000
0010
0100
0010
,
0001
0000
0010
1000
0100
0000
0001
0000
,
0010
0001
1000
0100
1000
0100
1000
0000
,
0010
0000
0100
0010
0000
1000
0100
0000
,
0001
0000
0010
0100
1000
0001
1000
0010
,
0100
0000
0001
0000
0010
0000
0001
0010
,
0000
0010
1000
0100
1000
0100
0010
1000
,
0010
0000
0000
0100
0000
0000
1000
0000
0001
0000
0000
0000
0010
0000
0000
0000
,
1001
0110
0101
1010
,
1000
0000
0100
0000
1000
0000
0010
1000
,
0010
0000
0001
0100
0001
0000
0010
0000
,
0001
0100
0001
0000
0100
0010
0100
0000
0010
1000
0010
0000
1000
0001
1000
0000
,
0100
1000
0100
0000
0010
0100
0010
0000
0001
0010
0001
0000
1000
0001
1000
0000
,
0010
1000
0001
0000
0010
0001
1000
0000
0100
1000
0001
0000
0100
0001
1000
0000
,
0000
0100
0000
0100
1000
0000
1000
0001
0000
0001
0100
0000
0000
0000
0000
0000
,
0001
0100
0001
0100
0001
1000
0010
0100
,
0010
0100
0010
1000
0100
0000
0100
1000
,
0010
0000
0001
0100
0001
0100
0010
1000
,
0100
1000
0100
1000
0001
0000
0001
0100
,
0001
0000
0100
1000
0100
1000
0010
0100
,
0010
0100
0010
1000
0001
0000
0001
0100
,
0001
0000
0010
0100
0000
1000
0010
1000
,
0100
0000
0100
0010
0100
0000
0001
0010
,
1000
0000
0000
0010
0000
0000
0100
0000
0000
0000
0010
0000
1000
0000
0001
0100
,
0001
0000
1000
0100
1000
0000
0001
0010
0001
0000
1000
0010
1000
0000
0001
0000
,
0010
0000
0000
0100
0000
0000
0001
0000
0100
0000
0000
0000
0001
0000
1000
0010
,
0100
0000
0010
0000
1000
0000
0001
0000
0010
0000
1000
0000
0001
0000
0100
1000
,
0001
0100
0010
1000
0001
1000
0100
0010
,
0100
0000
1000
0000
0001
0000
0100
0000
0010
0100
0010
0100
0010
0000
1001
0000
,
1001
1000
0001
1000
0001
0000
0010
0100
0010
0100
0001
0000
0100
0010
0100
0000
,
0001
0100
0001
0100
0001
0010
0100
0010
0100
0010
0001
0100
0001
0010
0001
1000
,
0001
0000
1000
0010
0000
0100
0010
0100
,
0010
0100
0001
0000
2002
0000
0000
3003
,
0110
0000
0001
0010
0000
0001
1000
0010
,
0100
0010
1000
0000
2020
0000
0000
3030
,
0001
0000
0010
1000
0000
0010
0100
0001
,
1000
0010
0100
0000
0002
0000
0000
0000
,
2003
0000
0000
3020
0000
0000
0230
0000
,
0320
0032
0023
2030
,
0002
0000
0000
0000
,
0000
0000
0000
0000
,
3003
0000
0000
0000
;
