#VERSION:0.83;
#TITLE:Star Guitar;
#ARTIST:The Chemical Brothers;
#GENRE:ROCK;
#CREDIT:B. M'Rey;
#MUSIC:Star guitar.ogg;
#BANNER:Star guitar.png;
#BACKGROUND:Star guitar-bg.png;
#CDTITLE:./CDTITLES/Dance Dance Revolution SPACE.PNG;
#SAMPLESTART:51.109;
#SAMPLELENGTH:15;
#OFFSET:-0.080;
#BPMS:0=126.986;

//--------------- dance-single - B. M'Rey ----------------
#NOTEDATA:;
#STEPSTYPE:dance-single;
#DESCRIPTION:B. M'Rey;
#DIFFICULTY:Beginner;
#METER:4;
#CREDIT:B. M'Rey;
#RADARVALUES:0,0,0,0,0;
#NOTES:
0000
0000
0000
0000
,
0000
0000
0000
0000
,
0000
0000
0000
0000
,
0001
0000
1000
0000
,
0100
0000
0001
0000
,
0020
0000
0000
0000
,
2030
0000
0000
0000
,
3100
0000
1000
0000
,
0001
0000
0100
0000
,
2000
0000
0000
0000
,
3020
0000
0000
0000
,
0130
0000
0001
0000
,
1000
0000
0100
0000
,
0001
0000
1000
0000
,
0010
0000
0100
0000
,
0001
0000
1000
0000
,
0100
0000
0001
0000
,
2000
0000
0000
0000
,
3002
0000
0000
0000
,
0203
0000
0000
0010
,
0320
0000
0000
1000
,
2030
0000
0000
0001
,
3002
0000
0000
0010
,
0023
0000
0000
0100
,
0230
0000
0000
0001
,
0302
0000
2003
0000
,
3200
0000
0320
0000
,
0031
1000
0010
0000
,
0100
1000
0100
0000
,
0001
0010
0000
0000
,
1000
0100
0000
0000
,
0010
0001
1000
0000
,
0100
0010
0100
0000
,
1000
0001
0000
0000
,
0001
0100
0000
0000
,
0100
0010
1000
0000
,
1000
0001
0100
0000
,
0010
0001
0100
0000
,
0100
1000
0010
0000
,
0001
0100
0010
0000
,
0010
1000
0100
0000
,
0001
0010
0001
0000
,
0100
0010
1000
0000
,
0020
0000
0000
0000
,
2030
0000
0000
0000
,
3200
0000
0000
0000
,
2300
0000
0000
0000
,
3002
0000
0000
0000
,
0023
0000
0000
0000
,
0032
0000
0000
0000
,
0203
0000
0000
0000
,
0310
0000
0000
0000
;

//--------------- dance-single - B. M'Rey ----------------
#NOTEDATA:;
#STEPSTYPE:dance-single;
#DESCRIPTION:B. M'Rey;
#DIFFICULTY:Easy;
#METER:6;
#CREDIT:B. M'Rey;
#RADARVALUES:0,0,0,0,0;
#NOTES:
0000
0000
0000
0000
,
0000
0000
0000
0000
,
0000
0000
0000
0000
,
0100
0010
0100
0010
,
0001
0010
0001
0010
,
2000
3000
0002
0003
,
2000
3000
0002
0003
,
0001
0010
0001
0010
,
0100
0010
0100
0010
,
0002
0003
2000
3000
,
0002
0003
2000
3000
,
1000
0010
0002
0003
,
1000
0010
0200
0300
,
0010
0001
0200
0300
,
1000
0100
2000
3000
,
0010
1000
0010
1000
,
0010
0001
0010
0001
,
0010
0100
0010
0100
,
0010
0001
0010
0001
,
1000
0000
0000
0000
0000
0000
0000
0000
1000
0000
0000
0010
0000
0000
0010
0000
,
0100
0000
0000
0000
0000
0000
0000
0000
0001
0000
0000
0010
0000
0000
0010
0000
,
0001
0000
0000
0000
0000
0000
0000
0000
0100
0000
0000
0010
0000
0000
0010
0000
,
1000
0000
0000
0000
0000
0000
0000
0000
0001
0000
0000
0010
0000
0000
0010
0000
,
1000
0000
0010
0000
0001
0000
0000
0000
0100
0000
0000
0010
0000
0000
0010
0000
,
0100
0000
0100
0000
0100
0000
0000
0000
0001
0000
0000
0010
0000
0000
0010
0000
,
0002
0000
0200
0000
,
0003
0000
0300
0000
,
0101
0100
0001
0000
,
0101
0001
1000
0000
,
0001
0020
0030
0000
,
1000
0020
0030
0000
,
0001
1000
0001
0000
,
0100
1000
0100
0000
,
0001
0100
0010
0000
,
0100
0001
1000
0000
,
0001
0100
0020
0030
,
1000
0001
0020
0030
,
0001
1000
0100
0000
,
1000
0010
0001
0000
,
0010
0001
2000
3000
,
0010
0100
2000
3000
,
0001
0010
0100
0000
,
1000
0001
0100
0000
,
0001
0000
0010
0000
,
0100
0000
1000
0000
,
0010
0000
0100
0000
,
0002
0000
0000
0003
,
0100
0000
0001
0000
,
0010
0000
0001
0000
,
1000
0000
0010
0000
1000
0010
1000
0000
,
0001
0000
0010
0000
0001
0010
0001
0010
,
0001
0000
0000
0000
;

//--------------- dance-single - B. M'Rey ----------------
#NOTEDATA:;
#STEPSTYPE:dance-single;
#DESCRIPTION:B. M'Rey;
#DIFFICULTY:Medium;
#METER:11;
#CREDIT:B. M'Rey;
#RADARVALUES:0,0,0,0,0;
#NOTES:
0000
0000
0000
0000
,
0000
0000
0000
0000
,
0000
0000
0000
0000
,
1001
0000
0010
0001
0100
0010
0100
0000
,
1001
0000
0010
0100
0001
0010
0001
0000
,
0002
0000
1000
0000
0010
0010
0013
0000
,
0002
0000
0023
0000
1000
1000
1030
0000
,
0100
0010
0100
1000
0100
0010
1000
0000
,
0001
0010
0001
1000
0001
0010
0100
0000
,
0200
0000
0320
0000
1000
1000
1030
0000
,
0002
0000
0023
0000
0100
0100
0130
0000
,
0001
0010
1000
0010
0001
0100
0101
0000
,
1000
0010
1000
0001
1000
0010
1010
0000
,
0101
0000
0002
0000
0010
0010
0103
0000
,
0101
0000
0200
0000
0010
0010
0301
0000
,
0010
0001
1000
0001
0100
0010
0001
0010
,
0100
0001
1000
0001
1000
0010
1001
0000
,
0001
0010
0001
1000
0010
1000
0100
1000
,
0001
0010
0001
0100
0010
1000
1001
0000
,
0100
0000
0000
0000
0010
0000
0000
0000
0200
0000
0000
0001
0000
0000
0301
0000
,
0010
0000
0000
0000
0001
0000
0000
0000
0020
0000
0000
0100
0000
0000
0031
0000
,
1000
0000
0000
0000
0010
0000
0000
0000
2000
0000
0000
0001
0000
0000
3001
0000
,
0010
0000
0000
0000
1000
0000
0000
0000
0020
0000
0000
1000
0000
0000
1030
0000
,
0100
0000
0001
0000
0100
0000
0000
0000
2000
0000
0000
0100
0000
0000
3001
0000
,
0010
0000
1000
0000
0100
0000
0000
0000
0002
0000
0000
0010
0000
0000
1003
0000
,
0010
1000
0100
0010
0001
0100
0010
0001
,
1000
0010
0001
1000
0010
1000
0100
1000
,
0002
1003
0010
0101
,
0200
1300
0010
0101
,
0001
0010
0002
0000
0000
0000
1003
0000
,
0100
0010
2000
0000
0000
0000
3001
0000
,
0100
0010
0100
0000
0001
0010
0001
0000
,
0100
0010
1000
0000
0001
0010
1000
0000
,
0100
0001
0010
0000
0001
0100
0010
0000
,
0001
0100
0010
0000
1000
0001
0010
0000
,
0100
0001
1000
0000
0001
0100
1000
0100
,
0001
0010
0001
0000
1000
0100
0010
0100
,
1000
0010
1000
0000
0001
0010
1000
0010
,
0001
0100
0001
0000
1000
0100
0001
0100
,
1000
0010
1000
0000
0001
1000
0010
0001
,
0100
0010
1000
0000
1010
0000
1000
0000
,
0100
0001
0010
1000
0100
0010
1000
0010
,
0001
0100
0010
1000
0001
0010
1000
0000
,
0001
0100
0010
1000
1000
0010
0001
0100
,
0001
0010
0100
1000
0010
0100
0001
0010
,
1000
0010
0001
0100
0010
1000
0001
0010
,
2000
0000
0000
3000
,
0100
0001
0010
0100
1000
0010
0100
0001
,
0100
0010
1000
0100
0010
0001
0100
0010
,
2000
0010
0010
3010
0002
0010
0010
0013
,
0200
0010
0010
0310
2000
0010
0010
3010
,
0202
0303
0000
0000
0000
0000
0000
0000
;

//--------------- dance-single - B. M'Rey ----------------
#NOTEDATA:;
#STEPSTYPE:dance-single;
#DESCRIPTION:B. M'Rey;
#DIFFICULTY:Hard;
#METER:12;
#CREDIT:B. M'Rey;
#RADARVALUES:0,0,0,0,0;
#NOTES:
0000
0000
0000
0000
,
0000
0000
0000
0000
,
0000
0000
0000
0000
,
1001
0000
0011
1000
0010
0100
0001
0010
,
2000
0000
3001
0000
0100
0001
0010
0001
,
1001
0000
0010
0001
0010
0001
1000
0010
,
0100
0000
1000
0000
0100
0010
0001
0100
,
1000
0001
0010
0100
0010
0001
0010
0100
,
1000
0000
0001
0010
1000
0000
0100
0000
,
0010
0100
0010
0001
0010
1000
0010
0001
,
0010
0000
0100
0010
1000
0000
0001
0000
,
0100
0010
1000
0100
0010
0001
0100
0000
,
0001
0010
0100
1000
0010
0100
0001
0000
,
1000
0100
0010
0001
0100
1000
0100
0000
,
0001
1000
0010
0100
0001
1000
0001
0000
,
1000
0001
0010
1000
0100
0010
0001
1000
,
0100
0001
0010
0100
0010
0100
0001
0010
,
1000
0100
0010
1000
0001
0010
1000
0001
,
1000
0100
0010
0001
0010
1000
0100
0010
,
0001
0000
0000
0000
1000
0000
0000
0000
0020
0000
0000
0100
0000
0000
0031
0000
,
1000
0000
0000
0000
0001
0000
0000
0000
0020
0000
0000
0001
0000
0000
0130
0000
,
0001
0000
0000
0000
0100
0000
0000
0000
0020
0000
0000
1000
0000
0000
0031
0000
,
0100
0000
0000
0000
0001
0000
0000
0000
0200
0000
0000
0001
0000
0000
1300
0000
,
0001
0000
1010
0000
0011
0000
0000
0000
0200
0000
0000
1000
0000
0000
0301
0000
,
0100
0010
0100
0000
1001
0000
0000
0000
0200
0000
0000
0310
0000
0000
0101
0000
,
0001
1000
0001
1000
0001
0010
0100
0010
0100
0010
0001
1000
0001
0100
0001
0010
,
0100
0010
0100
0010
0001
1000
0010
1000
0001
1000
0001
0010
0001
0010
0100
0010
,
2000
0200
3301
0010
,
2000
0002
3103
0010
,
2000
0020
3031
0000
0000
0000
0000
0000
,
0002
2000
3103
0000
0000
0000
0000
0000
,
0001
1000
0010
2000
0100
0100
3100
0000
,
2000
0000
3020
0000
0001
0001
0031
0000
,
1000
0001
2000
0001
0100
0001
3100
0000
,
2000
0000
3020
0000
1000
0100
1030
0000
,
1001
0000
0201
0000
1000
1000
1300
0000
,
0101
0000
1002
0000
0100
0100
0103
0000
,
1001
0000
0201
0000
0001
0001
0301
0000
,
0101
0000
2001
0000
0010
0010
3010
0000
,
0011
0010
0100
0000
1010
0010
0001
0000
,
0110
0010
0001
0000
0011
0010
1000
0000
,
0010
1000
0001
0100
0010
0100
1000
0001
,
0010
1000
0010
0001
0100
1000
0100
0000
,
2100
0000
0001
0000
0010
3000
0000
0000
0001
0000
0010
0000
1000
0000
0100
0000
,
1000
0010
1000
0001
1000
0010
1000
0010
,
0100
1000
0100
0001
0100
0001
0100
0010
,
0002
0000
0000
0000
0000
0003
0110
0000
,
1000
0100
0010
0001
0010
1000
0100
0010
,
0001
0010
1000
0100
0010
0001
1000
1000
,
0001
1000
0001
1000
0010
1000
0001
0100
0010
0100
0010
0100
0001
0010
0001
0010
,
0001
1000
0100
1000
0100
1000
0001
0100
0001
0100
0001
1000
0100
0010
0100
1000
,
0010
0000
0000
0000
;
