#VERSION:0.83;
#TITLE:Safe and Sound;
#ARTIST:Capital Cities;
#GENRE:POP;
#CREDIT:B. M'Rey;
#MUSIC:Safe and Sound.ogg;
#BANNER:Safe and Sound.png;
#BACKGROUND:Safe and Sound-bg.png;
#CDTITLE:./CDTITLES/Dance Dance Revolution SPACE.PNG;
#SAMPLESTART:33.715;
#SAMPLELENGTH:15;
#OFFSET:-0.156;
#BPMS:0=118.;

//--------------- dance-single - B. M'Rey ----------------
#NOTEDATA:;
#STEPSTYPE:dance-single;
#DESCRIPTION:B. M'Rey;
#DIFFICULTY:Beginner;
#METER:4;
#CREDIT:B. M'Rey;
#RADARVALUES:0,0,0,0,0;
#NOTES:
0000
0000
0000
0000
,
0000
0000
0000
0000
,
0000
0000
0000
0000
,
0000
0000
0000
0000
,
0000
0000
1000
0000
,
0001
0000
0100
0000
,
0010
0000
1000
0000
,
0010
0000
0100
0000
,
0001
1001
0000
0100
,
0001
0000
0000
0010
0000
0000
0000
0000
,
0000
1000
0010
0100
,
1000
0010
0100
0010
,
1000
0001
0000
0100
,
0010
0000
0000
1000
0000
0000
0000
0000
,
0000
0100
0010
1000
,
0001
0010
0001
0100
,
0010
1000
0001
0000
,
0100
0000
0010
0000
,
1000
1000
0010
0000
,
0100
0000
0001
0000
,
0010
0010
0001
0000
,
1000
0000
0100
0000
,
1000
1000
0010
0000
,
0100
0000
0001
0000
,
1000
0000
0001
0000
,
1000
0000
0000
0010
0000
0000
0000
0000
,
0000
0000
0100
0000
,
0001
0000
1000
0000
,
0010
0010
0000
0100
,
0000
0001
0000
0000
,
0000
1000
0000
0010
,
0000
0100
0000
0010
,
0000
0001
0000
1000
,
0000
0010
0000
0100
,
0000
0010
0000
1000
,
0000
0001
0000
0000
,
1001
0000
0000
0010
,
0000
0100
0000
0001
,
0000
1000
0000
0010
,
0000
0100
0000
0010
,
0010
0010
0001
0000
,
0010
0000
0100
0000
,
1000
1000
0100
0000
,
0010
0000
0001
0000
,
0100
0100
0001
0000
,
1000
0000
0010
0000
,
1000
1000
0100
0000
,
0010
0000
0001
0000
,
1000
1000
0001
0000
,
0100
0000
0010
0000
,
1000
1000
0010
0000
,
0100
0000
0001
0000
,
0010
0010
0001
0000
,
1000
0000
0100
0000
,
1000
1000
0010
0000
,
0100
0000
0001
0000
,
1000
0001
0000
0000
;

//--------------- dance-single - B. M'Rey ----------------
#NOTEDATA:;
#STEPSTYPE:dance-single;
#DESCRIPTION:B. M'Rey;
#DIFFICULTY:Easy;
#METER:6;
#CREDIT:B. M'Rey;
#RADARVALUES:0,0,0,0,0;
#NOTES:
0000
0000
0000
0000
,
0000
0000
0000
0000
,
0000
0000
0000
0000
,
0000
0000
0000
0000
,
0000
0000
0010
0000
,
0100
0000
0001
0000
,
0001
0000
0010
0000
,
0010
0000
0001
0000
,
0010
0101
0001
0010
,
0100
1000
0001
1000
,
0001
0010
0001
0010
,
0100
1000
0100
0010
,
0100
0010
0001
0010
,
0100
1000
0100
0010
,
0001
0010
0001
1000
,
0010
1000
0100
1000
,
0001
0010
0200
0000
,
0320
0000
0230
0000
,
0310
1000
0020
0000
,
0230
0000
0302
0000
,
0013
1000
0200
0000
,
0302
0000
0203
0000
,
1300
0010
0002
0000
,
0023
0000
0032
0000
,
1003
0100
0010
0000
,
1000
0000
0010
0000
,
0001
0000
0010
0100
,
0010
0000
0001
0100
,
0010
0000
0001
0000
,
0100
0000
0010
0000
,
1000
1000
0001
0010
,
0100
0010
0100
0010
,
0001
0000
0100
0000
0001
0001
1000
0000
,
0001
1000
1000
0000
0100
0100
1000
0000
,
0010
0010
0100
0000
0010
0010
1000
0000
,
0001
0001
0010
0000
0100
0100
1000
0000
,
0010
0000
0100
0000
0010
0010
0100
0000
,
0010
0010
1000
0000
0001
0001
0100
0000
,
0001
0001
0010
0000
0100
0100
0010
0000
,
0100
0100
1000
0000
0100
0000
1000
0000
,
0001
1000
0010
0100
,
0001
0010
0100
0010
,
0001
0001
0010
0000
0001
0000
0100
0000
,
0001
0100
0010
1000
,
0001
0001
0010
0000
0001
0000
0100
0000
,
0010
0100
0010
1000
,
0001
0001
0010
0000
0100
0000
1000
0000
,
0001
0100
0001
1000
,
0001
0000
0100
0010
,
0001
0100
0001
0010
,
0100
0100
0010
0000
0001
0000
0100
0000
,
0010
0100
0001
0100
,
0010
0010
1000
0000
0100
0000
1000
0000
,
0001
0010
0100
0010
,
0001
0001
1000
0000
0001
0000
0010
0000
,
0001
0100
0010
0100
,
0010
0010
1000
0000
0000
0000
0000
0000
;

//--------------- dance-single - B. M'Rey ----------------
#NOTEDATA:;
#STEPSTYPE:dance-single;
#DESCRIPTION:B. M'Rey;
#DIFFICULTY:Medium;
#METER:9;
#CREDIT:B. M'Rey;
#RADARVALUES:0,0,0,0,0;
#NOTES:
0000
0000
0000
0000
,
0000
0000
0000
0000
,
0000
0000
0000
0000
,
0000
0000
0000
0000
,
0000
0000
0001
1000
,
0100
0010
0001
0100
,
0010
1000
0100
1000
,
0001
0010
0001
0100
,
0010
0000
1100
0000
0100
0000
0010
1000
,
0001
0000
0100
0001
0000
1000
0000
0001
,
0000
1000
0100
0001
0010
0000
1000
0100
,
0001
0000
1000
0010
0100
0000
1000
0001
,
0100
1000
0010
0000
0100
0000
0010
1000
,
0001
0000
0100
0010
0000
0001
0000
1000
,
0000
0100
0010
1000
0100
1000
0001
1000
,
0100
0010
0001
1000
0100
1000
0010
1000
,
0010
0100
0001
0000
0002
0000
1003
0000
,
0020
0000
1030
0000
0020
0000
0130
1000
,
0010
1000
0100
0000
0002
0000
1003
0000
,
0200
0000
1300
0000
0200
0000
0310
1000
,
0001
0100
0010
0000
0020
0000
0130
0000
,
0020
0000
0130
0000
0002
0000
0103
0010
,
0100
1000
0001
0000
0002
0000
0103
0000
,
0020
1030
0002
0013
,
0100
0000
1000
0000
0100
0000
0010
1000
,
0100
0000
0010
0001
0000
0010
0000
0001
,
0000
0000
0100
0010
0001
0000
0010
0000
,
0100
1000
0100
0000
0100
0000
1000
0001
,
0100
0000
0011
0000
0001
0000
0010
1000
,
0001
0000
0010
0100
0000
1000
0000
0100
,
0000
0001
0010
0100
0010
0100
0010
1000
,
0100
0010
0001
1000
0100
0010
0001
0100
,
0010
1000
0010
0000
0010
1000
0100
0000
,
0001
0010
0100
0000
0001
1000
0100
0000
,
0010
0001
1000
0000
0100
0010
1000
0000
,
0010
0001
0100
0000
0010
1000
0100
0000
,
0002
0000
1003
0000
0010
0100
1000
0000
,
0100
0001
1000
0000
0100
1000
0010
0000
,
0001
0010
0100
0000
0001
0100
1000
0000
,
0001
1000
0010
0000
0100
0001
0010
1000
,
0001
0010
0100
0000
0010
0000
0100
0000
,
0001
1000
0100
0001
0000
1000
0000
0100
,
0010
0100
0010
0000
0010
0000
0100
0000
,
0010
0001
1000
0001
0000
1000
0000
0100
,
0001
0010
1000
0000
0010
0000
0100
0000
,
0001
0010
0100
0001
0000
1000
0000
0100
,
0010
0001
1000
0000
0100
0000
1000
0000
,
0010
0100
1000
0001
0000
0100
0000
1000
,
0001
1000
0001
0000
0002
0000
0103
0000
,
0020
0000
1030
0000
0020
0000
1030
0001
,
1000
0010
0100
0010
0200
0000
0310
0000
,
0002
0103
0020
0130
,
0100
0010
0100
1000
0002
0000
1003
0000
,
0200
0000
0310
0000
0002
0000
0013
0100
,
0001
1000
0010
0000
0002
0000
0103
0000
,
0002
0103
0020
1030
,
0001
1000
0100
0000
0000
0000
0000
0000
;

//--------------- dance-single - B. M'Rey ----------------
#NOTEDATA:;
#STEPSTYPE:dance-single;
#DESCRIPTION:B. M'Rey;
#DIFFICULTY:Hard;
#METER:11;
#CREDIT:B. M'Rey;
#RADARVALUES:0,0,0,0,0;
#NOTES:
0000
0000
0000
0000
,
0000
0000
0000
0000
,
0000
0000
0000
0000
,
0000
0000
0000
0000
,
0000
0000
1000
0001
,
0010
0100
0010
1000
0001
0000
0010
0000
,
0100
1000
0100
0000
0001
0000
0010
0000
,
0010
1000
0100
1000
0001
0000
0100
0000
,
0001
1000
1001
0000
0101
0000
0010
0100
,
0001
0100
0001
1000
0010
1000
0000
0010
,
0000
1000
0100
0010
0001
0100
0010
0100
,
0001
1000
0010
0100
0010
1000
0001
0010
,
0001
0100
0001
0000
0100
0000
0010
1000
,
0100
0010
0100
1000
0010
0100
0000
0010
,
0000
0001
0010
1000
0010
0100
0001
0100
,
0001
0100
0010
1000
0100
1000
0010
0100
,
0110
0110
0110
0000
0100
1000
0010
0100
,
0010
0100
0010
1000
0100
0010
0001
0010
,
0002
0000
1003
0000
0010
1000
0010
0100
,
0010
1000
0001
1000
0010
0100
0001
0010
,
0002
0000
0013
0000
0010
0100
0010
0100
,
0001
1000
0001
1000
0100
0010
0001
1000
,
0002
0000
0103
0000
0001
1000
0100
0010
,
0001
0100
0001
0100
0010
1000
0001
0010
,
0001
1000
0010
0000
0100
0000
0010
1000
,
0100
0000
0100
0010
0001
0000
0100
0000
,
0010
0000
1000
0100
0001
0100
0001
0010
,
0001
1000
0010
1000
0010
0100
0010
1000
,
0001
0100
0010
0000
0010
0000
0100
1000
,
0001
0010
0100
1000
0001
0000
0010
0000
,
0100
0000
0100
0010
0001
1000
0001
1000
,
0001
0010
0100
1000
0001
0100
0010
0100
,
0010
0000
1000
0000
0100
0000
0000
0000
0010
0000
1000
0000
0001
1000
0000
1000
,
0001
0000
1000
0000
0100
0010
0000
0010
0100
0000
1000
0000
0100
1000
0000
1000
,
0010
0000
1000
0000
0010
0100
0000
0100
0010
0000
1000
0000
0100
1000
0000
1000
,
0100
0000
1000
0000
0010
0100
0000
0100
0010
0000
1000
0000
0010
0000
1000
0000
,
0100
0000
1000
0000
0101
0000
0000
0000
0101
0000
0000
0000
0001
1000
0000
1000
,
0010
0000
1000
0000
0010
1000
0000
1000
0001
0000
0100
0000
0001
0100
0000
0100
,
0001
0000
0010
0000
0100
0010
0000
0010
0100
0000
0010
0000
0001
1000
0000
1000
,
0001
0000
1000
0000
0001
0100
0000
0100
0010
0000
0100
0000
0010
0000
0100
0000
,
0001
0010
0001
0000
0010
1000
0001
0100
,
0010
1000
0001
1000
0001
1000
0100
0010
,
0200
0000
0301
0000
0100
1000
0100
1000
,
0100
0010
0001
0100
0010
1000
0100
0010
,
0002
0000
0103
0000
0100
0010
0100
1000
,
0001
0010
0100
1000
0100
1000
0001
0010
,
0002
0000
0103
0000
0100
1000
0100
0010
,
0001
0010
0001
0010
0100
1000
0001
0010
,
0100
1000
0100
1000
0100
0000
0000
0000
0010
0000
1000
0000
0100
0000
0010
0000
,
0001
0100
0001
0100
0010
0100
0001
0010
,
0200
0000
0310
0000
0001
0010
0001
0100
,
0001
1000
0010
0100
0001
0010
0001
1000
,
0002
0000
0013
0000
0001
0100
0001
0100
,
0010
0100
0001
1000
0001
0010
0001
0100
,
0020
0000
0031
0000
0001
0100
0010
0100
,
0001
0010
0001
0100
0010
1000
0010
0100
,
0002
0013
0000
0000
;
