#VERSION:0.83;
#TITLE:ルンペルシュティルツキン;
#ARTIST:Neon Raver☆ feat. 黒沢怜奈;
#TITLETRANSLIT:Rumpelstiltskin;
#ARTISTTRANSLIT:Neon Raver feat. Reina Kurosawa;
#GENRE:FAIRYTALE;
#CREDIT:B. M'Rey;
#MUSIC:Rumpelstiltskin.ogg;
#BANNER:Rumpelstiltskin.png;
#BACKGROUND:Rumpelstiltskin-BG.png;
#CDTITLE:./CDTITLES/Dance Dance Revolution SPACE.PNG;
#SAMPLESTART:83.128;
#SAMPLELENGTH:15;
#OFFSET:-0.082;
#BPMS:0=167.979;

//--------------- dance-single - B. M'Rey ----------------
#NOTEDATA:;
#STEPSTYPE:dance-single;
#DESCRIPTION:B. M'Rey;
#CREDIT:B. M'Rey;
#DIFFICULTY:Beginner;
#METER:4;
#RADARVALUES:0,0,0,0,0;
#NOTES:
0000
0000
0000
0000
,
0000
0000
0000
0000
,
0000
0000
0000
0000
,
0000
0000
0000
0000
,
0000
0000
0000
0000
,
0000
1000
0000
0000
,
0000
0001
0000
0000
,
0000
0200
0000
0000
,
0000
0000
0000
0000
,
0000
0301
0000
1000
,
0000
0010
0000
0100
,
0000
0001
0000
1000
,
0000
0010
0000
0100
,
0000
0101
0000
0010
,
0000
1000
0000
0010
,
0000
0100
0000
0001
,
0000
0010
0000
0001
,
0000
1000
0000
0000
,
0000
0010
0000
0100
,
0000
0001
0000
0000
,
0000
0000
0000
0000
,
0000
1000
0000
0000
,
0000
0010
0000
0100
,
0000
0001
0000
1000
,
0000
0000
0000
0010
,
0000
0100
0000
0000
,
0000
0001
0000
0000
,
0000
1000
0000
0010
,
0000
0000
0000
0100
,
0000
0001
0000
0000
,
0000
1000
0000
0010
,
0000
0100
0000
0000
,
0000
1001
0000
0000
,
0000
1000
0000
0010
,
0000
0100
0000
0001
,
0000
2000
0000
0000
,
0000
3000
0000
0010
,
0000
0100
0000
0001
,
0000
0010
0000
0100
,
0000
0002
0000
0000
,
0000
0003
0000
1000
,
0000
0010
0000
0100
,
0000
0010
0000
1000
,
0000
0020
0000
0000
,
0000
0030
0000
0100
,
0000
0010
0000
1000
,
0000
0100
0000
0001
,
0000
2000
0000
0000
,
0000
0000
0000
3000
,
0000
1000
0000
0000
,
0000
0010
0000
0000
,
0000
0100
0000
0000
,
0000
0010
0000
0000
,
0000
0110
0000
0000
,
0000
0001
0000
0000
,
0000
2000
0000
0000
,
0000
0000
0000
0000
,
0000
3001
0000
0000
,
0000
0110
0000
0000
,
0000
1000
0000
1000
,
0000
0001
0001
0010
,
0010
0100
0000
0100
,
0000
0010
0000
1000
,
0000
0001
0000
0010
,
0000
0001
0000
0100
,
0000
0020
0000
0000
,
0030
1000
0000
0001
,
0000
0010
0000
0100
,
0000
1000
1000
0001
,
0001
0100
0000
0100
,
0000
0010
0000
1000
,
0000
0010
0200
0000
,
0000
0000
0000
0000
,
0300
0001
0000
1000
,
0000
0010
0010
0100
,
0100
0002
0000
0000
,
0000
0000
0000
0003
,
0000
1000
0000
0100
,
0000
0010
0000
1000
,
0000
1000
0000
0001
,
0000
0010
0000
0001
,
0000
0100
0000
0010
,
0000
1000
0000
0100
,
0000
0001
0000
1000
,
0001
0000
0000
0001
,
1000
0000
0010
0000
,
0100
0000
0010
0000
,
1000
2002
0000
0000
,
0000
0000
0000
0000
,
0000
0000
0000
0000
,
0000
0000
0000
0000
,
0000
0000
0000
0000
,
0000
0000
0000
0000
,
0000
0000
0000
0000
,
0000
0000
0000
0000
,
0000
3003
0000
0000
;

//--------------- dance-single - B. M'Rey ----------------
#NOTEDATA:;
#STEPSTYPE:dance-single;
#DESCRIPTION:B. M'Rey;
#CREDIT:B. M'Rey;
#DIFFICULTY:Easy;
#METER:6;
#RADARVALUES:0,0,0,0,0;
#NOTES:
0000
0000
0000
0000
,
0000
0000
0000
0000
,
0000
0000
0000
0000
,
0000
0000
0000
0000
,
0000
0000
0000
0000
,
0000
0002
0000
0000
,
1003
0200
0000
0310
,
0001
0200
0000
0000
,
0000
0000
0000
0000
,
0000
0301
1000
0001
,
0100
0001
0100
0010
,
0100
0010
1000
0010
,
1000
0001
1000
0001
,
0100
0010
0100
0010
,
0100
0001
1000
0001
,
0100
0010
0100
0010
,
0100
0001
0010
0001
,
0010
0001
0000
0000
,
0100
0010
0001
1000
,
0100
0010
0000
2000
,
0000
0000
3000
0000
,
0001
1000
0000
0010
,
0001
0010
0000
1000
,
0000
0100
0000
0002
,
0000
0000
0000
0000
0000
0003
1000
0000
,
0100
0000
0010
0000
0000
0100
0000
0000
,
0010
0100
0000
0100
,
0010
0100
0000
0020
,
0000
0030
0000
0100
,
0000
0010
0001
0000
,
0010
1000
0000
0100
,
0000
2000
0000
0000
,
0000
3001
0000
0001
,
1000
0001
0100
0001
,
0100
0010
0100
0001
,
1000
0001
0100
0000
,
1000
0000
1000
0100
,
1000
0001
0100
0010
,
0100
0010
1000
0001
,
1000
0001
1000
0000
,
0010
0000
0010
0001
,
0010
0100
1000
0100
,
1000
0100
0010
0001
,
0010
0001
0010
0000
,
1000
0000
1000
0100
,
0010
0001
1000
0100
,
1000
0010
0000
0010
,
0100
0010
0000
0001
,
0000
0001
0000
1000
,
0000
0100
0000
0010
,
0000
0010
0000
1000
,
0001
0100
0000
0200
,
0000
0000
0300
0001
,
1000
0010
0000
0100
,
0000
0001
0000
0000
,
2000
0000
0000
0000
,
0000
0000
0000
0000
,
0000
3001
0000
0000
,
0000
0110
0000
0000
,
0000
0001
0010
0001
,
0100
0001
0100
0010
,
0100
0010
1000
0010
,
1000
0100
1000
0100
,
0010
0100
0010
0001
,
1000
0001
1000
0001
,
0100
0200
0000
0000
,
0000
0300
0100
0000
0010
0000
0100
0000
,
0001
1000
0000
0100
,
0000
0001
1000
0100
,
1000
0100
0000
0001
,
0000
0001
0010
0100
,
0010
0000
0100
0000
0000
2000
0000
0000
,
0000
0000
0000
0000
,
0000
3001
1000
0100
,
0000
0100
1000
0010
,
0100
0020
0000
0000
,
0000
0000
0000
0000
0000
0030
0000
0000
,
1000
0011
0000
1010
,
0000
0011
0000
0001
,
0020
0000
0000
0000
,
0000
0000
0000
0000
,
0000
0000
0000
0000
,
0000
0000
0000
0030
,
0000
0001
1000
0010
,
1000
0010
1000
0001
,
0100
0001
0100
0001
,
1000
0010
1000
0010
,
1000
0001
0000
1000
,
0000
0010
0000
0100
,
0000
0001
0000
1000
,
0000
0010
0000
0100
,
0000
0010
0000
1000
,
0000
0001
0000
0010
,
0000
0001
0000
0100
,
0000
0010
0000
1000
,
0001
0220
0000
0000
,
0330
0000
0000
0000
;

//--------------- dance-single - B. M'Rey ----------------
#NOTEDATA:;
#STEPSTYPE:dance-single;
#DESCRIPTION:B. M'Rey;
#CREDIT:B. M'Rey;
#DIFFICULTY:Medium;
#METER:10;
#RADARVALUES:0,0,0,0,0;
#NOTES:
0000
0000
0000
0000
,
0000
0000
0000
0000
,
0000
0000
0000
0000
,
0000
0000
0000
0000
,
0000
0000
0000
0000
,
0000
1000
0000
0000
,
0001
0010
0100
1000
,
0010
0100
0000
0000
,
0000
0000
0000
0000
0010
0000
0001
0100
,
0001
0100
0001
0010
0100
0000
0001
0000
,
0010
0000
0010
0100
0001
0000
0010
0000
,
0001
0000
0001
0010
0001
0000
0010
0100
,
0010
0000
0100
1000
0001
0000
0001
1000
,
0100
0000
0010
0100
0001
0000
0001
0000
,
0100
0000
0100
1000
0001
0000
0010
0000
,
0100
0000
0001
0100
0001
0000
0100
1000
,
0010
0000
0001
1000
0010
0000
0001
1000
,
0100
0010
0001
0000
0000
0000
0000
0000
,
1000
0010
0100
0010
,
0001
0000
0010
0000
0000
2002
0000
0000
,
0000
0000
3003
0000
,
0001
0010
0001
0000
0000
0000
0100
0000
,
0010
0000
1000
0000
0000
0001
0000
0000
,
0010
0000
0100
0000
0000
0001
0010
0000
,
0000
0000
0000
1000
,
0100
0000
0010
0000
0000
0001
0000
0001
,
1000
0010
0000
0100
,
0001
0000
0010
0000
0000
0100
2000
0000
,
0000
3000
0000
0001
,
0010
0000
0001
0000
0000
0100
0000
0000
,
0010
0000
1000
0000
0000
0001
0000
0000
,
0010
0200
0000
0000
,
0000
0300
1001
0000
0000
0000
0110
0000
,
1100
0000
0010
0000
0010
0100
0000
0100
,
0001
0000
0100
0000
0100
1000
0000
0100
,
0010
1000
0100
0000
0001
0010
0001
0000
,
0100
1000
0001
0000
0100
0000
0100
1000
,
0001
0100
0010
0000
0100
0010
0000
1000
,
0010
0000
0001
0000
0010
1000
0000
0010
,
0100
0000
0010
1000
0100
0000
0001
1000
,
0001
0000
0001
1000
0100
0000
0001
0100
,
0001
0100
0010
0000
0001
1000
0000
0000
,
0100
0000
0001
0000
0010
1000
0000
0100
,
0010
0000
0100
0010
0100
0000
0001
0100
,
0010
0000
0010
0100
0010
0000
0001
0010
,
0001
0001
1010
0011
,
0110
0000
1100
0000
0001
0100
0000
0100
,
0010
0000
0001
1000
0001
0000
0001
0010
,
0100
0000
0100
1000
0001
0000
0100
1000
,
0010
0000
1000
0000
0000
0001
0010
0000
,
0000
0100
0010
0000
0000
0000
1000
0000
,
0001
0000
0100
0000
0000
0010
0200
0000
,
0000
0000
0300
0001
,
1000
0010
0000
0100
,
0000
0001
0000
0000
,
1000
0002
0000
0000
0000
0000
0000
0000
,
0000
0000
0000
0000
,
0000
1003
0000
0000
,
0000
0011
0011
0110
,
0110
0000
0010
0000
0010
0100
0001
0000
,
0100
0000
0100
1000
0001
0000
0100
0000
,
0010
0000
1001
0000
0010
0100
0010
0000
,
0010
0000
0001
0100
0001
0000
0010
0000
,
0001
0000
0001
0010
0001
0100
0000
0100
,
0010
0000
0001
0000
1000
0000
0001
0010
,
0000
1000
0200
0000
0010
0000
0001
0000
,
0001
0300
0100
1000
0100
1000
0110
0000
,
0011
0000
1001
0000
0100
1000
0100
0000
,
0010
0011
0011
1100
,
1100
0000
0100
0000
0001
0010
0100
0000
,
0100
0000
1000
0000
0001
0000
0010
0100
,
0010
0000
1010
0000
0100
2000
0010
0000
,
0010
0010
0100
0100
,
0100
3000
0110
0000
0010
0100
0010
1000
,
0000
0100
0001
0000
0001
1000
0000
0010
,
0000
1000
0001
0000
0001
0100
0001
0000
,
0100
0010
0100
0000
0100
1000
0001
0000
,
0001
1100
0000
1010
,
0000
0011
0000
0001
,
0001
2000
0010
3000
0100
0000
0001
0010
,
0100
0000
1000
0000
0001
0000
0010
1000
,
0100
0000
0001
0000
0010
1000
0100
0000
,
0001
0100
0010
0000
0001
0100
0010
0000
,
0001
0100
0001
0000
0010
0000
0100
0000
,
0100
0010
0001
0000
0010
0000
0001
0000
,
0100
1000
0010
0000
0001
0010
0100
0000
,
0001
0100
0001
0000
0100
1000
0001
0000
,
0100
1000
0001
0000
0000
0000
1000
0000
,
0000
0010
0000
0100
,
0000
0001
0000
1000
,
0000
0010
0000
0100
,
0000
0010
0000
1000
,
0000
0001
0000
0010
,
0000
0001
0000
0100
,
0000
0010
0000
1000
,
0001
0220
0000
0000
,
0330
0000
0000
0000
;

//--------------- dance-single - B. M'Rey ----------------
#NOTEDATA:;
#STEPSTYPE:dance-single;
#DESCRIPTION:B. M'Rey;
#CREDIT:B. M'Rey;
#DIFFICULTY:Hard;
#METER:12;
#RADARVALUES:0,0,0,0,0;
#NOTES:
0000
0000
0000
0000
,
0000
0000
0000
0000
,
0000
0000
0000
0000
,
0000
0000
0000
0000
,
0000
0000
0000
0000
,
0000
0010
1000
0100
,
0010
0100
0010
0001
,
0010
0100
1000
0100
,
1000
0000
0000
0000
0100
0000
0000
0000
0010
0000
0010
0000
0001
1000
0001
0100
,
0010
0100
0010
1000
0001
0000
1000
0000
0001
0000
0100
0000
1010
0000
0000
0000
,
1100
0000
0010
1000
0001
0010
1001
0000
,
1010
0000
0001
1000
0100
0010
0001
0000
,
0010
0000
0010
1000
0010
0100
0001
0000
,
0010
0000
0010
0100
0010
1000
1001
0000
,
0110
0000
0010
0100
0001
0100
1001
0000
,
1001
0000
0100
0010
0001
0010
0100
0000
,
0100
1000
0100
1000
0001
0000
0001
1000
,
0100
0010
0200
0000
0300
0000
0000
0000
,
0100
0010
0100
1000
,
0010
0200
0000
2300
,
0000
0000
3000
0000
,
0001
0010
0100
0000
0000
0000
0001
0000
,
0100
0000
0002
0000
0000
0013
0000
0000
,
1000
0000
0100
0000
0000
0010
0002
0000
,
0000
0003
0000
0010
,
0001
0000
0100
0000
0001
0100
0000
0010
,
0001
0100
0000
0001
,
0100
0000
0100
1000
0000
1000
0002
0000
,
0000
0000
0000
0003
0000
0000
0001
0000
,
0001
0000
0100
0000
0001
0100
0000
0000
,
0010
1000
0001
0000
0100
1000
0000
0100
,
0010
0002
0010
0010
,
1000
0003
1001
0000
0000
0000
1100
0000
,
0110
0000
0101
0000
0001
0010
0001
0010
,
0001
1000
0100
1000
0001
1000
0010
0100
,
0010
0100
0010
1000
0001
0000
0001
0100
,
0001
0000
0010
0100
0010
0000
0010
1000
,
0001
1000
0001
0010
0001
0010
0100
0010
,
0100
1000
0100
1000
0001
1000
0001
0100
,
0001
0100
0010
0100
0010
0000
0010
0100
,
0001
0000
0010
1000
0010
0000
0001
0100
,
0010
0100
0010
0100
0001
0010
0001
0010
,
0001
1000
0010
1000
0010
1000
0100
0010
,
0100
0010
0100
1000
0001
0000
0001
0100
,
0001
0000
0100
1000
0100
0000
0100
0010
,
0001
0010
0001
1000
0001
1000
0010
1000
,
0010
0100
0010
0100
0001
0100
0001
0010
,
0001
1000
0010
1000
0010
1000
0100
0010
,
0100
1000
0100
1000
0010
1000
0010
0100
,
0010
0100
0010
0000
1000
0000
0100
0000
,
0010
0001
0100
0010
,
1000
0000
0100
0000
0000
0010
0100
0000
,
0000
0000
0001
0000
0000
0000
0001
1000
,
0100
0000
0010
0000
0100
0010
0001
0000
,
1000
0200
0010
0301
,
0100
0010
0002
0000
1000
0000
1000
0000
,
0010
0010
0100
0100
,
1003
0101
0000
1010
,
0000
1100
0011
1100
,
0110
0000
0001
1000
0001
0010
0001
0010
,
0100
0010
0100
1000
0100
1000
0010
1000
,
0010
0100
0010
0100
0001
0100
0001
1000
,
0001
0010
0100
0010
0100
0010
0001
1000
,
0001
1000
0001
0100
0010
0100
0010
0100
,
0001
1000
0010
1000
0010
1000
0001
0010
,
0001
0010
0001
1000
0100
1000
0100
1000
,
0010
0100
1010
0000
0110
0000
1100
0000
,
0100
1000
1001
0000
0011
0000
1001
0000
,
0010
1000
1100
0000
0110
0000
0110
0000
,
1010
0000
0001
0100
0001
0100
0001
0000
,
0100
1000
0100
1000
0100
0010
0001
0010
,
0001
0010
0100
1000
0100
1000
0100
0010
,
0001
0010
0001
0010
0100
1000
0100
1000
,
0100
0010
0001
0000
0001
0010
0100
1000
,
0001
0000
0010
1000
0000
0100
0000
0010
,
0000
0100
0010
1000
0010
1000
0010
0100
,
0001
0100
0001
0100
0010
1000
0010
1000
,
0010
0100
0011
0000
0001
0000
0110
0000
,
0001
0000
1001
0000
0001
1000
0100
0000
,
0100
0010
0100
0010
0100
1000
0010
0100
,
0010
0100
0010
1000
0100
0010
0001
0100
,
0001
0100
0001
1000
0010
1000
0001
0100
,
0001
1000
0100
1000
0010
1000
0100
0010
,
0100
1000
1010
0000
1100
0000
0010
0100
,
0010
0000
0110
0000
1001
0000
0001
1000
,
0100
0000
0100
1000
0010
1000
0100
0010
,
0100
1000
0001
0010
0001
1000
0001
0100
,
0010
1000
0100
0000
1000
0000
0010
0000
,
1000
0100
0010
0001
,
1000
0010
0100
0001
,
0010
0100
0010
0001
,
0100
0010
1000
0100
,
0010
0001
0100
0010
,
1000
0010
0100
0001
,
1000
0010
1000
0001
,
0100
0220
0000
0000
,
0330
0000
0000
0000
;
