#TITLE:Rain On Me;
#ARTIST:Lady Gaga, Ariana Grande;
#GENRE:POP;
#CREDIT:B. M'Rey;
#MUSIC:Rain On Me.ogg;
#BANNER:Rain On Me-bn.png;
#BACKGROUND:Rain On Me-bg.png;
#CDTITLE:./CDTITLES/Dance Dance Revolution SPACE.PNG;
#SAMPLESTART:108.840;
#SAMPLELENGTH:15;
#OFFSET:-0.102;
#BPMS:0=123;
#BGCHANGES:0.000=Rain On Me.avi=1.000=1=0=0=StretchNoLoop==CrossFade==,;

//--------------- dance-single - B. M'Rey ----------------
#NOTES:
     dance-single:
     B. M'Rey:
     Beginner:
     2:
     0.066107,0.07529,0,0.007464,0,62,62,0,1,0,0,0.066107,0.07529,0,0.007464,0,62,62,0,1,0,0:
0000
0000
0000
0000
,
0000
0000
0000
0000
,
0000
0000
0000
0000
,
0000
0000
0000
0000
,
0000
0000
0000
0000
,
1000
0000
0000
0000
,
0001
0000
0000
0000
,
0010
0000
0000
0000
,
0100
0000
0000
0000
,
0010
0000
0000
0000
,
0001
0000
0000
0000
,
1000
0000
0000
0000
,
0100
0000
0000
0000
,
0010
0000
0000
0000
,
0001
0000
0000
0000
,
0010
0000
0000
0000
,
0100
0000
0000
0000
,
0001
0000
0000
0000
,
1000
0000
0000
0000
,
0100
0000
0000
0000
,
1000
0000
0000
0000
,
0001
0000
0000
0000
,
0010
0000
0000
0000
,
0001
0000
0000
0000
,
0010
0000
0000
0000
,
0100
0000
0000
0000
,
0001
0000
0000
0000
,
1000
0000
0000
0000
,
0100
0000
0000
0000
,
0010
0000
0000
0000
,
0001
0000
0000
0000
,
0010
0000
0000
0000
,
1000
0000
0000
0000
,
0100
0000
0000
0000
,
1000
0000
0000
0000
,
0001
0000
0000
0000
,
0010
0000
0000
0000
,
0001
0000
0000
0000
,
0010
0000
0000
0000
,
0001
0000
0000
0000
,
0100
0000
0000
0000
,
0010
0000
0000
0000
,
1000
0000
0000
0000
,
0100
0000
0000
0000
,
1000
0000
0000
0000
,
0001
0000
0000
0000
,
0010
0000
0000
0000
,
0001
0000
0000
0000
,
0100
0000
0000
0000
,
0010
0000
0000
0000
,
1000
0000
0000
0000
,
0001
0000
0000
0000
,
0010
0000
0000
0000
,
0001
0000
0000
0000
,
0100
0000
0000
0000
,
0010
0000
0000
0000
,
1000
0000
0000
0000
,
0100
0000
0000
0000
,
1000
0000
0000
0000
,
0001
0000
0000
0000
,
0010
0000
0000
0000
,
0001
0000
0000
0000
,
0100
0000
0000
0000
,
0010
0000
0000
0000
,
1000
0000
0000
0000
,
0001
0000
0000
0000
,
0020
0000
0000
0000
,
0000
0030
0000
0000
;

//--------------- dance-single - B. M'Rey ----------------
#NOTES:
     dance-single:
     B. M'Rey:
     Easy:
     5:
     0.182327,0.250967,0.179129,0.044782,0,171,147,24,6,0,0,0.182327,0.250967,0.179129,0.044782,0,171,147,24,6,0,0:
0000
0000
0000
0000
,
0000
0000
0000
0000
,
0000
0000
0000
0000
,
0000
0000
0000
0000
,
0000
0000
0000
1000
,
0000
0001
0000
2000
,
0000
0000
3000
0001
,
0000
0100
0000
0100
,
0000
1000
0000
0001
,
0100
1000
0010
0000
,
0001
0000
0001
1000
,
0010
0001
0100
0000
,
1000
0000
1000
0100
,
0001
1000
0010
0000
,
0001
0000
0100
1000
,
0010
1000
0010
0000
,
0001
0000
0100
0000
,
0100
0000
0010
0000
,
0100
0000
0010
0000
,
0100
0000
0001
0000
,
0100
0000
0010
0000
,
1000
0000
0010
0000
,
0001
0000
0100
0000
,
1000
0000
0010
0001
,
0000
1000
0000
1001
,
0000
1001
0000
1001
,
0000
1001
0000
1001
,
0000
1001
0000
0010
,
0100
0010
0100
1001
,
0000
1001
0000
1001
,
0000
1001
0000
1001
,
0000
1001
0000
0010
,
0100
0010
0100
0000
,
0100
0000
0010
0000
,
0002
0003
2000
3000
,
0010
0000
0001
0000
,
0100
0000
0010
0000
,
0001
0000
0100
0000
,
0200
0300
0002
0003
,
1000
0000
0001
0000
,
0100
0000
0010
0001
,
0100
1000
0010
0000
,
0001
0000
0001
1000
,
0010
0001
0100
0000
,
1000
0000
1000
0100
,
0001
1000
0010
0000
,
0001
0000
0100
1000
,
0010
1000
0010
0000
,
0001
0000
0100
0000
,
0100
0000
0010
0000
,
0100
0000
0010
0000
,
0100
0000
0001
0000
,
0100
0000
0010
0000
,
1000
0000
0010
0000
,
0001
0000
0100
0000
,
1000
0000
0010
0001
,
0000
1000
0000
1001
,
0000
1001
0000
1001
,
0000
1001
0000
1001
,
0000
1001
0000
0010
,
0100
0010
0100
1001
,
0000
1001
0000
1001
,
0000
1001
0000
1001
,
0000
1001
0000
0010
,
0100
0010
0100
0100
,
0000
0001
0000
0010
,
0000
2000
0000
0000
,
0000
3000
0000
0000
;

//--------------- dance-single - B. M'Rey ----------------
#NOTES:
     dance-single:
     B. M'Rey:
     Medium:
     8:
     0.294283,0.353965,0.238838,0.044782,0,276,244,32,6,0,0,0.294283,0.353965,0.238838,0.044782,0,276,244,32,6,0,0:
0000
0000
0000
0000
,
0000
0000
0000
0000
,
0000
0000
0000
0000
,
0000
0000
0000
0000
,
0000
0000
0000
1000
,
0100
0001
0010
0100
,
2000
0000
3000
0001
,
0010
0100
1000
0100
,
0001
0000
1000
0000
0100
0000
0001
0010
,
0100
0000
1000
0100
0010
0000
0000
0000
,
0001
0000
1000
0000
0001
0000
1000
0100
,
0010
0000
0001
0010
0100
0000
0000
0000
,
1000
0000
0100
0000
1000
0000
0100
0010
,
0001
0000
1000
0100
0010
0000
0000
0000
,
0001
0000
0010
0000
0100
0000
1000
0100
,
0010
0000
1000
0100
0010
0000
0000
0000
,
0001
0010
0100
1000
,
0100
0001
0010
1000
,
0100
0000
0001
0000
0010
0100
0010
0100
,
0000
0010
0000
0100
0000
0010
0100
0010
,
0000
0100
0000
0010
0000
0000
0001
0000
,
1000
0100
0010
1000
,
0001
0000
0010
0000
0100
0010
0100
0010
,
0000
0100
0000
0010
0000
0000
0001
0000
,
0000
1000
0000
1001
,
1001
1001
1001
0001
,
1000
0001
1000
1001
,
1001
1001
1001
0010
,
0100
0010
0100
1001
,
1001
1001
1001
0001
,
1000
0001
1000
1001
,
1001
1001
1001
0010
,
0100
0010
0100
0001
,
0100
1000
0010
0100
,
0002
0003
2000
3000
,
0010
0100
0001
1000
,
0000
0000
0000
0010
0000
0000
0000
0000
,
0001
0010
0100
1000
,
0200
0300
0002
0003
,
1000
0100
0001
0010
,
0000
0000
0100
0000
0000
0000
0001
0010
,
0100
0000
1000
0100
0010
0000
0000
0000
,
0001
0000
1000
0000
0001
0000
1000
0100
,
0010
0000
0001
0010
0100
0000
0000
0000
,
1000
0000
0100
0000
1000
0000
0100
0010
,
0001
0000
1000
0100
0010
0000
0000
0000
,
0001
0000
0010
0000
0100
0000
1000
0100
,
0010
0000
1000
0100
0010
0000
0000
0000
,
0001
0010
0100
1000
,
0100
0001
0010
1000
,
0100
0000
0001
0000
0010
0100
0010
0100
,
0000
0010
0000
0100
0000
0010
0100
0010
,
0000
0100
0000
0010
0000
0000
0001
0000
,
1000
0100
0010
1000
,
0001
0000
0010
0000
0100
0010
0100
0010
,
0000
0100
0000
0010
0000
0000
0001
0000
,
0000
1000
0000
1001
,
1001
1001
1001
0010
,
0100
0010
0100
1001
,
1001
1001
1001
0010
,
0100
0010
0100
1001
,
1001
1001
1001
0010
,
0100
0010
0100
1001
,
1001
1001
1001
0010
,
0100
0010
0100
0010
,
0000
0100
0000
0001
,
0000
0010
0000
2000
,
0000
0000
0000
3000
;

//--------------- dance-single - B. M'Rey ----------------
#NOTES:
     dance-single:
     B. M'Rey:
     Hard:
     10:
     0.401973,0.455938,0.559777,0.067173,0.10076,377,302,75,9,0,0,0.401973,0.455938,0.559777,0.067173,0.10076,377,302,75,9,0,0:
0000
0000
0000
0000
,
0000
0000
0000
0000
,
0000
0000
0000
0000
,
0000
0000
0000
0000
,
0000
0000
0000
0000
0000
0000
1000
0100
,
1000
0100
0010
0000
0001
0010
0100
0000
,
0200
0000
0000
0000
0300
0000
0000
1000
,
0100
1000
0100
0000
0001
0010
0100
0000
,
1000
0000
0100
0000
0001
0000
0000
0010
0000
0000
0100
0000
1000
0000
0000
0100
,
0000
0000
0001
0000
0000
0010
0000
0000
0100
0000
0000
0000
0000
0000
1000
0000
,
0100
0000
1000
0000
0100
0000
0000
1000
0000
0000
0100
0000
0001
0000
0000
0010
,
0000
0000
0100
0000
0000
1000
0000
0000
0100
0000
0000
0000
0000
0000
0001
0000
,
0010
0000
0001
0000
0010
0000
0000
0001
0000
0000
0010
0000
0100
0000
0000
1000
,
0000
0000
0100
0000
0000
0010
0000
0000
0001
0000
0000
0000
0000
0000
0010
0000
,
0100
0000
0010
0000
0100
0000
0000
0010
0000
0000
0100
0000
1000
0000
0000
0100
,
0000
0000
0001
0000
0000
0010
0000
0000
0100
0000
0000
0000
0000
0000
1000
0000
,
0001
0000
1000
0000
0001
0000
0000
1000
0000
0000
0001
0000
0010
0000
0100
0000
,
1000
0100
0000
0001
0000
0010
0100
0010
,
0100
0020
0000
0000
0030
1000
0100
0010
,
0000
1001
0000
1001
0000
0010
0100
0010
,
0000
0110
0000
0110
0000
0001
0010
1000
,
0100
0010
0000
1000
0000
0001
0010
0001
,
0100
2000
0000
0000
3000
0010
0100
0010
,
0000
0110
0000
0110
0000
0000
0001
0000
,
0000
1000
0000
1001
,
1001
1001
0110
0110
,
0110
1001
1001
1001
,
0110
0110
0110
1001
,
0110
0011
1100
1001
,
1001
1001
0110
0110
,
0110
0011
0011
0011
,
1100
1100
1100
0011
,
1100
0000
0011
0000
1100
0000
0001
0010
,
0001
0010
0100
1000
0100
1000
0100
0001
,
0020
0000
0000
0030
0000
0000
0000
1000
,
0100
0000
1000
0000
0100
0000
0000
1000
0000
0000
0100
0000
0000
0000
0000
0000
,
0000
0000
0000
0000
0000
0000
0001
0000
1000
0000
0000
0000
0000
0000
0010
0100
,
0010
0001
1000
0100
1000
0001
0010
0100
,
2000
0000
3000
0000
0000
0000
0000
0001
,
0010
0000
0001
0000
0010
0000
0000
0100
0000
0000
1000
0000
0000
0000
0000
0000
,
0000
0000
0100
0000
0100
0000
0000
0000
0010
0000
1000
0001
1000
0000
0000
0100
,
0000
0000
0001
0000
0000
0010
0000
0000
0100
0000
0000
0000
0000
0000
1000
0000
,
0100
0000
1000
0000
0100
0000
0000
1000
0000
0000
0100
0000
0001
0000
0000
0010
,
0000
0000
0100
0000
0000
1000
0000
0000
0100
0000
0000
0000
0000
0000
0001
0000
,
0010
0000
0001
0000
0010
0000
0000
0001
0000
0000
0010
1000
0100
0000
0000
1000
,
0000
0000
0100
0000
0000
0010
0000
0000
0001
0000
0000
0000
0000
0000
0010
0000
,
0100
0000
0010
0000
0100
0000
0000
0010
0000
0000
0100
0000
1000
0000
0000
0000
,
0010
0001
0010
1000
0000
0020
0000
0000
,
0000
0000
0000
0000
0000
0031
0010
0100
,
1000
0100
0000
0001
0000
0010
0100
0010
,
0100
0020
0000
0000
0030
1000
0100
0010
,
0000
1001
0000
1001
0000
0010
0100
0010
,
0000
0110
0000
0110
0000
0001
0010
1000
,
0100
0020
0000
1030
0000
0001
0010
0001
,
0100
2000
0000
3000
0000
0010
0100
0010
,
0000
0110
0000
0110
0000
0000
0001
0000
,
0001
1000
1000
1001
,
1001
1001
0110
0110
,
0110
1001
1001
1001
,
0110
0110
0110
1001
,
0110
0011
1100
1001
,
1001
1001
0110
0110
,
0110
0011
0011
0011
,
1100
1100
1100
0011
,
1100
0000
0011
0000
0100
0010
1000
0000
,
0000
0001
0010
0000
0100
1000
0100
0000
,
0001
0010
0100
0000
1000
0000
0200
0000
,
0000
0000
0320
0000
0000
0000
0000
0030
;
