#TITLE:QZKago Requiem;
#ARTIST:t+pazolite;
#GENRE:TOKYO STYLE SPEEDCORE;
#CREDIT:B. M'Rey;
#MUSIC:QZKago Requiem.ogg;
#BANNER:QZKago Requiem-bn.png;
#BACKGROUND:QZKago Requiem-bg.png;
#CDTITLE:./CDTITLES/maimai FiNALE.PNG;
#SAMPLESTART:30.437;
#SAMPLELENGTH:15;
#OFFSET:-0.126;
#BPMS:0=128.503,33=257.005,153=128.503,189=257.005,217=128.503,219=257.005;
#STOPS:257=0.934;

//--------------- dance-single - B. M'Rey ----------------
#NOTES:
     dance-single:
     B. M'Rey:
     Beginner:
     6:
     0,0,0,0,0:
0000
0000
0000
0000
,
0000
0000
0000
0000
,
0000
0000
0000
0000
,
0000
0000
0000
0000
,
0000
1000
0000
0010
,
0000
0100
0000
0001
,
0000
0010
0000
0100
,
0000
0010
0000
1001
,
0000
0001
0000
1000
,
0000
0010
0000
0000
,
0000
0100
0000
0001
,
0000
1000
0000
0000
,
0000
0010
0000
0100
,
0000
0001
0000
0000
,
0000
0010
0000
1000
,
0000
0010
0000
0000
,
0000
0100
0000
0010
,
0000
0100
0000
0000
,
0000
0001
0000
1000
,
0000
0010
0000
0000
,
0000
1001
0000
0000
,
0000
1001
0000
0000
,
0000
0010
0000
0000
,
0000
0100
0000
0000
,
0000
0001
0000
1000
,
0000
0010
0000
0100
,
0000
0001
0000
1000
,
0000
0010
0010
0100
,
0100
0001
0000
1000
,
0000
0010
0010
0100
,
0100
0001
0000
1000
,
0000
0010
0000
0000
,
0000
1000
0000
0001
,
0000
1000
0000
0001
,
0000
1000
0000
0001
,
0000
1000
0000
0100
,
0000
0010
0000
1000
,
0000
0001
0010
0100
,
1000
0001
0000
1000
,
0000
0010
0000
0000
,
0000
0100
0000
0000
,
0000
0001
0000
0000
,
0000
1000
0000
0000
,
0000
0010
0000
0100
,
0000
0001
0000
1000
,
0000
1001
0000
0110
,
0000
0101
0000
1010
,
0000
0001
0000
1000
,
0000
0010
0000
0100
,
0000
0001
0000
1000
,
0000
0010
0010
0100
,
0100
0001
0000
0010
,
0000
1000
0000
0100
,
0000
0010
0000
1000
,
0000
1001
0000
0001
,
0000
0100
0000
0010
,
0010
1000
1000
0100
,
0000
0001
0000
0010
,
0010
0100
0100
0001
,
0000
0010
0000
1000
,
0000
0001
0000
1000
,
0000
1000
0000
0001
,
0000
1000
0000
0001
,
0000
2000
0000
0000
,
0000
3000
0001
0000
,
0100
0000
0010
0000
,
0100
0000
0010
0000
,
0100
0000
0000
0000
,
0000
0000
0000
0000
,
0000
0000
0000
0000
,
0000
0000
0000
0000
,
0000
0001
0000
0000
,
0000
1000
0000
0000
,
0000
0010
0000
0000
,
0000
0100
0000
0000
,
0000
0010
0000
0000
,
0000
0001
0000
0000
,
0000
1000
0000
0000
,
0000
0010
0000
0000
,
0000
0100
0000
0001
,
0000
0100
0000
0000
,
0000
0010
0000
1000
,
0000
0010
0000
0000
,
0000
0001
0000
0100
,
0000
0001
0000
0000
,
0000
0010
0000
0100
,
0000
0010
0000
0000
,
0000
0000
0000
0000
,
0000
0000
0000
0001
,
1000
1000
0000
0100
,
0001
0001
0000
0010
,
0010
0100
0000
0100
,
0100
0010
0000
0001
,
0000
1000
0000
0010
,
0000
0100
0000
0010
,
0000
1000
0000
0001
,
0000
0100
0000
0001
,
0001
0010
0000
1000
,
1000
0100
0000
0010
,
0010
0100
0000
0001
,
0001
0010
0000
1000
,
0000
0010
0000
0100
,
0000
0001
0000
1000
,
0000
0010
0000
0101
,
0000
0000
0000
1000
,
1000
0010
0000
0001
,
0001
0010
0000
0100
,
0100
0010
0000
1000
,
1000
0100
0000
0001
,
0001
0010
0000
0100
,
0100
0010
0000
1000
,
1000
0100
0000
1001
,
0000
0000
0000
0001
,
0000
1000
0000
0010
,
0000
0100
0000
0010
,
0000
1000
0000
0001
,
0000
0100
0000
0010
,
0000
1000
0000
0010
,
0000
0100
0000
0001
,
0000
1000
0000
1001
,
0000
0000
0000
0010
,
0220
0000
0000
0000
,
0000
0000
0000
0000
,
0000
0000
0000
0000
,
0000
0000
0000
0330
;

//--------------- dance-single - B. M'Rey ----------------
#NOTES:
     dance-single:
     B. M'Rey:
     Easy:
     10:
     0,0,0,0,0:
0000
0000
0000
0000
,
0000
0000
0000
0000
,
0000
0000
0000
0000
,
0000
0000
0000
0000
,
0001
1000
0001
1000
,
0001
0010
0100
0010
,
0100
0010
0001
1000
,
0001
0100
0001
0100
,
0000
0001
1000
0001
,
1000
0001
0010
0100
,
0010
0100
0010
0001
,
0100
0001
0100
0001
,
1000
0100
1000
0010
,
0100
0001
1000
0001
,
0010
0001
1000
0100
,
1000
0100
1000
0001
,
0100
0010
1000
0010
,
1000
0010
0100
0001
,
0100
0001
0100
0010
,
1000
0010
1000
0010
,
0100
0001
0100
0001
,
0000
0010
1000
0000
,
0000
0001
1000
0010
,
1000
0001
0000
0001
,
0000
0001
1000
0001
,
1000
0001
0010
0100
,
0010
0100
0010
0001
,
1000
0001
1000
0001
,
0010
0100
1000
0100
,
1000
0001
1000
0010
,
0100
0010
0100
0010
,
1000
0100
0000
0010
,
0110
0000
0100
0000
0000
1000
0000
0000
,
0001
0000
0000
0100
0000
0000
0001
0000
,
0000
0001
0010
0001
,
0010
0001
1000
0100
,
0010
0100
0010
0100
,
1000
0001
1000
0001
,
0010
0100
0000
0010
,
0000
0100
1000
0001
,
0000
0001
0100
0001
,
0000
0100
1000
0100
,
0000
0001
1000
0001
,
0000
0001
0010
0100
,
0000
0010
1000
0001
,
0000
0110
0000
0011
,
0000
1001
1010
0101
,
1010
0001
0010
0001
,
0010
0001
1000
0010
,
1000
0100
0010
0100
,
1000
0100
1000
0001
,
1000
0001
0100
0001
,
0100
0010
0100
0010
,
1000
0010
1000
0001
,
1000
0101
0101
0001
,
0100
0010
1000
0010
,
1000
0010
0100
0001
,
0100
0001
0100
0010
,
1000
0001
1000
0001
,
1000
0100
0200
1300
,
0001
0200
0310
0000
,
0001
0000
0000
1001
,
0000
1001
0000
1010
,
0000
0220
0000
0000
,
0000
0330
1001
0000
,
1001
0000
0101
0000
,
0110
0000
0010
0100
,
0001
0000
0001
0000
,
0100
0000
0200
0000
,
0000
0000
0000
0000
,
0000
0000
0300
0001
,
1000
0001
0000
0100
,
0000
0010
0100
0010
,
0000
0100
0000
0010
,
0000
0001
1000
0010
,
0000
0001
0000
0100
,
0000
0100
0010
0100
,
0000
0001
0000
2000
,
0000
0000
3000
0010
,
1000
0010
0000
0001
,
0000
0100
0000
0001
,
0000
0100
0000
1000
,
0000
0010
0000
1000
,
0100
0001
0000
0100
,
0000
0010
0000
1001
,
0000
1001
0000
0001
,
0000
0110
0000
0220
,
0330
0000
0000
0001
,
0000
1000
0000
0010
,
1000
0010
0100
0010
,
0100
0001
1000
0001
,
1000
0001
0010
0100
,
0010
0100
0010
0001
,
0000
0100
0000
1000
,
0000
0010
0000
0001
,
0000
0100
0000
1000
,
0000
0010
0000
0010
,
0100
0001
0100
0001
,
0100
0010
1000
0001
,
0100
0001
0010
0001
,
0010
0100
1000
0100
,
0000
0010
0000
0001
,
0000
1000
0000
0100
,
1000
0100
1000
0200
,
0000
1300
0000
0001
,
1000
0001
1000
0001
,
0010
0100
0010
0100
,
0010
0001
0100
0001
,
0100
0010
0100
0010
,
1000
0010
1000
0001
,
1000
0001
0100
0001
,
0100
0010
0100
0110
,
0000
0101
0000
0001
,
1000
0001
1000
0001
,
0010
0100
1000
0100
,
0010
0100
1000
0001
,
1000
0001
0100
0010
,
0100
0010
0100
0001
,
0010
0001
0010
0001
,
0100
0010
0100
0110
,
0000
0101
0000
0010
,
0100
0010
0100
0010
,
1000
0100
1000
0100
,
1000
0001
0100
0001
,
0100
0001
1001
0000
;

//--------------- dance-single - B. M'Rey ----------------
#NOTES:
     dance-single:
     B. M'Rey:
     Medium:
     13:
     0,0,0,0,0:
0000
0000
0000
0000
,
0000
0000
0000
0000
,
0000
0000
0000
0000
,
0000
0000
0000
0000
,
0001
0000
1000
0000
0010
0000
1000
0010
,
0000
0001
1000
0000
0100
0000
0010
0100
,
0010
0000
0010
0000
0100
0000
1000
0010
,
0000
0001
1000
0000
0010
0000
1010
0000
,
0011
0001
1000
0001
,
1000
0001
0010
0100
,
0010
0100
0010
0001
,
0100
0001
0100
0001
,
0010
0100
1000
0010
,
1000
0100
1000
0001
,
0100
0001
0100
0010
,
0100
0110
0000
1010
,
0000
0101
1000
0100
,
0010
0100
0010
0001
,
0010
0100
1000
0001
,
1000
0001
1000
0100
,
0010
0001
0010
0001
,
0000
0100
1000
0001
,
0000
0001
1000
0100
,
0010
0100
0000
0100
,
0000
0000
0001
1000
0001
0000
0001
0100
,
0010
0000
0010
1000
0010
0000
0100
1000
,
0100
0000
0100
0010
0001
1000
0001
0010
,
0001
0000
0100
0000
0010
1000
0100
1000
,
0010
0000
0100
0000
0010
0100
0001
0000
,
0001
0010
0100
0000
0100
0010
0100
0000
,
0001
0010
0001
0000
0001
0000
0010
0000
,
1000
0010
0000
0100
,
0000
0000
0101
0000
0000
0110
0000
0000
,
1010
0000
0000
0101
0000
0000
0110
0000
,
0000
0000
0110
0000
0010
0001
0100
0000
,
0100
0010
1000
0000
1000
0010
1000
0000
,
0100
0010
1000
0000
1000
0100
0010
0000
,
0100
0010
0100
0000
0010
0100
0010
0001
,
0100
0010
1000
0000
1000
0000
0001
0000
,
0001
0000
0000
0000
1000
0000
0000
0010
0000
0000
0100
0000
0000
0001
0000
0000
,
0100
0000
0001
0000
0100
0000
0000
0010
0000
0000
1000
0000
0000
0000
0010
0000
,
0100
0000
0010
0000
0100
0000
0000
0001
0000
0000
1000
0000
0000
0000
0001
0000
,
1000
0000
0001
0000
0100
0000
0000
0010
0000
0000
0100
0000
0000
0000
0010
0000
,
0100
0000
0010
0000
0001
0000
0000
1000
0000
0000
0001
0000
0000
0000
1000
0000
,
0001
0000
1000
0000
0010
0000
0000
0100
0000
0000
0010
0000
0000
0000
0100
0000
,
0010
0100
0001
0000
1000
0000
0001
0000
,
1000
1001
1010
0101
,
1010
0000
0001
0000
0001
0010
0000
0010
,
0001
0000
0001
1000
0100
0010
0001
0000
,
0010
0000
0100
0000
0100
0010
0000
0100
,
0001
0000
0100
0010
0100
1000
0010
0000
,
0001
0000
0100
0000
0001
0010
0000
0100
,
0001
0000
0100
0010
0001
0100
0010
1000
,
0100
0000
0010
0000
0001
0010
0000
1000
,
0010
1100
0110
0001
,
0001
0100
0000
1000
0010
0000
0100
0010
,
0001
0100
0010
0000
0100
0000
0010
0000
,
0010
0100
0000
0010
0100
0000
0010
1000
,
0100
0010
0001
0000
0100
0000
0011
0000
,
0001
0010
0000
0100
0002
0000
1003
0010
,
0001
0000
0010
0000
0200
0000
0000
0000
0310
0000
0000
1000
0000
0000
0010
0000
,
0000
0001
0000
0000
0100
0000
0000
0000
1000
0000
0000
0000
0010
0000
0000
0000
,
0100
0001
0010
0001
,
1000
0001
1000
0100
,
1000
0001
0100
1000
,
0010
1000
0100
0010
,
0001
0000
0000
0000
0100
0000
0000
0000
0010
0000
0000
0010
0000
0000
0000
0010
,
0000
0000
0100
0000
0000
1000
0000
0000
0000
0001
0000
0000
0100
0000
0001
0000
,
0100
0001
1000
0002
,
0000
0000
0000
0000
,
0000
0000
0000
1003
,
1000
0000
0001
0000
0100
0000
0100
1000
,
0010
1000
0000
0100
0000
0010
0100
0000
,
0001
0000
1000
0000
0100
0000
0100
0010
,
0001
0100
0000
0001
0000
1000
0010
0000
,
0100
0000
0010
0000
0001
0100
0001
0000
,
0001
0010
0000
0100
0010
0100
0001
0000
,
1000
0000
0001
0000
0010
0100
0010
0000
,
0001
1000
0000
1000
0001
0010
0100
0000
,
0100
0101
1001
1001
,
0100
1000
0100
0000
0110
0000
0011
0000
,
1001
0000
0001
1000
0100
0000
0110
0000
,
0110
0000
0011
0000
0001
0100
0001
0000
,
0110
0000
1000
0010
1000
0000
0001
1000
,
0001
0000
0001
0010
0100
0000
0001
0100
,
0001
0000
0001
0010
0100
0000
0100
0010
,
0001
1000
1001
0000
0001
0000
0220
0000
,
0330
0000
0000
0001
,
0000
0000
1000
0000
0000
0000
0001
1000
,
0100
0000
0100
0010
0001
0000
0010
1000
,
0100
0000
0100
0010
0001
0000
0001
0010
,
0001
0000
0010
1000
0010
0000
0001
0010
,
0100
0000
0001
0100
0100
0000
0010
0000
,
0001
0100
0010
1000
,
0100
1000
0100
1000
,
0010
0100
0001
0010
,
0001
0010
0001
0100
,
0001
0100
0010
0000
0001
0100
0001
0000
,
0100
0010
0100
0000
0001
0010
0100
0000
,
0001
0100
0010
0000
0100
1000
0010
0000
,
0001
0100
0010
0000
0001
0100
0010
0000
,
1000
0100
0010
0001
,
0100
0001
0010
0001
,
0100
0010
0100
0001
,
0000
0000
1000
0000
0000
0000
0010
1000
,
0100
0000
0010
0100
0001
0000
0010
1000
,
0001
0000
0010
0100
0010
0000
0001
0010
,
0001
0000
0010
0100
0010
0000
0001
0010
,
0001
0000
0010
1000
0001
0000
0010
1000
,
0001
0000
0100
0010
0100
0000
0010
0100
,
0001
0000
0001
1000
0010
0000
0100
0010
,
0001
0000
0001
0010
0001
0000
0110
0000
,
0000
0000
0101
0000
0000
0000
0001
1000
,
0001
0100
0001
0100
0010
0100
0010
1000
,
0001
1000
0001
1000
0100
0010
0100
0010
,
0100
1000
0001
1000
0100
0010
0001
0010
,
0001
0010
0100
1000
0010
1000
0001
1000
,
0001
0010
0001
1000
0010
1000
0010
1000
,
0001
0100
0001
0100
0001
0010
0100
0010
,
0100
0010
0001
1000
0001
1000
0101
0000
,
0000
0000
0220
0000
0000
0330
0001
0000
,
1000
0001
1000
0001
,
0010
0100
0010
0100
,
0010
0001
1000
0001
,
1000
0010
1001
0000
;

//--------------- dance-single - B. M'Rey ----------------
#NOTES:
     dance-single:
     B. M'Rey:
     Hard:
     17:
     0,0,0,0,0:
0000
0000
0000
0000
,
0000
0000
0000
0000
,
0000
0000
0000
0000
,
0000
0000
0000
0000
,
0001
1000
0001
1000
0001
0100
0010
0100
,
0000
0100
0001
1000
0001
1000
0001
0100
,
0010
0000
0010
1000
0010
0100
0001
0100
,
0001
0100
0010
1000
0010
1000
1001
0000
,
0101
0000
0010
1000
0010
1000
0010
0100
,
0001
0100
0001
0100
0010
1000
0010
0100
,
0010
0100
0001
0100
0001
1000
0010
1000
,
0001
1000
0001
0100
0001
0100
0010
0100
,
0010
1000
0100
1000
0100
1000
0001
0100
,
0001
0100
0001
1000
0100
1000
0100
1000
,
0001
0100
0001
0100
0010
0100
0010
1000
,
0010
0100
0001
0000
0001
0000
0010
0000
,
0010
0000
1000
0100
0001
0100
0001
0100
,
0010
1000
0010
1000
0010
0100
0001
0100
,
0001
1000
0001
1000
0100
1000
0100
0010
,
0001
0010
0001
0010
0100
1000
0100
1000
,
0100
0010
0001
0100
0001
1000
0001
1000
,
0001
0000
0010
0100
0010
0100
0000
0000
,
0000
0000
0001
1000
0100
1000
0100
1000
,
0010
0100
0001
0000
1000
0000
0100
0000
,
1000
0000
0001
1000
0001
1000
0001
0010
,
0100
0010
0100
0010
0001
1000
0001
1000
,
0100
1000
0100
0010
0100
0010
0001
0010
,
0001
0100
0001
0100
0010
0100
0010
1000
,
0010
1000
0100
1000
0100
0010
0001
0010
,
0001
0010
0100
1000
0001
1000
0001
1000
,
0100
0010
0100
0010
0100
1000
0010
1000
,
0010
1000
0001
0000
0000
0000
0100
0000
,
0100
0010
0100
0000
0000
0011
0000
0000
,
1100
0000
0000
0110
0000
0000
0101
0000
,
1001
0000
0001
1000
0001
1000
0001
0100
,
0010
0100
0010
0100
0001
1000
0010
1000
,
0010
1000
0001
0010
0001
0010
0001
0100
,
0010
0100
0001
0100
0001
1000
0010
1000
,
0001
1000
0001
0000
1000
0000
0001
0000
,
1000
0000
0001
1000
0001
1000
0001
0010
,
0100
0010
0100
0010
0001
1000
0001
1000
,
0010
1000
0001
0010
0100
0010
0100
1000
,
0010
0100
0001
0100
0001
0100
0010
1000
,
0010
0000
1000
0000
0010
1000
0000
0100
0001
0000
0001
0010
0100
0000
0001
0000
,
0100
0000
1000
0000
0100
1000
0000
1000
0100
0000
0100
0000
0010
0000
0001
0000
,
0010
0000
0001
0000
0010
1000
0000
1000
0010
0000
0001
1000
0001
0000
0010
1000
,
0000
0010
0100
0000
1001
0000
0000
0000
1010
0000
0000
0000
0101
0000
0000
0000
,
1010
0000
0010
1000
0010
1000
0010
0100
,
0001
0100
0001
0100
0010
1000
0010
1000
,
0010
0100
0001
0100
0001
0100
0010
1000
,
0010
1000
0001
1000
0001
0010
0001
0100
,
0010
1000
0010
1000
0010
0100
0001
0100
,
0010
0100
0010
1000
0010
1000
0001
1000
,
0001
0100
0001
0100
0010
0100
0010
1000
,
0010
1000
1001
0000
0011
0000
0001
1000
,
0010
0100
0010
0100
0010
1000
0100
1000
,
0100
1000
0010
0100
0010
0100
0010
1000
,
0001
0010
0001
0010
0001
1000
0100
1000
,
0100
1000
0001
0100
0001
0100
0001
0010
,
0100
0010
0100
0010
0002
0000
1003
0010
,
0001
0000
0010
0000
0200
0000
0000
0000
0310
0000
0000
1000
0000
0000
0010
0000
,
0000
0001
0000
0000
1000
0000
0000
0000
0001
0000
0000
0000
1000
0000
0000
0000
,
0001
1000
0100
1000
,
0010
0100
0010
0100
0010
1000
0001
1000
,
0100
1000
0001
0000
1001
0000
0001
1000
,
0010
0000
0010
0100
0010
0000
0001
0010
,
0001
0000
0000
0000
0001
0000
1000
0000
0100
0000
0000
0010
0000
0000
0000
0100
,
0000
0000
0010
0000
0000
0001
0000
0000
0000
1000
0000
0000
0010
0000
1000
0000
,
0010
1000
0001
2000
,
0200
0000
0000
0000
,
0000
0000
0000
3301
,
1000
0010
0100
0010
,
0010
1000
0000
1000
0001
0010
0100
0000
,
1000
0001
0010
0001
,
0100
0010
0000
0100
0001
0100
0010
0000
,
1000
0000
0100
0000
0010
0000
0001
0100
,
0001
0100
0000
1000
0000
0100
0001
0000
,
0100
0000
0010
0000
0001
0100
0010
0000
,
0001
0100
0010
0001
,
0001
0010
0100
0000
0001
0010
0100
0000
,
0001
0010
0100
0000
0010
1000
0010
0000
,
0100
0010
0001
0000
0010
1000
0001
0000
,
0001
0010
0100
0000
0100
0010
0001
0000
,
0010
0100
0001
0000
0100
0010
0001
0000
,
0001
1000
0100
0000
0010
1000
0001
0000
,
0001
1000
0100
0000
0100
1000
0010
0000
,
0100
0010
0001
0000
0011
0000
0220
0000
,
0330
0000
0000
0001
,
0000
0000
1000
0000
0000
0000
0001
1000
,
0001
1000
0001
0010
0100
1000
0100
1000
,
0100
0010
0001
0100
0001
0100
0001
1000
,
0100
0010
0100
0010
0100
1000
0001
1000
,
0001
1000
0100
0010
0100
0010
0100
0000
,
0001
0000
0100
0000
0001
0100
0000
0100
,
0010
1000
0010
0000
1001
0000
0010
0000
,
0010
1000
0001
0000
0001
0100
0001
0000
,
0010
0000
0100
0000
0010
0000
0001
1000
,
0100
0010
0100
0010
0100
1000
0010
1000
,
0010
1000
0001
0010
0001
1000
0001
1000
,
0100
1000
0100
0010
0100
0010
0001
0010
,
0001
1000
0010
0100
0010
0100
0010
0000
,
0100
0000
0100
0010
0100
1000
0000
1000
,
0010
0100
0010
0000
0100
0000
0100
1000
,
0001
1000
0010
0000
0010
0100
0001
0000
,
0000
0000
1000
0000
0000
0000
0100
1000
,
0100
1000
0100
0010
0001
0100
0001
0100
,
0001
1000
0010
0100
0010
0100
0001
0100
,
0001
1000
0001
0010
0100
0010
0100
0010
,
0001
0100
0001
0100
0001
0010
0100
0010
,
0100
0010
0001
1000
0001
1000
0001
0010
,
0100
1000
0100
1000
0100
0010
0001
0010
,
0001
1000
0001
0010
0100
0010
0110
0000
,
0000
0000
0101
0000
0000
0000
0001
1000
,
0100
1000
0100
1000
0001
0100
0001
0010
,
0001
0010
0100
0010
0100
1000
0100
1000
,
0010
1000
0010
0100
0010
1000
0100
1000
,
0100
1000
0010
0100
0010
0100
0001
1000
,
0001
1000
0001
0100
0010
0100
0010
0100
,
0001
0010
0001
0010
0001
1000
0010
1000
,
0010
1000
0100
0010
0100
0000
0110
0000
,
0000
0000
0000
0101
0000
0000
0000
0000
0000
0001
1000
0001
,
1000
0001
0010
0100
0010
0100
0010
0000
0000
0100
0010
0100
,
0010
0100
1000
0001
0010
0100
0000
0001
0000
0001
0100
0001
,
0100
0000
0100
0010
1000
0010
0001
0000
0000
1000
0000
0000
,
0001
1000
1001
0000
;
