#TITLE:Presto;
#SUBTITLE:;
#ARTIST:Osamu Kubota;
#TITLETRANSLIT:;
#SUBTITLETRANSLIT:;
#ARTISTTRANSLIT:;
#GENRE:PIANO AMBIENT;
#CREDIT:B. M'Rey & JMRDragonXVI;
#MUSIC:Presto.ogg;
#BANNER:Presto-bn.png;
#BACKGROUND:Presto-bg.png;
#CDTITLE:./CDTITLES/beatmania IIDX 3rd style.PNG;
#SAMPLESTART:71.000;
#SAMPLELENGTH:15.000;
#SELECTABLE:YES;
#OFFSET:-0.081;
#BPMS:0.000=136.000;
#STOPS:;
#BGCHANGES:;
#FGCHANGES:;

//--------------- dance-single - JMRDragonXVI ----------------
#NOTES:
     dance-single:
     JMRDragonXVI:
     Beginner:
     3:
     0,0,0,0,0:
0000
0000
0000
0000
,
0000
0000
0000
0000
,
0000
0000
0000
0000
,
0000
0000
0000
0000
,
0000
0000
0000
0000
,
0000
0000
0000
0000
,
0000
1001
0000
0000
,
0000
0100
0000
0000
,
0000
0010
0000
0000
,
0000
1000
0000
0000
,
0000
0001
0000
0000
,
0000
0010
0000
0000
,
0000
0001
0000
0100
,
0000
0010
0000
0000
,
0000
1000
0000
0010
,
0000
0100
0000
0000
,
0000
0001
0000
0010
,
0000
1000
0000
0100
,
0000
0001
0000
0000
,
0000
1000
0000
0000
,
0000
0010
0000
0000
,
0000
0100
0000
0000
,
0000
0001
0000
1000
,
0000
0010
0000
0100
,
0000
0010
0010
0010
,
0000
0001
0000
1000
,
0000
0100
0100
0100
,
0000
0010
0000
1000
,
0000
0100
0000
0000
,
0000
0000
0000
0000
,
0000
0000
0000
0000
,
0000
0000
0000
0000
,
0000
0001
0000
1000
,
0000
0000
0000
0000
,
0000
0010
0000
0100
,
0000
0001
0000
1000
,
0000
0010
0010
0010
,
0000
0100
0100
0100
,
0000
0001
0001
0001
,
0000
1000
1000
1000
,
0000
0010
0000
0100
,
0000
0001
0000
1000
,
0000
0010
0100
0010
,
0000
0001
0010
0001
,
0000
1000
0000
0010
,
0000
0100
0000
0010
,
0000
0001
0000
1000
,
0000
0001
0000
0010
,
0000
0100
0010
0100
,
0000
1000
0010
1000
,
0000
0100
0000
0001
,
0000
0010
0000
0100
,
0000
1001
0000
0000
;

//--------------- dance-single - JMRDragonXVI ----------------
#NOTES:
     dance-single:
     JMRDragonXVI:
     Easy:
     5:
     0,0,0,0,0:
0000
0000
0000
0000
,
0000
0000
0000
0000
,
0000
0000
0000
0000
,
0000
0000
0000
0000
,
0000
0000
0000
0000
,
0000
0000
0000
0000
,
0000
1001
0000
0010
,
1000
0010
1000
0010
,
0000
0001
0000
0010
,
1000
0010
0000
0010
,
0100
0001
0000
0100
,
0000
0010
0000
0100
,
0000
0100
1000
0001
,
0010
0001
0000
0100
,
0000
0100
0010
0100
,
0010
0001
0000
0100
,
0000
0001
0010
0001
,
0000
0100
1000
0100
,
0000
0001
0000
1000
,
0000
0001
0000
0010
,
0000
0100
0000
0001
,
0010
0001
0000
0001
,
0100
0010
0000
0001
,
0000
0001
0010
0001
,
0100
0010
1000
0100
,
1000
0100
1000
0001
,
0100
0001
0100
0010
,
1000
0100
0010
0100
,
0000
1001
0000
0002
,
0000
0000
0000
2003
,
0000
0000
0000
3200
,
0000
0000
0000
0302
,
0000
1003
0000
0010
,
0000
0100
0000
0001
,
0000
1000
0000
0010
,
0000
0100
0000
0001
,
0000
0010
0100
0010
,
0000
0010
1000
0100
,
0000
0001
0010
0001
,
0000
0001
0010
0100
,
0000
0001
1000
0010
,
0000
0010
0100
0001
,
0000
0001
0000
0010
,
0000
1000
0000
0001
,
0000
0100
0010
0100
,
0000
0100
1000
0010
,
0000
0010
0110
0000
,
0000
0001
0100
0001
,
0000
0001
0010
0100
,
0010
0100
0010
0001
,
1000
0001
1000
0100
,
0010
0100
1000
0100
,
0000
0220
0000
0000
0000
0000
0000
0000
,
0000
0000
0000
0000
,
0330
0000
0000
0000
;

//--------------- dance-single - JMRDragonXVI ----------------
#NOTES:
     dance-single:
     JMRDragonXVI:
     Medium:
     8:
     0,0,0,0,0:
0000
0000
0000
0000
,
0000
0000
0000
0000
,
0000
0000
0000
0000
,
0000
0000
0000
0000
,
0000
1000
0000
0010
,
0000
0100
0000
0001
,
0000
0110
0100
0001
,
1000
0000
0010
0100
1000
0000
0110
0000
,
0000
0000
0101
0000
0000
0000
0100
1000
,
0100
1000
0010
0000
0100
0000
0110
0000
,
0110
0010
0000
0100
,
0000
0001
0000
1000
,
0000
0000
0001
0010
0100
0000
0010
0100
,
1000
0001
0010
0100
,
0010
0000
0001
1000
0100
0000
0001
0100
,
0010
0100
1000
0001
,
0010
0000
0001
0010
1000
0000
0100
0000
,
0010
0000
0100
0001
0010
0000
0100
0000
,
1000
0110
0000
0101
,
0000
0011
0000
1100
,
0000
0000
0100
0000
1000
0000
0001
0010
,
0001
0010
0100
0000
0010
0000
0100
1000
,
0010
0000
0001
0010
1000
0010
0100
0000
,
1000
0000
0001
1000
0001
0010
0100
0010
,
0100
0010
0001
0000
0100
1000
0001
0000
,
0001
0100
0001
0100
0010
1000
0010
1000
,
0010
0100
0001
0000
0100
0010
0100
0000
,
0001
1000
0001
0000
0001
0000
0010
0000
,
0000
1001
0000
0002
,
0000
0023
0000
2030
,
0000
0000
0000
3020
,
0000
0230
0000
0302
,
0000
1003
0100
0010
,
0000
0001
1000
0010
,
0000
0010
0100
0001
,
0000
0001
1000
0001
,
0000
0000
0010
1000
0001
0000
0100
0010
,
0100
0000
0001
0000
1000
0000
0100
0010
,
0001
0000
0010
0000
0010
1000
0001
0000
,
0010
0100
0001
0000
1000
0000
0001
0000
,
0100
0000
0100
0001
0010
0000
0001
0000
,
1000
0000
0100
0010
1000
0000
0001
0000
,
1000
0110
0000
0011
,
0000
1001
0000
0101
,
0000
0010
0100
0001
,
0100
1000
0001
0000
0010
0100
0001
0000
,
1000
0010
0100
0000
1010
0000
0100
0000
,
0010
0000
0001
1000
0010
0000
0001
0100
,
0010
0000
0001
1000
0001
0000
0100
0010
,
0001
0000
0010
1000
0001
0000
0001
0100
,
0010
0101
0000
0010
0001
0000
0100
1000
,
0100
0000
0001
0010
0100
0000
0100
1000
,
0000
0022
0000
0000
0000
0000
0000
0000
,
0000
0000
0000
0000
,
0033
0000
0000
0000
;

//--------------- dance-single - B. M'Rey ----------------
#NOTES:
     dance-single:
     B. M'Rey:
     Hard:
     11:
     0,0,0,0,0:
0000
0000
0000
0000
,
0000
0000
0000
0000
,
0000
0000
0000
0000
,
0000
0000
0000
0000
,
0000
1000
0000
0010
,
0000
0100
0000
0001
,
0000
0000
0011
0000
0100
0000
0001
0010
,
0100
1000
0101
0000
1010
0000
0011
0000
,
0000
0000
1001
0000
0000
0000
0100
1000
,
0100
0010
0001
0010
0100
1000
1100
0000
,
0011
0000
0101
0000
0100
0010
0100
0000
,
0001
0100
0010
0000
0001
1000
0010
0000
,
0001
0000
0010
1000
0010
0000
0010
0100
,
0001
0000
0100
0010
0001
1000
0010
1000
,
0100
0000
0001
0100
0010
0000
0001
0100
,
0010
0000
0001
0010
0100
0010
0001
1000
,
0100
0000
0001
0100
0010
0100
0110
0000
,
0101
0000
0010
1000
0100
0000
0011
0000
,
1010
0000
0000
0001
0100
0001
0100
0000
1000
0100
0000
0100
,
0010
0000
0000
0001
1000
0001
1000
0000
1000
0010
0000
0001
,
0100
0000
0100
1000
0010
0000
0001
1000
,
0100
0010
0001
0000
0001
0010
0100
0010
,
0001
0000
0010
0000
0000
1000
0000
0100
0000
0010
0000
0000
0001
0000
0100
0000
,
0001
0000
1000
0000
0001
0000
0010
1000
0010
0000
0010
0100
0001
0000
0001
1000
,
0001
0000
0010
0000
0100
0000
0001
1000
0001
0000
0001
0100
0010
0000
0010
0100
,
0001
0000
1000
0000
0001
0000
0010
0100
0010
0000
0001
1000
0001
0000
0001
0010
,
0100
0000
0010
0000
1001
0000
0010
1000
0010
0000
0001
0000
0101
0000
0001
1000
,
0010
0000
0001
0000
0010
0100
0010
0000
0010
1000
0100
0000
0020
0000
0000
0000
,
0000
0031
0000
0020
,
0000
0031
0200
0000
0000
0000
2300
0000
,
0000
0000
0000
0000
0000
3100
0002
0000
,
0000
0013
0002
0000
0000
0000
0203
0000
,
0000
0301
1000
0001
,
0010
0001
0100
0010
,
1000
0010
1000
0010
,
0100
0001
0100
0001
,
0010
0100
0001
1000
0010
1000
0100
1000
,
0100
0000
1000
0001
0000
0000
0010
0000
0100
0000
1000
0000
0100
0000
0010
0000
,
0001
1000
0000
0010
0000
0000
0000
0100
0010
0000
0100
0000
0001
0100
0000
0010
,
0100
0000
0001
0000
0000
1000
0010
0000
0001
1000
0000
1000
0001
1000
0100
0000
,
0010
1000
0010
0100
0010
1000
0101
0000
,
1010
0000
0010
1000
0010
0100
0011
0000
,
0110
0000
0000
0100
1000
0001
1000
0001
1000
0010
0100
0010
,
0100
0010
1000
0001
0000
0001
1000
0000
0010
0001
0000
0001
,
0010
0000
0100
0000
1000
0000
0001
0000
0000
0010
0000
0000
0100
0000
0000
0010
0000
0000
0100
0000
0000
0010
0000
0000
,
0001
1000
0010
1000
0100
0010
0100
1000
,
0100
1000
0001
0010
0110
0000
0100
1000
,
0100
1000
0001
0010
0001
1000
0001
1000
,
0010
0000
1000
0000
0001
0000
0010
1000
0010
0000
0001
0100
0001
0000
0001
0010
,
0100
0000
0100
1000
0100
0000
0001
1000
0001
0000
0001
0010
0100
0000
0100
0010
,
0001
0000
0110
0000
0000
0000
0001
1000
0001
0000
0001
0010
0100
0000
0100
0010
,
0001
0000
0001
0100
0001
0000
0010
1000
0010
0000
0001
0010
0100
0000
0100
0010
,
0001
2020
0000
0000
0000
0000
0000
0000
,
0000
0000
0000
0000
,
3030
0000
0000
0000
;

//--------------- dance-single - B. M'Rey ----------------
#NOTES:
     dance-single:
     B. M'Rey:
     Challenge:
     15:
     0,0,0,0,0:
0000
0000
0000
0000
,
0000
0000
0000
0000
,
0000
0000
0000
0000
,
0000
0000
0000
0000
,
0000
1000
0000
0010
,
0000
0100
0000
0001
,
0000
0000
0000
0000
1001
0000
0000
0000
0010
0000
0001
1000
0001
0000
0001
0010
,
0100
0000
1000
0000
0001
0000
0001
1000
0001
0000
0010
0100
0010
0000
0001
0000
,
0010
0000
0000
0000
0110
0000
0000
0000
0001
0000
0000
0000
0001
1000
0001
1000
,
0001
0000
0000
0100
0000
0000
0010
0000
0000
0100
0000
0000
0010
0000
0000
0000
0000
0000
0001
0000
0000
1000
0000
0000
0100
0000
0000
0000
0000
0000
0010
0000
0100
0000
0010
0000
0100
0000
0000
0000
0000
0000
0100
0000
1000
0000
0100
0000
,
1000
0000
0010
0000
1001
0000
0000
0000
0001
1000
0100
1000
0100
0000
0000
0000
,
0001
1000
0001
0010
0100
0000
0000
0000
0100
0010
0001
0010
0001
0000
0000
0000
,
0100
0000
0001
1000
0001
1000
0000
0110
0000
0100
0010
0100
0001
1000
0000
1010
,
0000
1000
0010
0100
0010
0100
0000
1000
0010
0000
0001
0100
0001
1000
0000
1000
,
0010
0000
0010
0100
0010
0100
0000
0101
0000
0000
0001
0010
0100
0010
0000
1100
,
0000
1000
0001
1000
0001
0100
0000
0010
0000
0000
0010
1000
0010
1000
0000
1001
,
0000
0000
1000
0100
1000
0100
1000
0001
0010
0001
0000
0110
0000
1100
0000
1100
,
0000
0000
0100
0010
0100
0010
0100
0001
0100
0001
0000
1001
0000
0110
0000
1001
,
0000
0000
0000
0000
0000
0000
1000
0000
0000
0010
0000
0000
0001
0000
0000
0000
1000
0000
0000
0000
0001
0000
0000
0000
1000
0000
0000
0000
0001
0000
0000
0000
0010
0000
0000
0000
0100
0000
0000
0001
0000
0000
0100
0000
0000
0010
0000
0000
,
0100
0000
0000
0000
0000
0000
1000
0000
0000
0000
0000
0000
0001
0000
0000
0000
1000
0000
0000
0000
0010
0000
0000
0000
1000
0000
0000
0000
0010
0000
0000
0000
1000
0000
0000
0000
0100
0000
0000
0010
0000
0000
0100
0000
0000
0001
0000
0000
,
0100
0000
0010
0000
0010
0001
0100
0001
0010
0000
0100
0000
1000
0100
1000
0010
,
0000
0100
0000
0010
0000
0001
0100
0001
0010
0000
0100
0000
1000
0010
1000
0010
,
0100
0000
0100
0001
0010
0100
0000
1000
0000
0100
0000
0001
0100
0001
0000
0010
,
1000
0000
0010
0100
0010
1000
0010
1000
0010
1000
0010
1000
0010
1000
0001
0100
,
0001
1000
0001
0100
0010
1000
0010
0100
0010
0100
0010
0100
0001
0100
0001
1000
,
0100
1000
0001
1000
0100
1000
0100
1000
0100
0010
0100
0010
0100
1000
0010
1000
,
0010
1000
0010
1000
0010
1000
0010
0100
0001
0100
0001
0100
0001
0100
0001
0100
,
0001
1000
0100
1000
0100
1000
0100
1000
0100
1000
0100
0010
0002
0000
0000
0000
,
0000
0203
0000
2300
,
0000
0010
3002
0000
0000
0000
0203
0000
,
0000
0000
0000
0000
0000
0001
0320
0000
,
0000
0130
2000
0000
0000
0000
3220
0000
,
0000
0331
1000
0001
,
1000
0100
1000
0001
,
1000
0001
1000
0001
,
0010
0001
0010
0001
,
0001
1000
0010
0100
0010
0100
0000
1000
0000
0100
0001
0100
0001
0010
0000
1000
,
0000
0100
0000
0010
0000
1000
0100
1000
0100
1000
0000
0100
0000
0010
0001
0010
,
0100
0000
1000
0000
0100
0000
0001
0010
0001
1000
0000
0000
0100
0001
0000
0010
,
0100
0001
1000
0000
0100
0010
0000
0010
0100
0000
0001
0010
0000
0010
0001
0100
,
0010
0000
0001
0000
0001
0010
0001
1000
0010
0100
0000
0110
0000
1010
0000
0110
,
0000
0000
0100
0010
0001
0100
0010
0100
0010
0100
0000
1010
0000
0101
0000
1010
,
0000
0000
0000
0001
0000
0000
0001
0000
1000
0000
0010
0000
1000
0000
0010
0000
1000
0000
0001
0000
0100
0000
0001
0000
,
1000
0000
0000
0000
0100
0000
0000
0000
1000
0000
0000
0000
0100
0000
0000
1000
0000
0000
0001
0000
0000
0100
0000
0000
0001
0000
0000
0000
0000
0000
0100
0000
0000
1000
0000
0000
0010
0000
0000
0100
0000
0000
0010
0000
0000
0100
0000
0000
,
0001
0000
0010
0000
0100
0010
0001
0100
0010
0000
0100
1000
0010
0000
0001
0010
,
0100
0000
0001
0000
0100
1000
0001
1000
0010
0000
0100
0000
0001
0100
0010
1000
,
0010
0000
1000
0000
1100
0000
0001
0100
0001
0000
0010
0000
0100
1000
0001
0100
,
0001
0000
0100
0010
0100
1000
0010
1000
0010
0000
0100
0010
0001
0000
0100
0010
,
0001
0000
0010
0000
0001
1000
0001
0010
0001
0100
0001
1000
0001
1000
0100
1000
,
0100
1000
0100
1000
0010
1000
0010
0100
0010
0100
0010
1000
0010
1000
0010
1000
,
0010
0000
0110
0000
0000
0000
0001
1000
0001
1000
0001
1000
0100
1000
0100
1000
,
0100
1000
0100
1000
0010
1000
0010
1000
0010
1000
0010
0100
0010
0100
0010
0100
,
0010
0100
0022
0000
0000
0000
0000
0000
0000
0000
0000
0000
0000
0000
0000
0000
,
0000
0000
0000
0000
,
0033
0000
0000
0000
;
