#VERSION:0.83;
#TITLE:Pluto Escape;
#ARTIST:KVDO-X;
#GENRE:HARDCORE;
#CREDIT:B. M'Rey;
#MUSIC:Pluto Escape.ogg;
#BANNER:pluto escape.png;
#BACKGROUND:Pluto Escape-bg.png;
#CDTITLE:./CDTITLES/Dance Dance Revolution SPACE.PNG;
#SAMPLESTART:104.610;
#SAMPLELENGTH:15;
#OFFSET:-0.032;
#BPMS:=95,16=190,44=380,52=95,84=380,141=95,142=380,203=190,215=380,223=47.5,231=95,243=23.75,244=380,305=390,364=200,394.5=800,517=12.5;
#STOPS:112.938=0.460,170.938=0.460;

//--------------- dance-single - B. M'Rey ----------------
#NOTEDATA:;
#STEPSTYPE:dance-single;
#DESCRIPTION:B. M'Rey;
#DIFFICULTY:Beginner;
#METER:9;
#RADARVALUES:0,0,0,0,0;
#CREDIT:B. M'Rey;
#NOTES:
0000
0000
0000
0000
,
0000
0000
0000
0000
,
0000
0000
0000
0000
,
0000
0000
0000
0000
,
1000
0000
0010
0000
,
0100
0000
0010
0000
,
1000
0000
0001
0000
,
0010
0000
0001
0000
,
1000
0000
0010
0000
,
0100
0000
0010
0000
,
0001
0000
1000
0000
,
0001
0000
0000
0000
,
0000
0000
0000
0000
,
1000
0000
0000
0010
,
0100
0000
0000
0001
,
0010
0000
0000
1000
,
0010
0000
0000
0100
,
0010
0000
0000
0001
,
1000
0000
0000
0100
,
1000
0000
0000
0010
,
0001
0000
0000
0100
,
0010
0000
0000
0000
,
1000
0000
0000
0000
,
0010
0000
0010
0000
,
0001
0000
0000
0000
,
0010
0000
0000
0000
,
0100
0000
0000
0000
,
1000
0000
1000
0000
,
0010
0001
0000
0000
,
0000
0010
0000
0000
,
0000
1000
0000
1000
,
0000
0100
0000
0000
,
0000
0010
0000
0000
,
0000
1000
0000
0000
,
0000
0001
0000
0001
,
0000
0010
1000
0000
,
0000
0000
0010
0000
,
0000
0000
0100
0000
,
0100
0000
0010
0000
,
0000
0000
0001
0000
,
0000
0000
1000
0000
,
0000
0000
0010
0000
,
0010
0000
0001
1000
,
0000
0000
0000
0010
,
0000
0000
0000
0100
,
0000
0100
0000
0010
,
0000
0000
0000
0001
,
0000
0000
0000
1000
,
0000
0000
0000
0001
,
0000
0000
0000
0000
,
1000
0000
0000
0001
,
0000
0000
0100
0010
,
0000
0000
1000
0100
,
0000
0000
0001
0010
,
0000
0000
0000
0000
,
0000
0000
0000
0100
,
0000
0000
0000
0000
,
0000
0000
0000
0010
,
0001
0000
1000
0100
,
0000
0010
0100
0000
,
0001
0000
1000
0000
0000
0000
0001
1000
,
0001
0000
0000
0000
,
1000
0000
0000
0010
,
0000
0000
0000
0100
,
0000
0000
0000
0001
,
0000
0000
0000
0010
,
0000
0000
0000
0001
,
0000
0000
0000
1000
,
0000
0000
0000
0010
,
0000
0000
0000
0100
,
0000
0000
0000
0001
,
0000
0000
0000
0010
,
0000
0000
0000
0001
,
0000
0000
0000
0100
,
0000
0000
0000
0010
,
0000
0000
0000
1000
,
0000
0001
0000
0000
,
0000
1000
0000
0000
0000
0000
0000
0000
,
0000
0010
0000
0000
0000
0000
0000
0000
,
0100
0000
0000
0000
,
0010
0000
0000
0000
0000
0000
0000
1000
,
0000
0000
0000
0001
,
0000
0000
0000
0010
,
0000
0000
0000
0001
,
0000
0000
0100
0000
,
0000
0000
0010
0000
,
0000
0000
0000
1000
0000
0000
0000
0000
,
0000
0000
0000
0010
0000
0000
0000
0000
,
0000
0100
0000
0000
,
0000
0001
0000
0000
,
0000
1000
0000
0000
0000
0000
0000
0000
,
1001
0000
0001
0000
,
1000
0000
0000
0000
0100
0000
0000
0010
,
0000
0000
0000
1000
0000
0000
0000
0010
,
0000
0000
0000
0001
0000
0000
1000
0000
,
0000
0010
0000
0100
,
0000
0010
0000
1000
,
0000
0001
0000
1000
,
0000
0000
0001
0000
0000
0000
0000
1000
,
0000
0000
0000
0000
,
0000
0000
0000
0000
0000
0010
0000
0000
,
0000
0000
0000
0000
,
0000
0000
0100
0000
,
0000
0000
0000
0000
,
0000
0001
0000
0000
0000
0000
0000
0000
,
0000
0001
0000
0000
0000
0000
0000
0000
,
0000
1000
0000
0000
,
0000
0000
0000
0000
,
0000
0010
0000
0000
,
0000
0000
0000
0000
,
0000
0100
0000
0000
0000
0000
0000
0000
,
0000
0000
0000
0000
,
0001
0000
0000
0000
,
0001
0000
0000
0000
0000
0000
0000
1000
,
0000
0000
0000
0000
,
0000
0000
0000
0010
,
0000
0000
0000
0000
,
0000
0000
0000
0000
0000
0000
0000
0100
,
0000
0000
0000
0000
,
0000
0000
0000
0000
0000
1000
0000
0000
,
0000
0000
0000
0000
0000
1000
0000
0000
,
0000
0000
0010
0000
,
0000
0000
0000
0000
,
0000
0000
0001
0000
,
0000
0000
0000
0000
,
0000
0000
0000
0100
0000
0000
0000
0000
,
0000
0000
0000
0000
0000
0000
0000
0001
,
0000
0000
0000
0000
,
0000
0000
0000
0000
,
0000
2002
3003
0000
;

//--------------- dance-single - B. M'Rey ----------------
#NOTEDATA:;
#STEPSTYPE:dance-single;
#DESCRIPTION:B. M'Rey;
#DIFFICULTY:Easy;
#METER:13;
#RADARVALUES:0,0,0,0,0;
#CREDIT:B. M'Rey;
#NOTES:
0000
0000
0000
0000
,
0000
0000
0000
0000
,
0000
0000
0000
0000
,
0000
0000
0000
0000
,
1000
0001
1000
0001
,
1000
0010
0100
0010
,
0100
0010
1000
0100
,
1000
0100
1000
0001
,
0100
0001
0100
0001
,
1000
0100
1000
0010
,
1000
0010
0100
0010
,
0100
0001
0100
0001
,
0100
0010
1000
0010
,
0001
0000
0000
0100
,
1000
0000
0000
0010
,
0100
0000
0000
0001
,
1000
0000
0010
0100
,
0001
0000
0000
1000
,
0010
0000
0000
0100
,
0010
0000
0000
1000
,
0001
0000
0010
0100
,
0001
0000
1000
0000
,
0010
0000
0100
0000
,
1000
0000
0100
0010
,
0000
1000
0000
0000
,
0001
0000
0010
0000
,
0100
0000
0001
0010
,
0000
1000
0000
0000
,
1001
0010
0000
0100
,
0000
0010
0000
1000
,
0000
0010
0000
0100
,
0000
0001
0000
0010
,
0000
1000
0000
0100
,
0000
0010
0000
1000
,
0000
0001
0000
0100
,
0000
1001
0010
0000
,
0100
0000
0001
0000
,
0010
0000
1000
0000
,
0100
0000
1000
0000
,
0010
0000
0100
0000
,
0010
0000
0100
0000
,
0001
0000
0010
0000
,
1000
0000
1001
0010
,
0000
0100
0000
0010
,
0000
1000
0000
0100
,
0000
1000
0000
0010
,
0000
0100
0000
0001
,
0000
0010
0000
1000
,
0000
0100
0000
0001
,
0000
1000
0000
0010
,
0000
0100
0000
0001
,
0000
0000
0000
1000
,
0000
0000
0000
0010
,
0000
0000
0000
0100
,
0000
0010
0000
0100
,
0000
0010
0000
0002
,
0000
0000
0000
0000
,
0000
0000
0000
1000
,
1000
0000
0000
0100
,
0100
0000
0000
0010
,
0010
0000
0000
0000
0000
0000
0000
0000
0000
0000
0000
0000
0000
0000
0000
0000
0000
0000
0000
0000
0000
0000
0000
0000
0000
0000
0000
0000
0000
0000
0000
0000
0000
0000
0000
0000
0000
0000
0000
0000
0000
0000
0000
0000
0000
0000
0000
0000
2000
0000
0000
0000
0000
0000
0000
0000
0000
0000
0000
0000
0000
0000
0000
3003
,
0100
0000
0000
0000
,
0010
0000
0000
0000
0000
0000
0000
0000
0000
0000
0000
0000
0000
0000
0000
0100
,
0000
0000
0000
0000
0000
0000
0000
0010
,
0000
0000
0000
1000
,
0000
0000
0000
0000
0000
0000
0000
0000
0000
0000
0000
0000
0000
0001
0000
0000
,
0000
0000
0000
0000
0000
0000
0000
0000
0000
0000
0000
0010
0000
0000
0000
0000
,
0000
0000
0000
0000
0000
0001
0000
0000
,
0000
0000
0000
0000
0000
0100
0000
0000
,
0000
0000
0000
0000
0000
0000
0000
0000
0000
0010
0000
0000
0000
0000
0000
0000
,
0000
0000
1000
0000
,
0000
0000
0000
0000
0000
0000
0000
0010
0000
0000
0000
0000
0000
0000
0000
0000
,
0000
0000
0000
0100
0000
0000
0000
0000
,
0000
0000
0000
0000
0000
0010
0000
0000
0000
0000
0000
0000
0000
0000
0000
0000
,
0000
0000
0000
0000
0000
0001
0000
0000
0000
0000
0000
0000
0000
0000
0000
0000
,
0000
1000
0000
0000
,
0000
0001
0000
0000
,
0000
1000
0000
0000
0000
0000
0000
0000
,
0000
0010
0000
0000
0000
0000
0000
0000
0000
0000
0000
0000
0000
0000
0000
0000
,
0100
0000
0000
0000
0000
0000
0000
0000
0000
0000
0000
0000
0000
0000
0000
0010
,
0000
0000
0000
0000
0000
0000
0000
1000
,
0000
0000
0000
0100
,
0000
0000
0000
1000
,
0000
0000
0000
0000
0000
0000
0000
0000
0000
0000
0000
0010
0000
0000
0000
0000
,
0000
0000
0000
0000
0000
0100
0000
0000
,
0000
0000
0001
0000
,
0000
0000
0000
0000
0000
0000
0000
1000
0000
0000
0000
0000
0000
0000
0000
0000
,
0000
0000
0000
0000
0000
0100
0000
0000
0000
0000
0000
0000
0000
0000
0000
0000
,
0000
1000
0000
0000
,
0000
0000
0000
0010
0000
0000
0000
0000
0000
0000
0000
0000
0000
0000
0000
0000
,
0000
0100
0000
0000
0000
0000
0000
0000
,
0001
0000
1000
0000
,
0010
0000
0000
0000
0100
0000
0100
0000
0000
0000
0000
0000
0000
0010
0000
0010
,
0000
0000
0000
0001
0000
0000
0000
1000
,
0000
0000
0010
0010
0000
0000
0100
0100
,
0000
0000
0000
0001
0000
0000
0000
0010
,
0000
0100
0100
0000
0000
0010
0010
0000
,
0000
1000
0000
0000
0000
1001
1001
0000
,
0000
0110
0110
0000
0000
0001
0000
0000
,
0000
0000
0000
0000
,
0000
0000
0000
0000
0000
1000
0000
0000
,
0000
0000
0000
0000
,
0000
0000
0000
0010
0000
0000
0000
0000
,
0000
0000
0000
0000
,
0100
0000
0100
0000
,
0000
0000
0000
0000
0000
0000
0000
0010
,
0000
0000
0000
0010
0000
0000
0000
0000
,
0000
0000
0000
0000
,
0000
0001
0000
0000
0000
0000
0000
0000
,
0000
0000
0000
0000
,
0000
1000
0000
0000
0000
0000
0000
0000
,
0000
0000
0000
0001
,
0000
0001
0000
0000
0000
0000
0000
0000
,
0000
0000
0000
0000
0000
0010
0000
0000
,
0010
0000
0000
0000
,
0000
0000
0000
0000
0000
0000
0000
0100
,
0000
0000
0000
0000
,
0000
0000
0000
0000
0000
0000
0000
1000
,
0000
0000
0000
0000
,
0000
0000
0000
0010
0000
0000
0000
0010
,
0000
0000
0000
0000
,
0000
0100
0000
0100
,
0000
0000
0000
0000
,
0000
0000
0010
0000
,
0000
0000
0000
0000
,
0000
0000
0000
1001
0000
0000
0000
0000
,
0000
0000
0000
0000
0000
0000
0000
0010
,
0000
0000
0000
0100
0000
0000
0000
0000
,
0000
0000
0000
0000
,
0000
2002
3003
0000
;

//--------------- dance-single - B. M'Rey ----------------
#NOTEDATA:;
#STEPSTYPE:dance-single;
#DESCRIPTION:B. M'Rey;
#DIFFICULTY:Medium;
#METER:15;
#RADARVALUES:0,0,0,0,0;
#CREDIT:B. M'Rey;
#NOTES:
0000
0000
0000
0000
,
0000
0000
0000
0000
,
1000
1000
0001
0001
,
0010
0010
0100
0100
,
0001
0010
0001
0000
,
1000
0100
1000
0000
,
0010
0000
0100
0000
,
0001
0010
1000
0000
,
0001
1000
0001
1000
,
0010
0100
0001
0100
,
0010
1000
0001
1000
,
0001
1000
0001
1000
,
0001
1000
0001
1000
,
0001
0010
0100
1100
,
0101
0010
0100
0101
,
0110
1000
0001
0110
,
0101
0000
0000
0000
0010
0000
0000
0000
1000
0000
0000
0001
1000
0000
0000
0000
,
0110
0001
1000
0110
,
0101
0010
1000
1010
,
0110
0010
1000
0101
,
0110
0000
0000
0000
1000
0000
0000
0000
0001
0000
0000
0001
1000
0000
0000
0000
,
0010
0000
1000
0100
,
1000
0000
0010
0100
,
0010
0000
0001
0010
,
0001
0000
1000
0010
,
1000
0000
0010
0100
,
0010
0000
0001
0010
,
0001
1000
0010
0100
,
0010
1000
0000
0000
,
0010
0100
0000
0001
,
0010
0001
0000
1000
,
0100
1000
0000
0010
,
0100
0010
0000
0001
,
0010
0001
0000
1000
,
0100
0010
1000
0001
,
0100
0010
0001
1000
,
0001
1000
0010
0000
,
0100
0010
0100
0010
,
0100
0001
0010
0000
,
1000
0000
0100
0010
,
0100
0010
0100
0000
,
0001
0010
0100
0001
,
0100
0000
0000
0000
0000
0000
0000
0000
0000
0000
0000
0000
0000
0000
0000
0000
0010
0000
0000
0000
0000
0000
0000
0000
0000
0000
0000
0000
0000
0000
0000
0000
1000
0000
0000
0000
0000
0000
0000
0000
0000
0000
0000
0000
0000
0000
0000
0100
0010
0000
0000
0000
0000
0000
0000
0000
0000
0000
0000
0000
0000
0000
0000
0000
,
0001
0100
0010
0100
,
0000
0010
1000
0100
,
0010
1000
0001
0010
,
0000
0001
0010
0001
,
0100
0010
1000
0100
,
0000
0010
0100
0010
,
0100
0001
1000
0010
,
0000
0100
0000
0001
,
1000
0010
1001
0010
,
0100
0010
0101
0010
,
1000
0000
0010
0000
0100
0000
0001
1000
,
0001
1000
0001
1000
0001
1000
0001
1000
,
0001
1000
0001
1000
0001
1000
0001
0000
,
0000
0000
1000
0000
0000
0000
0100
1000
,
0000
0100
1000
0100
0000
0010
0100
0000
,
0001
0000
0010
0000
0001
1000
0010
0000
,
0100
0000
0010
0000
1000
0100
0001
0000
,
0010
0000
0100
0000
0001
0010
1001
0000
,
0010
0000
0001
0000
,
1000
0000
0000
0000
0000
0000
0000
0000
0010
0000
0000
0000
0000
0000
0000
1000
,
0000
0000
0000
0000
0000
0000
0000
0010
0000
0000
0000
0000
0000
0000
0100
0000
,
0000
0000
0000
0000
0000
0000
0001
0000
0000
0000
0000
0000
0000
0010
0000
0000
,
0000
0000
0000
0000
1000
0000
0000
0000
0000
0000
0000
0100
0000
0000
0000
0000
,
0000
0000
0000
1000
0000
0000
0000
0000
0000
0000
0000
0010
0000
0000
0000
0000
,
0000
0000
0000
0100
0000
0000
0000
0000
0000
0000
0010
0000
0000
0000
0000
0000
,
0000
0001
0000
0000
0000
0010
0000
0000
,
0000
0000
1000
0000
0000
0000
0000
0000
0000
0100
0000
0000
0000
0000
0000
0000
,
0010
0000
1000
0000
,
0100
0000
0000
0000
0000
0000
0000
0010
0000
0000
0000
0000
0000
0000
0000
1000
,
0000
0000
0000
0000
0000
0000
0000
0010
0000
0000
0000
0000
0000
0000
0100
0000
,
0000
0000
0000
0001
0000
0000
0000
0010
,
0000
0000
0000
0000
0000
0001
0000
0000
0000
0000
0000
0000
0000
1000
0000
0000
,
0000
0010
0000
0100
,
0000
0000
0000
0000
0001
0000
0000
0000
0000
0000
0000
1000
0000
0000
0000
0000
,
0000
0010
0000
0000
0000
0100
0000
0000
,
0000
1000
0000
0000
0000
0000
0000
0000
0010
0000
0000
0000
0000
0000
0000
0000
,
0100
0000
0000
0000
0000
0000
0000
0001
0000
0000
0000
0000
0000
0000
0010
0000
,
0000
0000
0000
0000
0000
1000
0000
0000
0000
0000
0000
0000
0000
0100
0000
0000
,
0000
1000
0000
0010
,
0000
0000
0100
0000
0000
0010
0000
0000
,
0000
0000
0001
0000
0000
0000
0000
0000
0000
0010
0000
0000
0000
0000
0000
0000
,
0000
1000
0000
0000
0000
0000
0000
0000
0000
0100
0000
0000
0000
0000
0000
0000
,
0000
1000
0000
0000
0000
0000
0000
0000
0010
0000
0000
0000
0000
0000
0000
0000
,
0100
0000
0000
0000
0000
0000
0000
0010
0000
0000
0000
0000
0000
0000
1000
0000
,
0000
0000
0000
0000
0000
0001
0000
0000
0000
0000
0000
0000
0000
0010
0000
0000
,
0000
0000
0000
0000
0000
0100
0000
0000
0000
0000
0000
0010
0000
0000
0000
0000
,
0000
0000
0001
0000
0000
1000
0000
0000
,
0000
0001
0000
0000
0000
1000
0000
0000
,
0000
0001
0000
0000
0000
0000
0000
0000
0000
1000
0000
0000
0000
0000
0000
0000
,
0010
0000
0000
0000
0000
0000
0000
0001
0100
0000
0000
0000
0000
0000
0010
1000
,
0000
0000
0000
0000
0000
0000
0000
0010
0000
0000
0000
0000
0000
0000
0100
0000
,
0000
0000
0000
0000
0000
0001
0100
0000
0000
0000
0000
0000
0000
0001
1000
0000
,
0000
0000
0000
0000
0000
0010
0000
0000
0000
0000
0000
0000
0000
0100
0000
0000
,
0000
0000
0000
0000
1000
0010
0000
0000
0000
0000
0000
1000
0001
0000
0000
0000
,
0000
0000
0010
0000
0000
0000
0100
0010
,
0000
0000
0000
0001
0000
1000
0000
0000
0000
0000
0000
0000
0000
0000
0001
0000
,
0000
0000
0000
1000
,
0000
0000
0000
0010
,
0000
0000
0000
0100
,
0000
0000
0000
1000
,
0000
0000
0000
0000
0000
0100
0000
0000
,
0000
0000
0010
0000
0000
0000
0000
0000
0000
0100
0000
0000
0000
0000
0000
0000
,
0000
0000
0000
0000
0000
0000
0000
0001
0000
0000
0000
0000
0000
0000
0010
0000
,
0000
0000
0000
0000
0000
0001
0000
0000
0000
0000
0000
0000
0000
0000
0000
0000
,
0000
1000
0000
0000
,
0000
0000
0000
0100
0000
0000
0000
0000
0000
0000
0000
0000
0000
0000
0000
0000
,
0000
0010
0000
0000
0000
0000
0000
0000
,
0000
1000
0000
0000
0000
0000
0000
0000
0000
0000
0000
0000
0000
0000
0000
0000
,
0000
0010
0000
0000
0000
0000
0000
0000
0000
1000
0000
0000
0000
0000
0000
0000
,
0000
0010
0000
0000
0000
0000
0000
0000
0000
0000
0000
0000
0000
0000
0000
0000
,
0000
0100
0000
0000
0000
0000
0000
0000
0001
0000
0000
0000
0000
0000
0000
0000
,
0100
0000
0000
0000
,
0010
0000
0000
0000
0000
0000
0000
0000
0000
0000
0000
0000
0000
0000
0000
1000
,
0000
0000
0000
0000
0000
0000
0000
0000
0000
0000
0000
0000
0000
0100
0000
0000
,
0000
0000
0000
0000
0000
0000
0000
0000
0000
0000
0000
0010
0000
0000
0000
0000
,
0000
0000
0000
0000
0000
0000
0000
0000
0000
0000
0000
1000
0000
0000
0000
0000
,
0000
0000
0000
0000
0000
0000
0001
0000
0000
0000
0000
0000
0000
1000
0000
0000
,
0000
0000
0000
0000
0000
0000
0000
0000
0000
0000
0000
0000
0000
0010
0000
0000
,
0000
0000
0000
0000
0000
0100
0000
0000
0000
0000
0000
0000
0001
0000
0000
0000
,
0000
0000
0000
0000
0000
0000
0000
0000
0000
0000
0000
0010
0000
0000
0000
0000
,
0000
0000
0000
0000
0000
0000
0000
0000
0000
0000
0000
1000
0000
0000
0000
0000
,
0000
0000
0000
0000
0000
0000
0000
0000
0000
0010
0000
0000
0000
0000
0000
0000
,
0000
0000
0000
0000
0000
1000
0000
0000
,
0000
0001
0000
0000
0000
1000
0000
0000
,
0000
0100
0000
0000
0000
0010
0000
0000
,
0000
1000
0000
0000
0000
0001
0000
0000
,
0000
2002
3003
0000
;

//--------------- dance-single - B. M'Rey ----------------
#NOTEDATA:;
#STEPSTYPE:dance-single;
#DESCRIPTION:B. M'Rey;
#DIFFICULTY:Hard;
#METER:17;
#RADARVALUES:0,0,0,0,0;
#CREDIT:B. M'Rey;
#NOTES:
0000
0000
0000
0000
,
0000
0000
0000
0000
,
0100
1000
0100
1000
,
0010
0100
0010
1000
,
0100
0010
0001
1000
0100
0000
0100
0010
,
0000
1000
0100
0000
0110
0000
1001
0000
,
0100
1000
0010
0100
0010
0000
0001
0100
,
0000
1000
0100
0000
0011
0000
1100
0000
,
0001
0010
0100
0010
0100
0010
0001
0100
,
0010
1000
0001
0100
0010
1000
0001
1000
,
0100
0010
0100
0010
0001
0010
0100
0001
,
1000
0001
1000
0001
1000
0100
0010
0100
,
1000
0100
1000
0001
1000
0010
0100
0010
,
0001
0010
0001
0010
,
0001
1000
0100
1000
,
0100
1000
0010
0100
,
0010
0100
0001
0100
,
0001
1000
0100
1000
,
0100
1000
0010
0100
,
0001
0100
0001
0100
,
0010
1000
0010
1000
,
0010
1000
0001
0100
,
0001
0100
0001
1000
,
0100
1000
0100
1000
,
0001
0100
0001
0100
,
0010
0100
0010
1000
,
0010
1000
0001
1000
,
0001
0010
0001
0010
,
0110
0110
0100
1000
,
0001
1000
0010
0100
,
0010
0100
0010
1000
,
0100
1000
0100
1000
,
0001
0010
0001
1000
,
0100
0010
0001
0010
,
0001
0010
0100
1000
,
0001
1001
0100
1000
,
0010
0100
0010
0100
,
0010
1000
0001
1000
,
0001
1000
0010
0100
,
0010
0100
0010
1000
,
0100
1000
0001
0010
,
0001
0010
0001
1000
,
0010
0000
0000
0000
0000
0000
0000
0000
0000
0000
0000
0000
0000
0000
0000
0000
1000
0000
0000
0000
0000
0000
0000
0000
0000
0000
0000
0000
0000
0000
0000
0000
0010
0000
0000
0000
0000
0000
0000
0000
0000
0000
0000
0000
0000
0000
0000
1100
0001
0000
0000
0000
0000
0000
0000
0000
0000
0000
0000
0000
0000
0000
0000
0000
,
0100
0010
0001
0010
,
0001
1000
0010
1000
,
0100
1000
0010
0100
,
0010
1000
0010
1000
,
0001
1000
0001
0010
,
0001
0100
0010
0100
,
0001
0100
0010
1000
,
0010
0100
0010
0100
,
0001
0000
1000
0000
0001
0000
1000
0000
0001
1000
0001
1000
0001
0000
0100
0000
,
0010
0000
0100
0000
0001
1000
0001
0000
0010
1000
0010
0000
0001
0100
0001
0000
,
0010
0000
1000
0000
0010
0100
0010
0100
0010
0000
0100
0010
0001
0000
0010
0000
,
1000
0001
1000
0001
1000
0100
0010
0100
,
0010
0100
0001
1000
0001
1000
0002
0000
,
0000
0000
0000
0203
,
0000
0000
0000
0310
,
0100
0000
0001
0000
0010
0001
0100
0000
,
0010
0000
1000
0000
0010
0100
0001
0000
,
0010
0000
0001
0000
1000
0001
0220
0302
,
0133
0000
1000
0000
0001
1000
0001
1000
,
0001
0010
0100
1000
,
0100
0000
1000
0000
0100
1000
0100
1000
,
0001
0100
0010
1000
,
0100
0000
0010
0000
0100
0010
0100
0010
,
0100
1000
0001
1000
,
0001
0000
1000
0000
0010
0100
0010
0100
,
0010
0100
0010
1000
,
0001
1000
0100
1000
,
0100
0000
0010
0000
0100
0010
0100
0010
,
0100
0010
0001
1000
,
0001
0000
0100
0000
0010
0100
0010
0100
,
0010
1000
0010
0100
,
0001
0000
0100
0000
0010
0100
0010
0100
,
0010
1000
0001
1000
,
0100
0000
1000
0100
1000
0100
0010
0000
,
0100
0000
0010
0100
0001
0010
0100
0000
,
0010
0000
0100
1000
0010
1000
0100
0000
,
0001
0000
0010
0100
0001
0010
1000
0000
,
0010
0000
1000
0001
0010
0100
1000
0000
,
0100
0000
0010
0001
0100
1000
0010
0000
,
0100
0000
1000
0100
0001
0010
1000
0000
,
0100
0000
1000
0001
0100
1000
0010
0000
,
0100
0000
0010
1000
0001
0010
0100
0000
,
0010
0000
0100
1000
0010
0001
0100
0000
,
0001
0000
1000
0010
0001
0100
1000
0000
,
0001
0000
0010
1000
0100
0001
0010
0000
,
0100
0000
0010
1000
0001
0010
0100
0000
,
0001
0100
0001
1000
,
0010
0100
0000
0000
,
0101
0000
0010
0100
0010
0000
0001
1000
,
0010
0000
0000
0000
0010
1000
0100
0001
0000
0000
0000
0000
1000
0010
0100
0001
,
0000
0100
1000
0010
0000
0010
0100
0010
,
0000
0000
0010
0000
1000
0001
0010
0100
0000
0000
0010
0000
0100
0010
0001
1000
,
0000
0001
0100
0001
0000
1000
0001
1000
,
0000
0000
0010
0000
0100
0001
1000
0010
0000
0000
0010
0000
0100
1000
0010
0100
,
0000
0010
0001
0100
0000
0100
0010
0100
,
0000
1010
1010
0000
0010
0000
0000
1000
,
0000
0000
0000
0001
0000
0000
0000
0100
,
0000
0000
0000
0010
0000
0000
0000
1000
,
0000
0000
0000
0001
0000
0000
0000
0010
,
0000
0000
0000
0001
0000
0000
0000
0100
,
0000
0000
0000
0010
0000
1000
0000
0001
,
0000
1000
0000
0010
0000
0000
0000
1000
,
0000
0000
0000
0001
0000
0010
0000
0100
,
0000
0010
0000
1000
0000
0000
0000
0010
,
0000
0000
0000
0100
0000
0000
0000
0001
,
0000
0000
0000
0010
0000
0000
0000
0001
,
0000
0000
0000
0100
0000
0000
0000
0010
,
0000
0000
0000
1000
0000
0000
0000
0001
,
0000
0000
0000
1000
0000
0010
0000
0001
,
0000
0010
0000
0001
0000
1000
0000
0000
,
0000
0010
0000
0000
0000
0001
0000
1000
,
0000
0100
0000
1000
0000
0010
0000
0000
,
0000
0100
0000
0000
0000
0001
0000
0000
,
0000
0010
0000
0000
0000
0001
0000
0000
,
0000
1000
0000
0000
0000
0010
0000
0000
,
0000
0100
0000
0000
0000
0010
0000
0000
,
0000
1000
0000
0000
0000
0001
0000
0010
,
0000
0100
0000
0010
0000
1000
0000
0000
,
0000
0010
0000
0000
0000
0100
0000
0001
,
0000
0010
0000
0001
0000
0010
0000
0000
,
0000
1000
0000
0000
0000
0001
0000
0000
,
0000
0010
0000
0000
0000
0001
0000
0000
,
0000
0100
0000
0000
0000
0010
0000
0000
,
0000
1000
0000
0000
0000
0010
0000
0000
,
0000
0000
1001
0000
0000
0000
0000
0000
0000
0000
0000
1001
0000
0000
0000
0000
,
0000
0000
0000
1000
0000
0001
0000
1000
,
0000
0000
0002
0000
0000
0003
0000
0000
;

//--------------- dance-single - B. M'Rey ----------------
#NOTEDATA:;
#STEPSTYPE:dance-single;
#DESCRIPTION:B. M'Rey;
#DIFFICULTY:Challenge;
#METER:18;
#RADARVALUES:0,0,0,0,0;
#CREDIT:B. M'Rey;
#NOTES:
0000
0000
0000
0000
,
0000
0000
0000
0000
,
0100
0001
0100
0010
0100
0000
1000
0010
0000
0001
0100
0000
1000
0001
0100
0010
,
0100
0001
0010
0100
0010
0000
0010
0001
0000
0001
1000
0000
1000
0000
0100
0000
,
0100
0001
1000
0010
1001
0000
0100
1001
,
0000
0100
0011
0000
0010
0100
0010
0100
,
1000
0001
1000
0010
1001
0000
0100
1001
,
0000
0001
1010
0000
0100
0010
0100
0001
,
0010
0100
0010
0100
1100
0000
1000
1001
,
0000
0001
0110
0000
0100
0010
0100
0001
,
1000
0100
1000
0001
1010
0000
0010
0100
,
1000
0001
1000
0001
1000
0001
1000
0001
,
1000
0001
1000
0001
1000
0001
1000
0001
,
1000
0000
0001
0000
1000
0000
0100
0010
,
1000
0000
0100
0000
0010
0000
0100
0001
,
1000
0000
0001
0000
0010
0000
0001
0010
,
0100
0000
0000
0000
0001
0000
0000
0000
0100
0000
0001
0001
0010
0000
0000
0000
,
1000
0000
0100
0000
1000
0000
0001
0010
,
0100
0000
0010
0000
0100
0000
0010
1000
,
0100
0000
0001
0000
0010
0000
0100
0010
,
1000
0000
0000
0000
0010
0000
0000
0000
1000
0000
0010
0010
0002
0000
0000
0000
,
1003
0100
1000
0100
,
0010
0100
0010
0001
,
0010
0100
1000
0010
,
1000
0010
1000
0100
,
0010
0100
1000
0100
,
1000
0001
1000
0001
,
0010
0100
0010
0100
,
1000
0000
0000
0000
0000
0000
0000
0000
0000
0000
0000
0000
0000
0000
0000
1100
0001
0000
0000
0000
0000
0000
0000
0000
0000
0000
0000
0000
0000
0000
0000
0000
1000
0000
0000
0000
0000
0000
0000
0000
0000
0000
0000
0000
0000
0000
0000
0000
0001
0000
0000
0000
0000
0000
0000
0000
0000
0000
0000
0000
0000
0000
0000
0000
,
0010
0100
1000
0100
,
0010
0001
0010
0001
,
0100
0001
1000
0100
,
1000
0100
0010
0100
,
0010
0001
1000
0001
,
0100
0001
0100
0010
,
0100
0002
0013
0001
,
0010
0001
1000
0100
,
0010
0001
1000
0100
,
0010
0100
1000
0010
,
1000
0010
1000
0100
,
0010
0100
0010
0001
,
0100
0001
0100
0010
,
0100
0000
0000
0000
0000
0000
0000
0000
0000
0000
0000
0000
0000
0000
0000
0000
0001
0000
0000
0000
0000
0000
0000
0000
0000
0000
0000
0000
0000
0000
0000
0000
0010
0000
0000
0000
0000
0000
0000
0000
0000
0000
0000
0000
0000
0000
0000
0110
0100
0000
0000
0000
0000
0000
0000
0000
0000
0000
0000
0000
0000
0000
0000
0000
,
0010
0100
0010
0001
,
1000
0001
0010
0100
,
1000
0001
0010
0100
,
1000
0010
1000
0010
,
0100
0010
0100
0001
,
0100
0001
0010
0100
,
1000
0001
0100
0001
0100
0001
1000
0010
,
0100
0010
1000
0010
1000
0001
1000
0001
,
0010
0000
0100
0000
1000
0000
0001
0010
0001
0000
0000
0000
0010
0000
0001
0000
,
0100
0010
0100
0000
1000
0100
1000
0000
0010
0000
0000
0000
1000
0000
0100
0000
,
0001
0010
0001
0000
1000
0000
0010
0100
0010
0000
0001
0000
1000
0000
0100
0000
,
1000
0100
0010
0100
1000
0010
1000
0010
,
1000
0100
0010
0100
0010
0100
0002
0000
,
0000
0000
0000
0000
0000
0000
0000
0000
1000
0000
0000
0003
1000
0000
0000
0000
1000
0000
0000
0000
0010
0000
0000
0000
0100
0010
0000
0000
0001
0000
0000
0000
,
1000
0100
0000
0000
0010
0000
0001
0000
0010
0100
0000
0000
1000
0000
0000
0000
0100
0010
0000
0000
0001
0000
0010
0000
1001
0000
0000
0000
0000
0000
0000
0000
,
0010
0000
0100
0000
0001
0010
1000
0000
,
0010
0000
0100
0000
0001
0010
1000
0000
,
0100
0000
0010
0000
1000
0100
2002
3020
,
1033
0010
1000
0001
,
0010
0001
0010
0001
,
1000
0100
1000
0100
,
1000
0001
0100
0001
,
1000
0010
1000
0010
,
1000
0001
0100
0001
,
0100
0001
0010
0100
,
0010
0100
0010
0001
,
1000
0001
1000
0010
,
1000
0010
0100
0010
,
1000
0100
1000
0010
,
1000
0010
0100
0010
,
0100
0001
0100
0001
,
1000
0001
0010
0100
,
0010
0100
0010
0001
,
0010
0000
1000
0100
1000
0100
0001
0000
,
0010
0100
0010
0100
1000
0000
0100
0000
,
0001
0010
0001
0010
1000
0000
0001
0000
,
0100
0010
0100
0010
0100
0000
0001
0000
,
1000
0100
1000
0100
1000
0000
0010
0100
,
0010
0100
0010
0000
1000
0000
0010
0001
,
0010
0001
0010
0000
1000
0010
0100
0010
,
0100
0000
0001
0000
1000
0100
1000
0100
,
0010
0000
1000
0010
0100
0010
0100
0000
,
0010
0000
0001
0010
0001
0010
1000
0000
,
0010
0100
1000
0100
1000
0000
0001
0000
,
0010
0100
0010
0100
1000
0000
0100
0000
,
0001
0010
0001
0010
0100
0000
0010
0000
,
1000
0001
1000
0010
1000
0010
0100
0010
,
0100
0001
0100
0001
0010
0001
0000
0000
,
1000
0000
0100
0001
1000
0001
0010
0001
,
0100
0000
0000
0000
1000
0100
1000
0100
1000
0000
0100
0000
0000
0010
0001
0010
,
0001
0010
1000
0000
0001
0000
1000
0000
0001
0000
1000
0000
0010
0000
0100
0000
,
0001
0000
1000
0010
0100
0010
0001
0000
0010
0000
0000
0100
1000
0100
1000
0000
,
0010
1000
0010
1000
0100
0010
0100
0001
,
0010
0000
0010
0001
0010
0001
0010
0001
1000
0000
0100
0010
0100
0010
0100
0010
,
0000
0000
0100
0000
1000
0000
0001
0000
1000
0000
0001
0000
0010
0100
0010
0100
,
0010
0000
1001
0000
1001
0000
0001
1000
0001
0000
1000
0000
0000
0000
0010
0000
,
0000
0100
0000
0010
0000
0100
0000
0001
,
0000
0010
0000
0001
0000
0010
0000
0001
,
0000
1000
0000
0010
0000
1000
0000
0010
,
0000
0100
0000
0010
0000
0100
0000
0001
,
0000
0100
0000
0010
0000
1000
0000
0100
,
0000
0010
0000
0100
0000
0010
0000
0100
,
0000
1000
0000
0010
0000
1000
0000
0010
,
0000
1000
0000
0001
0000
0100
0000
0001
,
0000
0100
0000
0001
0000
1000
0000
0100
,
0000
1000
0000
0001
0000
1000
0000
0001
,
0000
0100
0000
0010
0000
0100
0000
0001
,
0000
0100
0000
0001
0000
0010
0000
0001
,
0000
0010
0000
0100
0000
0010
0000
0001
,
0000
1000
0000
0001
0000
1000
0000
0001
,
0000
0100
0000
0010
0000
0100
0000
0010
,
0000
0100
0000
0001
0000
1000
0000
0010
,
0000
1000
0000
0100
0000
1000
0000
0001
,
0000
0010
0000
0001
0000
0010
0000
0001
,
0000
1000
0000
0100
0000
1000
0000
0001
,
0000
1000
0000
0001
0000
0100
0000
0001
,
0000
0100
0000
0010
0000
0100
0000
0010
,
0000
1000
0000
0010
0000
0100
0000
0001
,
0000
0100
0000
0001
0000
0100
0000
0010
,
0000
1000
0000
0010
0000
1000
0000
0010
,
0000
0100
0000
0001
0000
0100
0000
0001
,
0000
0100
0000
0010
0000
1000
0000
0010
,
0000
1000
0000
0010
0000
0100
0000
0001
,
0000
0100
0000
0001
0000
0100
0000
0010
,
0000
1000
0000
0001
0000
1000
0000
0010
,
0000
1000
0000
0010
0000
0100
0000
0010
,
0000
2002
3003
0000
;
