#VERSION:0.83;
#TITLE:PUPA;
#ARTIST:モリモリあつし;
#ARTISTTRANSLIT:Morimori Atsushi;
#GENRE:HARD RENAISSANCE;
#CREDIT:B. M'Rey;
#MUSIC:PUPA.ogg;
#BANNER:PUPA-BN.png;
#BACKGROUND:PUPA-bg.png;
#CDTITLE:./CDTITLES/SOUND VOLTEX IV HEAVENLY HAVEN.PNG;
#SAMPLESTART:78.457;
#SAMPLELENGTH:15;
#OFFSET:-0.016;
#BPMS:0=202.020;
#BGCHANGES:-0.200=PUPA.mpg=1.000=0=0=0=StretchNoLoop====;

//--------------- dance-single - B. M'Rey ----------------
#NOTEDATA:;
#STEPSTYPE:dance-single;
#DESCRIPTION:B. M'Rey;
#DIFFICULTY:Beginner;
#METER:5;
#RADARVALUES:0,0,0,0,0;
#CREDIT:B. M'Rey;
#NOTES:
0000
0000
0000
0000
,
0000
0000
0000
0000
,
0011
0000
0000
0011
,
0000
0000
0000
0000
,
1100
0000
0000
1100
,
0000
0000
0000
0000
,
0110
0000
0000
0110
,
0000
0000
0000
0000
,
1001
0000
0000
1001
,
0000
0000
0000
0000
,
0001
0000
0000
0000
,
1000
0000
0000
0000
,
0010
0000
0000
0000
,
0100
0000
0010
0000
,
0001
0000
0000
0000
,
1000
0000
0000
0000
,
0010
0000
0000
0000
,
0100
0000
0000
0000
,
0001
0000
1000
0000
,
0010
0000
0100
0000
,
1000
0000
0010
0000
,
0100
0000
0001
0000
,
0010
0000
0000
0000
,
0001
0000
0000
0000
,
1000
0000
0000
0000
,
0100
0000
0000
0000
,
1000
0000
0010
0000
,
0100
0000
0001
0000
,
0010
0000
0001
0000
,
1000
0000
0010
0000
,
0100
0000
0000
0000
,
0001
0000
0000
0000
,
1000
0000
0000
0000
,
0010
0000
0000
0000
,
0100
0000
0000
0000
,
0001
0000
0000
0000
,
1000
0000
0000
0000
,
0010
0000
0000
0000
,
0100
0000
0000
0000
,
0001
0000
0000
0000
,
1000
0000
0000
0000
,
0010
0000
0000
0000
,
0001
0000
1000
0000
,
0010
0000
0100
0000
,
0001
0000
0010
0000
,
0001
0000
1000
0000
,
0010
0000
0100
0000
,
0010
0000
0001
0000
,
1000
0000
0010
0000
,
0100
0000
0000
0000
,
0001
0000
0000
0000
,
0010
0000
0000
0000
,
0001
0000
0000
0000
,
1000
0000
0000
0000
,
0010
0000
0000
0000
,
0100
0000
0000
0000
,
0001
0000
0000
0000
,
1000
0000
0000
0000
,
0101
0000
0000
0000
,
1010
0000
0000
0000
,
0110
0000
0000
0000
,
0101
0000
0000
0000
,
0110
0000
0000
0000
,
0101
0000
0000
0000
,
1010
0000
0000
0000
,
0010
0000
0000
0000
,
0001
0000
1000
0000
,
0010
0000
0100
0000
,
0010
0000
1000
0000
,
0001
0000
0010
0000
,
0001
0000
0100
0000
,
0010
0000
1000
0000
,
0100
0000
1000
0000
,
0010
0000
0100
1001
,
0010
0000
0100
0000
,
0010
0000
0001
0000
,
0010
0000
0001
0000
,
1000
0000
0010
0000
,
0100
0000
0000
0000
,
0001
0000
0000
0000
,
1000
0000
0010
0000
,
0100
0000
0001
0000
,
0010
0000
0000
0000
,
0001
0000
0000
0000
,
1000
0000
0000
0000
,
0000
0000
0000
0000
,
0010
0000
0000
0000
,
0100
0000
0000
0000
,
0001
0000
0000
0000
,
0000
0000
0000
0000
,
0010
0000
0100
0000
,
0001
0000
0010
0000
,
0001
0000
1000
0000
,
0010
0000
0000
0000
,
0100
0000
0010
0000
,
0001
0000
1000
0000
,
0010
0000
0100
0000
,
0001
0000
0000
0000
,
1001
0000
0000
1001
,
0000
0000
0000
0000
,
0101
0000
0000
0101
,
0000
0000
0000
0000
,
1010
0000
0000
1010
,
0000
0000
0000
0000
,
0110
0000
0000
0110
;

//--------------- dance-single - B. M'Rey ----------------
#NOTEDATA:;
#STEPSTYPE:dance-single;
#DESCRIPTION:B. M'Rey;
#DIFFICULTY:Easy;
#METER:8;
#RADARVALUES:0,0,0,0,0;
#CREDIT:B. M'Rey;
#NOTES:
0000
0000
0000
0000
,
0000
0000
0000
2000
,
3010
0000
0000
0100
0000
0000
0001
0000
,
0000
0000
0000
0002
,
0013
0000
0000
0100
0000
0000
0010
0000
,
0000
0000
0000
2000
,
3001
0000
0000
0100
0000
0000
0010
0000
,
0000
0000
0000
0002
,
1003
0000
0000
0010
0000
0000
0200
0000
,
0000
0000
0000
0310
,
0001
0000
1000
0000
,
0010
0000
0100
0000
,
0001
0010
0100
0000
,
1000
0100
0010
0000
,
0001
0000
1000
0000
,
0010
0000
0100
0000
,
0001
0000
0010
0000
1000
0000
0000
2002
,
0000
0000
0000
0000
0000
3003
0000
0000
,
0010
0100
0001
0010
,
0001
1000
0100
1000
,
0100
0010
0100
0001
,
0010
1000
0100
1000
,
0010
0000
0100
0000
,
0001
1000
0100
0000
,
0010
0000
0100
0000
,
0001
0010
0100
0000
,
1000
0001
0010
0100
,
0001
0010
1000
0100
,
1000
0010
0001
0010
,
0100
0010
0001
0010
,
1000
0000
0001
0000
,
0010
0001
0100
0000
,
0010
0000
1000
0000
,
0002
0000
0000
0000
,
0103
0000
1000
0000
,
0010
0000
0000
0000
,
0001
0000
0100
0000
,
0010
0000
0000
0000
0100
0100
0000
0000
,
0001
0000
1000
0000
,
0010
0000
0100
0000
,
0001
0000
1000
0000
,
0010
0000
0000
0000
1000
1000
0000
0000
,
0001
1000
0010
0100
,
0001
0010
0001
1000
,
0010
0100
1000
0100
,
0010
0000
0001
0000
,
0010
0100
1000
0100
,
1000
0010
0100
0001
,
0010
0000
1000
0000
,
0020
0000
0000
0000
,
0031
0000
0000
0000
,
0100
0000
0000
0000
,
0010
0000
0000
0000
,
1000
0000
0000
0000
,
0001
0000
0000
0000
,
0010
0000
0000
0000
,
0001
0000
0000
0000
,
0100
0000
0000
0000
,
0010
0000
0001
0000
,
1000
0000
0100
0000
,
1000
0000
0010
0000
,
0100
1000
0100
0000
,
0001
0000
0010
0000
,
0001
0000
0100
0000
,
0010
0000
0001
0000
,
1001
1001
1001
0000
,
0001
1000
0010
0100
,
1000
0100
0010
1000
,
0001
0010
0001
0010
,
0100
0010
2000
0000
,
3001
0010
0100
0001
,
0010
0001
1000
0100
,
1000
0000
0010
0000
,
0100
0001
0010
1001
,
0010
0100
0010
0001
,
0010
1000
0100
1000
,
0010
0100
0010
0001
,
1000
0010
0002
0000
,
0103
0010
1000
0100
,
1000
0010
0100
0000
,
0001
0010
1000
0100
,
0010
0000
1000
0000
,
0001
0000
0000
0010
0000
0000
0001
0000
,
0000
0010
0000
0000
0100
0000
0001
0000
,
0001
0000
0000
1000
0000
0000
0100
0000
,
0000
0010
0000
0000
0100
0000
0010
0000
,
0001
0000
0000
1000
0000
0000
0100
0000
,
0000
0010
0000
0000
1000
0000
0001
0000
,
0010
0000
0000
0100
0000
0000
1000
0000
,
0000
0001
0000
0000
1000
0000
0100
0000
,
0010
0100
0001
0010
,
1000
0100
1000
0010
,
0100
0001
0010
1000
,
0100
0010
1000
0000
,
0001
0010
0100
0001
,
0010
1000
0100
1000
,
0010
0001
0100
1000
,
0002
0000
0000
0000
,
1003
0000
0000
1000
0000
0000
0010
0000
,
0000
0000
0000
0002
,
1003
0000
0000
0010
0000
0000
0100
0000
,
0000
0000
0000
0002
,
1003
0000
0000
0010
0000
0000
0100
0000
,
0000
0000
0000
0002
,
0013
0000
0000
1000
0000
0000
1001
0000
;

//--------------- dance-single - B. M'Rey ----------------
#NOTEDATA:;
#STEPSTYPE:dance-single;
#DESCRIPTION:B. M'Rey;
#DIFFICULTY:Medium;
#METER:12;
#RADARVALUES:0,0,0,0,0;
#CREDIT:B. M'Rey;
#NOTES:
0000
0000
0000
0000
,
0000
0000
0000
2000
,
3001
0000
0000
0100
0000
0000
0010
0000
,
0000
0000
0000
0002
,
1003
0000
0000
0010
0000
0000
0100
0000
,
0000
0000
0000
2000
,
3010
0000
0000
0100
0000
0000
0001
0000
,
0000
0000
0000
0002
,
1003
0000
0000
0010
0000
0000
0100
0000
,
0000
0010
0000
0010
0000
0000
0000
0000
,
0001
0010
0001
0000
,
1000
0100
1000
0000
,
0010
0100
0001
0010
,
1000
0000
0001
0000
,
0010
0100
0001
1000
,
0010
0100
1000
0000
,
0010
0000
0100
0000
0001
0000
0001
2000
,
0000
0000
0000
3000
,
0001
0010
0001
0000
0010
0100
0010
0000
,
0010
1000
0001
0000
0010
0100
0001
0000
,
0001
0010
0100
0000
0100
1000
0001
0000
,
0001
0010
0001
0000
0100
0010
0100
0000
,
0100
0000
0010
1000
0000
0010
0000
0010
,
0002
0010
0010
0010
,
0013
0000
0010
0100
0000
1000
0000
0010
,
0200
0001
0001
0001
,
0301
0100
0010
0000
0001
1000
0001
0000
,
0001
1000
0100
0000
0001
1000
0100
0000
,
0001
0100
0010
0000
0010
0100
0001
0000
,
0001
0010
0100
0000
0001
1000
0001
0000
,
0010
0000
0001
0100
0000
1000
0000
0010
,
0002
0100
0100
0100
,
0103
0000
1000
0010
0000
0001
0000
0010
,
2000
0010
0010
0010
,
3010
0000
0001
0000
,
0010
0001
0100
0000
,
0010
0000
1000
0000
,
0001
0010
0100
0000
,
0001
0000
0010
0000
,
1000
0100
0010
0000
,
0001
0000
0010
0000
,
0001
1000
0010
0000
,
0001
0000
0000
0100
0000
0000
1000
0000
0010
0000
0000
0001
0000
0000
1000
0000
,
0010
0000
0000
0100
0000
0000
1000
0000
0010
0000
0000
0100
0000
0000
0010
0000
,
0001
0000
0000
0100
0000
0000
1000
0000
0010
0000
0000
0100
0000
0000
1000
0000
,
0010
0000
0000
1000
0000
0000
0100
0000
0010
0000
0000
0100
0000
0000
1000
0000
,
0001
0000
0000
0010
0000
0000
0100
0000
0001
0000
0000
1000
0000
0000
0100
0000
,
0001
0000
0000
0100
0000
0000
0010
0000
1000
0000
0000
0001
0000
0000
0100
0000
,
0001
0100
0001
0010
0001
0010
0100
0010
,
0002
0000
0000
0000
,
0013
0000
1000
0000
,
0010
0000
0100
0000
,
0001
0000
0010
0000
,
0001
0100
1000
0000
,
0010
0000
0100
0000
,
0001
0010
1000
0000
,
0100
0000
0010
0000
,
1000
0001
0010
0000
,
1001
0000
0101
0000
,
0110
1001
1010
0000
,
0110
0000
0101
0000
,
0110
1010
0110
0000
,
0101
0000
0110
0000
,
0101
0000
0000
0000
1010
0000
0000
0000
0100
0010
0000
0000
0000
0000
0000
0000
,
0001
0010
1000
0100
,
0000
1001
1001
1001
,
0100
0000
0000
0010
0000
0000
1000
0000
0010
0000
0000
1000
0000
0000
0100
0000
,
0010
0000
0000
1000
0000
0000
0010
0000
0100
0000
0000
0010
0000
0000
1000
0000
,
0010
0000
0000
0100
0000
0000
0010
0000
0001
0000
0000
0100
0000
0000
0010
0000
,
0100
0000
0000
0010
0000
0000
1000
0000
0001
0000
0010
0000
0100
0000
0010
0000
,
0100
0000
0000
1000
0000
0000
0010
0000
0100
0000
0000
0010
0000
0000
0100
0000
,
0001
0000
0000
1000
0000
0000
0100
0000
0001
0000
0000
1000
0000
0000
0010
0000
,
0100
0000
0100
1000
0001
0000
0001
0100
,
0001
0000
0000
0100
0000
0000
1000
0000
0010
0000
0000
0000
1001
0000
0000
0000
,
0100
0000
0000
0000
0010
0000
1000
0000
0100
0000
0000
0010
0000
0000
0100
0000
,
0001
0000
0000
0010
0000
0000
0100
0000
0010
0000
0000
1000
0000
0000
0010
0000
,
0001
0000
0000
0000
0100
0000
1000
0000
0001
0000
0000
0100
0000
0000
0010
0000
,
0001
0000
0000
0100
0000
0000
0010
0000
0100
0000
0000
0010
0000
0000
1000
0000
,
0100
0010
0001
0100
,
0010
1000
0020
0000
,
0031
0100
0010
1000
0100
0010
0001
0010
,
0001
0000
0000
1000
0000
0000
0010
0000
0100
0000
0000
0000
0110
0000
0000
0000
,
0001
0000
0000
1000
0000
0000
0010
0000
,
0000
0100
0000
0000
0001
0000
0010
0000
,
1001
0000
0000
0101
0000
0000
0110
0000
,
0000
1010
0000
0000
0101
0000
1010
0000
,
0010
0000
0000
0100
0000
0000
0001
0000
,
0000
0010
0000
0000
1000
0000
0100
0000
,
0101
0000
0000
1010
0000
0000
0110
0000
,
0000
0101
1010
0110
,
0001
1000
0100
0000
0001
0100
0001
0000
,
0010
0100
0001
0000
0001
0100
0001
0000
,
0100
0010
0001
0000
0010
1000
0010
0000
,
2000
0000
0000
0000
,
3001
0010
0100
1000
0010
0000
0100
0000
,
0001
1000
0001
0100
0001
0000
0100
0000
,
0100
0010
0001
1000
0010
0000
0001
0000
,
0100
0001
0010
2000
,
3001
0000
0000
0100
0000
0000
0010
0000
,
0000
0000
0000
0002
,
1003
0000
0000
0010
0000
0000
0100
0000
,
0000
0000
0000
2000
,
3010
0000
0000
0100
0000
0000
0001
0000
,
0000
0000
0000
0002
,
1003
0000
0000
0010
0000
0000
0100
0000
;

//--------------- dance-single - B. M'Rey ----------------
#NOTEDATA:;
#STEPSTYPE:dance-single;
#DESCRIPTION:B. M'Rey;
#DIFFICULTY:Hard;
#METER:17;
#RADARVALUES:0,0,0,0,0;
#CREDIT:B. M'Rey;
#NOTES:
0000
0000
0000
0000
,
0000
0000
0000
0000
0000
0000
0010
1000
,
0100
0000
0000
0101
0000
0000
0110
0000
,
0000
0000
0000
0000
0000
0000
0010
1000
,
0001
0000
0000
1100
0000
0000
0110
0000
,
0000
0000
0000
0000
0000
0000
0001
1000
,
0100
0000
0000
0101
0000
0000
0110
0000
,
0000
0000
0000
0000
0000
0000
0001
0010
,
0100
0000
0000
1010
0000
0000
0200
0000
,
0000
1300
0010
0100
0001
0010
1100
0000
,
0010
1000
0010
0100
0000
1000
0000
0100
,
0010
0100
0001
0010
0000
1000
0000
0100
,
0001
0100
0010
1000
0000
0001
0010
1000
,
0010
0001
0000
0010
0100
0010
0001
1000
,
0100
0010
0001
1000
0010
1000
0010
1000
,
0100
0010
0100
1000
0001
0100
0010
0100
,
0020
0000
0000
0000
0000
0000
0031
0020
,
0000
0000
0000
0000
0000
0000
0130
0000
0000
0000
0000
0000
0010
0000
0000
0000
0000
0000
1000
0000
0000
0001
0000
0000
1000
0000
0000
0000
0010
0000
0000
0000
0100
0000
0000
0000
0010
0000
0000
0000
0100
0000
0000
0000
0010
0000
0000
0000
,
0001
0100
0001
0010
0100
1000
0100
1000
,
0010
0100
0010
1000
0010
0100
0001
0010
,
0100
1000
0010
0100
0010
0100
0010
1000
,
0100
1000
0010
0100
0010
1000
0001
0010
,
0001
0000
0010
0100
0000
1001
0000
1000
,
0100
0010
0100
0010
0100
1000
0010
1000
,
0100
0000
0001
1000
0000
0110
0000
0100
,
0010
0000
1000
0000
0001
0000
1000
0000
0010
0100
0010
0000
0001
0000
1000
0000
,
0001
1000
0100
0010
0001
0010
0100
1000
,
0001
1000
0100
1000
0001
0100
0001
1000
,
0010
1000
0001
0100
0010
1000
0100
0010
,
0100
0000
1000
0000
0010
0000
1000
0000
0001
0010
0001
0000
0100
0000
1000
0000
,
0100
0000
0010
1000
0000
0011
0000
0100
,
0001
0100
0010
0100
0001
1000
0100
1000
,
0110
0000
0101
0101
0000
1010
0000
0100
,
0010
0100
0001
1000
0100
1000
0100
0010
,
0001
0100
0001
0010
0100
1000
0010
1000
,
0100
1000
0100
0010
0001
0000
0000
0000
,
0100
0010
0100
0010
0001
0010
0100
1000
,
0100
1000
0001
0010
1001
1010
0000
0000
,
0010
1000
0001
0100
0001
1000
0100
0010
,
0001
0100
0001
0100
0020
0000
0000
0000
,
0031
0010
0001
0100
0010
0100
0010
1000
,
0100
1000
0100
0010
0011
0011
0000
0000
,
0001
1000
0010
1000
0010
0100
0001
0010
,
0001
0010
0001
0100
0010
0100
0001
0100
,
0001
1000
0100
0010
0001
1000
0100
1000
,
0100
1000
0010
0100
0010
1000
0001
0010
,
0100
0010
0001
0010
0100
1000
0100
1000
,
0100
0010
0001
0100
0001
1000
0010
1000
,
0100
0010
0100
0010
0001
1000
0010
0100
0010
0100
0001
0100
0001
1000
0010
0000
,
0000
0000
0010
0000
0100
0000
1000
0000
0010
0100
0010
0000
0001
0000
0000
0000
,
0001
0000
0000
0100
0000
0000
1000
0000
0010
0000
0000
0001
0000
0000
1000
0000
,
0010
0000
0000
0100
0000
0000
1000
0000
0200
0000
0000
0000
0000
0000
0301
0010
,
0001
0000
0000
0100
0000
0000
1000
0000
0010
0000
0000
0100
0000
0000
1000
0000
,
0010
0000
0000
1000
0000
0000
0100
0000
0020
0000
0000
0000
0000
0000
1030
0000
,
0001
0000
0000
0010
0000
0000
0100
0000
0001
0000
0000
1000
0000
0000
0100
0000
,
0001
0000
0000
0100
0000
0000
0010
0000
2000
0000
0000
0000
0000
0000
3100
0001
,
0100
0000
0000
0000
0001
0000
0010
0000
0001
0000
0000
0100
0000
0000
0010
0000
,
0002
0000
0000
0000
,
0013
0000
0000
0000
1000
0000
0010
0000
1000
0000
0000
0010
0000
0000
0100
0000
,
0001
0000
0000
0010
0000
0000
0001
0000
2000
0000
0000
0000
0000
0000
0000
3100
,
0010
0000
0000
0000
0100
0000
0010
0000
1000
0000
0000
0010
0000
0000
0100
0000
,
0001
0000
0000
0010
0000
0000
0001
0000
0020
0000
0000
0000
0000
0000
0030
1000
,
0010
0000
0000
1000
0000
0000
0010
0000
1000
0000
0000
0010
0000
0000
0100
0010
,
0001
0000
0000
0010
0000
0000
1000
0000
0010
0000
0000
0000
0100
1000
0010
0000
,
0001
0000
1000
0000
0001
0000
0100
0000
0001
0000
1000
0000
0100
0000
0010
0001
,
0010
0000
0000
0000
1010
0000
0000
0000
0000
1100
0000
0000
0110
0000
0000
0000
,
0100
0000
1000
0000
0001
0100
0010
0000
0100
0000
0010
0000
0001
1000
0010
0000
,
0100
0000
1000
0000
0001
0100
0010
0000
0100
0000
1000
0000
0100
0000
0010
0000
,
0100
0001
0010
0000
0001
0000
1000
0000
0010
0100
1000
0000
0100
0000
1000
0000
,
0010
0001
0100
0000
0010
0000
0100
0000
0001
0000
0010
0000
0100
0000
1000
0000
,
0010
0000
0100
0000
0001
1000
0100
0000
0010
0000
0100
0000
0001
0100
1000
0000
,
0010
0100
0010
0100
0010
1000
0001
1000
,
0010
1000
0001
0010
0100
1000
0010
1000
,
0100
0000
0000
0001
0000
0000
0100
0000
0001
0000
0000
0000
1100
0000
0000
0000
,
0001
0000
0100
0000
0001
1000
0010
0000
0001
0000
0010
0000
0100
0001
1000
0000
,
0100
0000
0010
0000
0001
1000
0010
0000
0001
0000
0010
0000
0100
0001
1000
0000
,
0010
0000
0100
0000
0001
0000
0100
0000
0010
1000
0100
0000
0010
0000
1000
0000
,
0010
1000
0100
0010
0100
1000
0010
1000
,
0001
1000
0001
1000
0001
0010
0100
1000
0001
1000
0001
1000
,
0010
0100
0010
1000
0001
0100
0002
0000
0000
0000
0000
0000
,
0013
1000
0001
0100
0010
0100
0010
0100
0001
1000
0010
1000
0010
1000
0001
0100
,
0001
0000
0000
0100
0000
0000
1000
0000
0001
0000
0000
0000
1001
0000
0000
0000
,
0100
1000
0010
1000
0001
0100
0010
0100
,
0001
0010
0001
0010
0100
1000
0010
1000
,
0001
1000
0001
0010
,
0001
0010
0100
0010
,
0100
1000
0001
1000
0100
0010
0100
1000
,
0010
0100
0001
0100
0010
0100
0010
1000
,
0100
1000
0100
0010
,
0001
0100
0001
0000
0100
0000
0000
0000
0001
0000
0000
0000
0100
0000
0000
0000
,
0010
1000
0100
0010
0001
0010
0100
1000
,
0100
1000
0001
0100
0010
1000
0010
0100
,
0010
0100
0001
1000
0001
1000
0001
0010
,
0100
1000
0010
0100
0010
1000
0100
0010
0001
0100
0010
0100
,
0010
0100
0001
0100
0010
1000
0100
1000
,
0001
0010
0100
1000
0001
0010
0001
0100
,
0001
0010
0001
0100
0001
0010
0100
1000
0100
0010
0100
0000
0001
0000
0100
0000
,
0020
0100
0100
0100
,
0130
0000
0000
0101
0000
0000
0110
0000
,
0000
0000
0000
0000
0000
0000
0010
1000
,
0001
0000
0000
1100
0000
0000
0110
0000
,
0000
0000
0000
0000
0000
0000
0001
1000
,
0100
0000
0000
0101
0000
0000
0110
0000
,
0000
0000
0000
0000
0000
0000
0001
0010
,
0100
0000
0000
1010
0000
0000
0110
0000
;
