#VERSION:0.83;
#TITLE:POLꞰAMAИIA;
#ARTIST:かめりあ feat. ななひら;
#TITLETRANSLIT:POLKAMANIA;
#ARTISTTRANSLIT:Camellia feat. Nanahira;
#GENRE:POLKA2020;
#CREDIT:B. M'Rey;
#MUSIC:POLKAMANIA.ogg;
#BANNER:POLKAMANIA-bn.png;
#BACKGROUND:POLKAMANIA-bg.png;
#CDTITLE:./CDTITLES/beatmania IIDX 28 Bistrover.PNG;
#SAMPLESTART:52.925;
#SAMPLELENGTH:15;
#OFFSET:-0.050;
#BPMS:0=160;
#BGCHANGES:-0.800=POLKAMANIA.avi=1.000=1=0=1===CrossFade==;

//--------------- dance-single - B. M'Rey ----------------
#NOTEDATA:;
#STEPSTYPE:dance-single;
#DESCRIPTION:B. M'Rey;
#DIFFICULTY:Beginner;
#METER:8;
#CREDIT:B. M'Rey;
#RADARVALUES:0,0,0,0,0;
#NOTES:
0000
0000
0000
0000
,
0000
0000
0000
0000
,
0000
0000
0000
0000
,
0000
1000
0000
0100
,
0000
1000
0000
1000
,
0000
0100
0000
0010
,
0000
0001
0000
1000
,
0010
1000
0000
0010
,
0000
1000
0000
0100
,
0000
0100
0000
0001
,
0000
1000
0100
1000
,
0001
0001
0100
0010
,
1000
0000
0000
0000
0001
0000
1000
0100
,
0010
0000
0100
0010
,
0001
0000
0000
0010
0001
0100
0001
0010
,
0001
0010
0100
1000
,
0010
0000
0100
0000
0010
0000
0100
1000
,
0010
1000
0001
1000
,
0010
0000
1000
0100
0010
0001
0100
0000
,
1000
0001
0000
1000
,
0000
0001
0000
1000
,
0000
0010
0000
1000
,
0000
0100
1000
0010
,
0010
0100
0000
0010
,
0000
1000
0000
0001
,
0000
0010
0000
0001
,
0000
0100
0010
1000
,
0001
0000
1100
0000
,
0101
0000
1100
0000
,
0101
0000
1010
0000
,
0011
0000
1000
0101
,
0101
0001
1010
0000
,
0011
0000
1100
0000
,
0101
0000
0001
0000
0100
0000
0010
0100
,
0010
0100
0010
0000
0000
0000
0000
0000
,
1000
0001
0001
1000
,
0001
0010
0001
0100
,
0010
1000
0100
0001
,
0100
0000
1000
0000
1000
0000
0001
1000
,
0010
1000
1000
0010
,
1000
0001
0010
0001
,
0100
0110
0100
0110
,
0010
0110
0010
0100
,
0001
0100
0000
0100
,
0000
0100
0000
0000
,
0000
1001
0000
0110
,
0000
1001
0000
0110
,
0000
0001
0000
0001
,
0000
0001
0000
0001
,
0000
1001
0000
0010
,
0000
0000
1001
0000
0000
0000
0000
0100
,
0000
0000
0000
0001
,
0100
0010
1000
0000
,
0001
0000
1000
0100
0010
0000
0000
0000
,
0100
0000
0010
0000
0001
0000
0000
1000
,
0010
1000
0010
0100
0001
0000
0100
0000
,
0001
0010
0010
0100
,
1000
0000
0100
0010
0100
0000
0010
0000
,
0001
0000
1000
0000
1000
0000
0000
0001
,
0010
0100
0010
0001
1000
0000
1001
0000
,
0000
0000
0000
0000
,
0000
0000
0000
0100
,
0001
0100
0001
0100
,
0010
1000
0010
1000
,
0001
1000
0010
0100
,
0010
0100
0010
1000
,
0001
1000
0100
0010
,
0100
0010
0100
1000
,
0001
0010
0001
0010
,
0001
0100
0011
1001
,
0001
0000
0001
0000
,
1000
0000
1000
0000
,
0010
0000
0010
0100
,
0010
1000
1000
0001
,
0010
0000
0010
0000
,
0100
0000
0100
1000
,
0000
0100
0000
0010
,
0001
1000
1001
0000
;

//--------------- dance-single - B. M'Rey ----------------
#NOTEDATA:;
#STEPSTYPE:dance-single;
#DESCRIPTION:B. M'Rey;
#DIFFICULTY:Easy;
#METER:13;
#CREDIT:B. M'Rey;
#RADARVALUES:0,0,0,0,0;
#NOTES:
0000
0000
0000
0000
,
0000
0000
0000
0000
,
0000
0000
0000
0000
,
0000
0100
0001
0100
,
0001
0100
0010
1000
,
0010
1000
0100
1000
,
0001
0000
0100
0000
0010
0000
0100
0010
,
0010
1000
0100
1000
,
0100
0010
0100
0010
,
0001
0100
0001
1000
,
0010
0000
0000
0000
1001
0000
0000
0000
0110
0000
0000
0000
1001
0000
0000
0001
,
0000
1000
0001
0100
0100
0000
1000
1000
,
0100
0100
0000
0010
0100
0010
0001
0010
,
0001
0000
0010
0001
0001
0000
0001
0001
,
0100
0100
0000
1000
0010
1000
0001
1000
,
0001
0000
0001
0100
0010
0100
0010
1000
,
0010
1000
0001
1000
0001
0010
0001
0010
,
0100
0010
0100
1000
0010
1000
0010
1000
,
0001
0100
0001
1000
0100
1000
0100
0010
,
1001
1001
0001
0100
,
0001
0100
0001
0010
,
0100
1000
0100
0010
,
0100
0010
0001
0110
,
0110
1000
0100
1000
,
0100
0010
0001
0010
,
0001
0010
0100
1000
,
0100
0010
0100
1000
,
0001
0000
0000
0000
1000
1000
0001
0001
,
1000
1000
0000
0100
0010
0100
1000
0001
,
1000
0001
0000
0100
0100
1000
1000
0100
,
0100
0010
0000
0010
0100
0010
1001
0000
,
1001
0000
1000
0001
0001
0100
0100
1000
,
1000
0010
0000
0010
1000
0001
0010
0100
,
1000
0010
1000
1000
0001
0001
0100
0100
,
0010
0010
0001
0000
0000
0000
0000
0100
,
0010
0100
0010
0001
1000
0010
1000
0100
,
1000
0010
0100
0010
0100
0001
0010
0001
,
0010
0001
0100
0010
1000
0100
0010
0100
,
1000
0010
0100
0001
1000
0010
1000
0100
,
0010
0000
1000
0010
0100
0001
0100
0010
,
0100
0001
0010
0100
1000
0001
0100
0010
,
1000
0010
1000
0001
0100
0001
0010
0100
,
0010
0100
0010
0001
0100
0001
0100
0001
,
0100
1001
1000
1001
,
0100
0110
1000
1001
,
1000
0000
0100
0000
0100
0100
0001
0000
,
0001
0100
0010
0000
0010
1000
0010
0000
,
1000
1001
1000
0110
,
0010
1100
1000
1001
,
0010
0000
0000
0000
1000
0000
0010
0000
1000
0000
0100
0000
1000
0000
0000
0010
,
0000
0000
0000
0000
0000
0000
0100
0000
0010
0000
0000
0100
0000
0000
1010
0000
,
0000
0000
0000
0000
0001
0000
0100
1000
,
1000
0000
1000
1000
0001
1000
0000
0100
,
0010
0100
1000
0001
0100
0000
0000
0010
,
0010
0000
0010
0010
0100
0010
0000
0100
,
0100
0100
0010
1000
0001
0000
1000
0010
,
1000
0010
1000
0001
0010
0001
1000
0001
,
1000
0010
1000
0010
0100
0001
1000
0001
,
1000
0001
0100
0010
1000
0010
1000
0010
,
0100
0001
0100
1000
0011
0000
0110
0000
,
0001
1000
0010
0100
,
0001
0010
1000
0101
,
0011
0110
1001
0011
,
0101
0000
0000
0000
0110
0000
0000
0010
0000
0000
0001
0000
0101
0000
0100
0000
,
0110
0000
1001
0000
1010
0000
0001
0100
,
0010
1000
1100
0000
1100
0000
1010
0000
,
0110
0000
0000
0000
0110
0000
0000
0000
1100
0000
0000
0000
0110
0000
0000
0100
,
0000
0000
1000
0000
1010
0000
0000
0010
0000
0000
0100
0000
0110
0000
0000
0000
,
0101
0110
1010
0101
,
0000
0010
0100
1001
,
1100
0000
0110
0000
,
0011
0000
0000
0000
0110
0000
0010
0001
,
1001
0000
0000
0000
1100
0000
0000
0100
,
0010
0100
0011
0000
0110
0000
0000
0000
,
0110
0000
0110
0000
,
1010
0000
0110
0000
,
1000
0000
0010
0000
1000
0000
0010
0100
,
0010
1000
0100
1000
0100
0000
0000
0000
;

//--------------- dance-single - B. M'Rey ----------------
#NOTEDATA:;
#STEPSTYPE:dance-single;
#DESCRIPTION:B. M'Rey;
#DIFFICULTY:Medium;
#METER:15;
#CREDIT:B. M'Rey;
#RADARVALUES:0,0,0,0,0;
#NOTES:
0000
0000
0000
0000
,
0000
0000
0000
0000
,
0000
0000
0000
0000
0000
0000
0000
0001
,
0010
0001
1000
0001
0100
0010
1000
0010
,
0100
0010
0000
0001
0100
0010
0000
0010
,
1000
0001
0000
0010
1000
0100
1000
0010
,
0100
0001
0000
0100
0010
0001
1000
0100
,
1000
0000
1000
0100
0010
0001
1000
0001
,
0010
0100
0000
0100
0010
0001
1000
0001
,
1000
0100
1000
0001
0010
0100
0010
0100
,
1000
0001
1010
0000
1100
0000
0011
0000
,
0011
0000
0001
1000
0001
0000
0001
0010
,
0100
0010
0000
0010
0001
1000
0001
1000
,
0001
0000
0100
0010
0100
0000
0001
1000
,
0001
1000
0000
1000
0100
0010
0100
1000
,
0001
0000
0010
0100
0010
0100
0010
1000
,
0100
1000
0001
1000
0001
0010
0001
0010
,
0100
0000
0010
0000
0010
1000
0010
1000
0001
1000
0010
0100
0010
0100
0010
1000
,
0001
1000
0001
1000
0001
0000
0010
0000
0100
0000
0010
0000
0001
0000
1000
0000
,
0001
0000
0001
1000
0001
1000
0100
0010
,
0100
0010
0100
1000
0001
1000
0001
0100
,
0001
1000
0100
1000
0100
1000
0001
0100
,
0001
0010
0001
0010
0100
0010
1100
0000
,
1100
0000
0001
1000
0010
0100
0010
0100
,
0001
0000
0100
0000
0001
0000
0010
0000
0001
0000
0010
0000
0100
0000
0000
0100
,
0000
1000
0100
0010
0001
0010
0001
0010
,
0100
1000
0100
1000
0100
0010
0001
0010
,
0001
0010
0001
0000
0001
1000
0100
0000
,
0001
0010
0001
0000
0100
1000
0010
0100
,
0010
1000
0100
0000
0100
0010
0001
0000
,
0001
0000
0000
0010
0000
0000
0100
0000
0000
0010
0000
0000
0001
0000
0000
0010
0000
0000
0010
0000
0100
0000
0001
0000
,
0100
0000
0001
0000
0100
0000
0001
0000
0000
0010
0000
0000
0100
0000
0000
0000
0000
0000
0010
0000
0000
1000
0000
0000
,
0100
0000
0010
0100
0001
0000
0001
0100
,
0010
0000
0001
0100
0010
1000
0010
1000
,
0100
0000
1000
0000
0100
0000
0010
0000
0100
0000
0000
0010
0000
0000
1000
0000
,
0010
0100
0001
1000
0001
1000
0010
0100
,
0001
0000
0010
0000
0000
0000
0100
0000
0010
0001
0000
0100
0000
0000
0010
0000
,
1000
0100
0000
0010
0000
0000
0100
0000
0010
0000
0001
0000
0100
0000
0001
0000
,
1000
0100
0000
1000
0010
0100
0001
0010
,
1001
0000
1000
0001
1000
0001
0100
0001
,
0010
0000
0100
0000
0000
0000
0010
0000
0001
0100
0000
0010
0000
0000
0100
0000
,
0010
1000
0000
0100
0000
0000
0010
0000
0100
1000
0000
0010
0100
0000
0010
0000
,
0100
0001
0000
1000
0001
0000
0010
0000
0100
0000
1000
0000
0100
0000
0010
0000
,
0100
1001
1001
0000
0010
0000
1001
0000
,
0010
1001
0010
1001
,
0010
0000
1001
0000
0100
0001
0010
0000
,
0100
0000
1000
0000
0001
0000
0000
0000
1000
0000
0010
0000
0100
0010
0000
1000
,
0100
1000
1001
0000
0010
0000
1001
0000
,
0010
1001
0010
1001
,
0010
0000
0000
0000
1000
0000
0010
0000
1000
0000
0100
0000
1000
0000
0001
0010
,
0000
0000
0000
0000
0000
0000
0100
0000
0010
0000
0001
0100
0000
0000
1010
0000
,
0000
0000
0000
0000
0000
0000
0000
0000
0010
0000
0000
0000
1010
0000
0000
0110
,
0000
0000
0101
0000
0000
0011
0000
0000
1100
0000
0000
0000
1010
0000
0000
0110
,
0000
0000
0011
0000
0000
0101
0000
0000
0011
0000
0000
0000
0011
0000
0000
0110
,
0000
0000
1010
0000
0000
0011
0000
0000
0011
0000
0000
0000
0101
0000
0000
1010
,
0000
0000
1100
0000
0000
0110
0000
0000
0101
0000
0000
0000
0001
0000
1000
0000
,
0001
0100
0001
0100
0010
0100
0010
1000
,
0010
0000
1000
0000
0001
0000
0010
0000
0001
0000
0010
0000
0001
1000
0001
1000
,
0001
0100
0010
0100
0010
0100
0001
0010
0001
0010
0001
1000
0001
0000
0010
0000
,
0001
0100
0010
1000
0010
0000
1000
0000
,
0100
0001
0010
0100
,
1000
0000
0000
0000
0100
0000
0000
0000
0001
0000
1000
0001
0010
0000
0100
0000
,
0001
0000
1000
0000
0010
0000
1000
0000
0010
0000
1000
0100
0001
0000
0010
0000
,
0100
0000
0010
0000
0001
0000
1000
0001
0010
0000
0100
0000
0010
1000
0100
0000
,
0010
1000
0100
0010
0100
0010
0001
0100
,
0001
0010
0001
0100
0010
1000
0001
1000
,
0001
0000
0010
0000
0100
0000
1000
0000
0001
0000
0100
0001
0010
0000
1000
0000
,
0001
0000
0010
0000
0100
0000
0010
0000
0001
0000
0010
0000
0001
1000
0000
0100
,
0010
0000
1000
0000
0010
1000
0000
0001
0100
0000
0010
0000
0001
0000
0010
0000
,
0100
0010
0100
1000
0001
0010
1000
0000
,
0101
0000
0010
0100
1010
0000
0100
1000
,
0110
0000
0001
1000
1010
0000
0010
0100
,
0010
1000
0100
1000
0100
1000
0001
0100
,
0010
1000
0001
0010
0001
1000
0010
0100
,
1010
0000
0010
0100
0011
0000
0100
1000
,
0011
0000
0001
0010
0001
0100
0010
1000
,
0100
1000
0001
0100
0010
0001
0100
1000
,
0100
0010
0100
1000
0100
0000
0000
0000
;

//--------------- dance-single - B. M'Rey ----------------
#NOTEDATA:;
#STEPSTYPE:dance-single;
#DESCRIPTION:B. M'Rey;
#DIFFICULTY:Hard;
#METER:17;
#CREDIT:B. M'Rey;
#RADARVALUES:0.873787,1.048456,0.377157,0.008199,0.758414,746,700,46,1,0,1,0.873787,1.048456,0.377157,0.008199,0.758414,746,700,46,1,0,1;
#NOTES:
0000
0000
0000
0000
,
0000
0000
0000
0000
,
0000
0000
0000
0000
0000
0000
0000
1000
,
0100
1000
0010
1000
0010
0100
0010
0100
,
0001
0000
0100
0000
0010
0000
1000
0010
0001
0000
0010
0100
0000
0000
0010
0000
,
0001
0010
0100
0000
0001
0000
0100
0000
0010
0000
0100
0000
0010
0000
1000
0000
,
0100
0010
0000
0100
0010
0100
0001
0110
,
0110
0000
0100
0010
0100
1000
0010
1000
,
0100
0000
1000
0000
0100
0000
0010
1000
0100
0000
1000
0010
0001
0000
0100
0000
,
0001
1000
0010
0000
0001
0000
1000
0000
0010
0000
0100
0000
0010
0000
0100
0000
,
0001
1000
1001
0000
0110
0000
0110
0000
,
1001
0000
0100
1000
0010
1000
0001
0100
,
0010
0100
0001
0100
0010
1000
0001
0010
,
0001
0010
0001
1000
0100
1000
0100
1000
,
0010
0100
0010
0110
0110
1001
1001
0101
,
1010
0000
0001
0100
0010
0100
0010
1000
,
0100
0000
0010
1000
0001
0000
0100
0000
0010
0000
0100
0000
0010
0000
0100
0000
,
0001
0000
0010
0000
0001
0010
0001
0010
0001
0100
0010
0100
0010
0100
0001
1000
,
0001
1000
0001
0010
0100
0010
0001
0000
1000
0000
0010
0000
0100
0000
0000
0000
,
0100
0000
0000
0000
0001
0010
0100
0000
0100
0010
0001
0000
0001
1000
0001
0000
,
0100
1000
0100
0010
0100
0010
0001
0000
0001
1000
0001
0000
0100
0010
0000
0001
,
0000
0000
0001
0000
1000
0010
0100
0000
0100
0010
0001
0000
0001
1000
0001
0100
,
0010
0100
0010
0000
0001
0010
0001
0000
0001
0000
0010
0000
0110
0000
0000
0000
,
0110
0000
0000
0000
0010
0100
0001
0000
0001
1000
0001
0000
0100
1000
0001
0000
,
0001
0010
0001
0000
0010
1000
0010
1000
0010
0100
0001
0000
0001
0010
0000
1000
,
0010
0000
0010
1000
0001
1000
0010
0000
0001
1000
0100
0000
0100
1000
0001
0100
,
0001
0100
0001
1000
0010
0000
0100
0000
0100
0000
0100
0000
0001
0000
0001
1000
,
0001
1000
0100
1000
0100
0000
1000
0000
0001
1000
0100
1000
0100
0000
0001
0000
,
0001
0010
0001
1000
0100
0000
0100
0000
0010
0100
0001
0100
0001
0100
0010
1000
,
0010
0100
0010
0100
0001
0000
0001
0000
0001
0010
0100
0010
0100
0000
0100
0000
,
0001
0000
0000
1000
0000
0000
0001
0000
0000
0010
0000
0000
0001
0000
0000
0000
0000
0000
0010
0000
0000
0000
0000
0000
0001
0000
0000
0000
0000
0000
0010
0000
0000
0000
0000
0000
0001
0000
0000
0000
1000
0000
0000
0000
0010
0000
0000
0000
,
1000
0000
0000
0000
0010
0000
0000
0000
1000
0000
0000
0000
0001
0000
0000
1000
0000
0000
0100
0000
0000
1000
0000
0000
0001
0000
0000
0000
0000
0000
0010
0000
0000
0000
0000
0000
0010
0000
0000
0100
0000
0000
0010
0000
0000
1000
0000
0000
,
0100
0000
0001
0000
0010
0100
0010
0100
0010
0000
0100
0000
0100
1000
0001
0100
,
0001
0000
0001
0000
0100
0010
0100
0010
0001
1000
0010
1000
0010
1000
0100
0010
,
0100
1000
0010
0100
0001
0000
1000
0000
0001
0000
0000
0001
0000
0000
0001
0000
,
1000
0001
1000
0001
0100
0010
0100
0010
,
0100
0000
0001
0000
1000
0000
0001
0000
0100
0010
0000
0001
0010
0000
0100
0000
,
0010
1000
0000
0001
0010
0000
0001
0000
1000
0000
0010
0000
1000
0000
0100
0000
,
1000
0001
0100
0001
0100
0001
1000
0010
,
0110
0110
0100
0010
1000
0100
1000
0100
,
1000
0000
0010
0000
0100
0000
0010
0000
0100
0010
0000
0100
1000
0000
0001
0000
,
1000
0100
0000
0100
1000
0000
0100
0000
0010
0000
0100
0000
0010
0000
0001
0000
,
0010
0001
1000
0001
0100
0010
1000
0010
,
1000
0001
0010
0000
1000
0000
0001
0000
,
1000
0001
1000
0100
,
0010
0000
0000
0000
0001
1000
0001
0100
0001
0000
0000
0000
0001
0010
0001
1000
,
0010
0000
0000
0000
0001
0100
0001
0100
0010
0000
0001
1000
0010
1000
0010
1000
,
0100
0100
0001
0000
0100
0000
0010
0000
,
0100
0010
1000
0100
,
0010
0000
1001
0000
0000
0000
0100
0010
,
0100
0010
0100
0010
0100
0000
0000
0001
0000
0000
0010
0000
1000
0000
0200
0000
,
0000
0000
0000
0000
0000
0000
0000
0000
0010
0000
0000
0000
1310
0000
0000
0110
,
0000
0000
0101
0000
0000
0011
0000
0000
1100
0000
0000
0000
1010
0000
0000
0110
,
0000
0000
0011
0000
0000
0101
0000
0000
0011
0000
0000
0000
0011
0000
0000
0110
,
0000
0000
1010
0000
0000
0011
0000
0000
0011
0000
0000
0000
0101
0000
0000
1010
,
0000
0000
1100
0000
0000
0110
0000
0000
0101
0000
0000
0000
0001
0000
1000
0000
,
0001
0100
0001
0100
0010
0100
0010
1000
,
0010
0000
1000
0000
0001
0000
0010
0000
0001
0000
0010
0000
0001
1000
0001
1000
,
0001
0100
0010
0100
0010
0100
0001
0010
0001
0010
0001
1000
0010
1000
0010
1000
,
0100
0010
0001
0010
0001
0010
0100
1000
0100
1000
0100
0010
1000
0000
0000
0000
,
0001
0100
0001
0100
,
0001
0000
0000
0000
0010
0000
0000
0000
0100
0000
0001
0010
1000
0000
1000
0001
,
1000
0000
0100
0010
0100
0000
1000
0001
0010
0000
0010
0001
1000
0000
1000
0100
,
1000
0000
0010
0001
0010
0000
0100
0010
0001
0010
0100
0000
1001
0000
1001
0000
,
0100
0010
1000
0000
0100
0001
0100
0000
0100
0000
1000
0010
1000
0000
0100
0000
,
0100
0000
0100
0010
1000
0010
1000
0000
0100
0000
0100
0000
0100
0010
1000
0000
,
1000
0001
0100
0000
0100
0001
0010
0000
1000
0000
0010
0100
1000
0000
1000
0010
,
1000
0000
0010
0100
0010
0000
1000
0001
1000
0001
1000
0100
0010
0000
0010
0001
,
0000
0100
1000
0100
1000
0000
0010
0001
0000
0001
0010
0100
1000
0100
0010
0000
,
0001
0010
0001
0010
0100
0000
0100
0010
,
1001
0000
1000
0001
1000
0010
0100
0000
0110
0000
0100
0001
0010
0001
0010
0000
,
0110
0000
1000
0100
1000
0010
1000
0000
0110
1000
0010
0000
0010
0100
0010
0100
,
0010
0000
1000
0010
1000
0000
1000
0001
0010
0000
0001
0000
0010
0000
0001
0000
,
0010
0000
0100
0000
1000
0000
0100
0000
1000
0000
0100
0000
0010
0001
0010
0000
,
0110
0000
1000
0100
1000
0100
0010
0000
0101
0000
0100
0000
1000
0010
1000
0000
,
1100
0000
0010
0100
0010
0100
1000
0001
1000
0001
1000
0010
0100
0010
0000
0010
,
1000
0000
0010
0100
0010
0000
0010
0001
0000
0001
0010
0000
0010
0100
1000
0000
,
0001
1000
0001
1000
0001
0000
0000
0000
;
