#VERSION:0.83;
#TITLE:PICK ME;
#ARTIST:PRODUCE 101;
#GENRE:K-POP;
#CREDIT:B. M'Rey;
#MUSIC:PICK ME.ogg;
#BANNER:PICK ME-bn.png;
#BACKGROUND:PICK ME-bg.png;
#CDTITLE:./CDTITLES/Dance Dance Revolution SPACE.PNG;
#SAMPLESTART:88.353;
#SAMPLELENGTH:15;
#OFFSET:-0.250;
#BPMS:0=128.030;
#BGCHANGES:-0.600=PICK ME.avi=1.000=0=0=0=StretchNoLoop====;

//--------------- dance-single - B. M'Rey ----------------
#NOTEDATA:;
#STEPSTYPE:dance-single;
#DESCRIPTION:B. M'Rey;
#DIFFICULTY:Beginner;
#METER:2;
#CREDIT:B. M'Rey;
#RADARVALUES:0.081844,0.152229,0.016369,0,0,70,68,2,0,0,0,0.081844,0.152229,0.016369,0,0,70,68,2,0,0,0;
#NOTES:
0000
0000
0000
0000
,
0000
0000
0000
0000
,
0000
0000
0000
0000
,
0000
0000
0000
0000
,
0000
0000
0000
0000
,
0010
0000
0000
0000
,
0010
0000
0000
0000
,
1000
0000
0001
0000
,
0010
0000
0000
0000
,
1000
0000
0000
0000
,
0001
0000
0000
0000
,
0010
0000
0000
0000
,
0001
0000
0000
0000
,
1000
0000
0000
0000
,
0010
0000
0000
0000
,
1000
0000
0000
0000
,
0001
0000
0000
0000
,
0010
0000
0010
0000
,
0000
0000
0000
0000
,
0010
0000
0010
0000
,
0000
0000
0000
0000
,
0001
0000
1000
0000
,
0000
0000
0000
0000
,
1000
0000
0001
0000
,
0000
0000
0000
0000
,
0010
0000
0010
0000
,
0010
0000
0000
0000
,
0001
0000
0000
0000
,
0001
0000
0000
0000
,
0010
0000
0010
0000
,
0010
0000
0000
0000
,
1000
0000
0000
0000
,
0010
0000
0010
0000
,
1000
0000
0000
0000
,
0001
0000
0000
0000
,
0010
0000
0000
0000
,
0001
0000
0000
0000
,
1000
0000
0000
0000
,
0010
0000
0000
0000
,
0100
0000
0100
0000
,
0001
0000
0001
0000
,
0010
0000
0000
0000
,
0010
0000
0000
0000
,
0010
0000
0000
0000
,
0010
0000
0010
0000
,
0001
0000
1000
0000
,
1001
0000
0000
0000
,
0010
0000
0000
0000
,
0100
0000
0000
0000
,
0010
0000
0000
0000
,
0001
0000
0000
0000
,
0010
0000
0000
0000
,
1000
0000
0000
0000
,
0010
0000
0000
0000
,
0001
0000
1000
0000
,
0010
0000
0000
0000
,
0001
0000
0000
0000
,
0010
0000
0000
0000
,
1000
0000
0000
0000
,
0010
0000
0000
0000
,
0010
0000
0000
0000
,
0100
0000
0001
0000
,
0101
0000
0000
0000
;

//--------------- dance-single - B. M'Rey ----------------
#NOTEDATA:;
#STEPSTYPE:dance-single;
#DESCRIPTION:B. M'Rey;
#DIFFICULTY:Easy;
#METER:5;
#CREDIT:B. M'Rey;
#RADARVALUES:0.226824,0.28809,0.106397,0.024553,0,194,181,13,3,0,0,0.226824,0.28809,0.106397,0.024553,0,194,181,13,3,0,0;
#NOTES:
0000
0000
0000
0000
,
0000
0000
0000
0000
,
0000
0000
0000
0000
,
0000
0000
0000
0000
,
0000
0000
0000
0000
,
0001
0000
1000
0000
,
0001
0000
1000
0000
,
0010
0000
0010
0000
,
0020
0000
0030
0000
,
1000
0010
1000
0000
,
0001
0000
1000
0000
,
0001
0010
0001
0000
,
1000
0000
0001
0000
,
0100
0010
0100
0010
,
0000
0000
0000
0000
,
0001
0010
0001
0010
,
1000
0000
0000
0000
,
0001
0010
0001
0011
,
1000
0000
0001
0000
,
1000
0010
1000
1010
,
0001
0000
1000
0000
,
0001
0010
0001
0010
,
0000
0000
0000
0000
,
0100
0010
0100
0010
,
0001
0000
1000
0000
,
0010
0100
0010
1000
,
0010
0000
0010
0000
,
0010
0001
0010
0001
,
0010
0000
0010
0000
,
0100
1000
0001
0100
,
0010
0000
0010
0000
,
0020
0000
0030
0000
,
0001
0010
1000
1001
,
0010
0001
0010
1000
,
0100
0010
0001
0101
,
0010
1000
0010
0001
,
0001
0010
1000
1001
,
0010
0001
0010
1000
,
0010
0001
0010
0100
,
0010
0001
1000
0010
,
0100
0001
0010
0001
,
1001
0000
1001
0000
,
1000
0010
1000
0010
,
0001
0010
0001
0010
,
1000
0010
0001
0010
,
0100
1000
0001
1000
,
1001
0000
0000
0000
,
1000
0010
0100
0010
,
0001
0010
0001
0010
,
1000
0010
0001
0010
,
0001
0010
0001
0010
,
0100
0010
1000
0010
,
0001
0010
1000
0010
,
0100
0010
0001
0010
,
0100
0001
0010
0101
,
1000
0000
0001
0000
,
1000
1010
0001
0011
,
0001
0000
0100
0000
,
0001
0011
0100
0110
,
0001
0010
1000
0010
,
0001
0010
0100
0010
,
0001
0010
0100
1000
,
0010
0000
0001
0000
,
2000
0000
0000
0000
,
3000
0000
0000
0000
;

//--------------- dance-single - B. M'Rey ----------------
#NOTEDATA:;
#STEPSTYPE:dance-single;
#DESCRIPTION:B. M'Rey;
#DIFFICULTY:Medium;
#METER:8;
#CREDIT:B. M'Rey;
#RADARVALUES:0.322698,0.44523,0.212794,0.147319,0.004092,276,250,26,18,0,0,0.322698,0.44523,0.212794,0.147319,0.004092,276,250,26,18,0,0;
#NOTES:
0000
0000
0000
0000
,
0000
0000
0000
0000
,
0000
0000
0000
0000
,
0000
0000
0000
0000
,
0000
0000
0000
0000
,
1000
0010
0001
0010
,
0100
0010
0001
0010
,
1000
0001
0010
0001
1000
0010
0100
0001
,
0020
0000
0030
0000
,
0001
0010
1000
1010
,
0001
0000
0001
0000
,
1000
0010
0001
0011
,
0100
0000
0100
0000
,
0001
0011
1000
1010
,
0001
0000
0001
0000
,
0100
0110
0001
0011
,
2002
0000
3003
0000
,
0001
0011
1000
1010
,
0001
0000
0000
0000
0001
0010
0001
0000
,
0100
0110
0001
0011
,
1000
0000
0000
0000
0100
0010
0100
0000
,
0001
0010
0001
0010
,
0100
0000
0001
0000
,
0100
0010
0001
0010
,
1000
0000
0001
0000
,
1000
0010
0100
0001
,
0010
0000
0010
0000
0001
0010
0001
0000
,
1000
0010
1000
0010
0100
0010
0100
0010
,
1000
0000
1000
0000
0010
1000
0001
0000
,
0010
0001
0010
0001
,
0100
0001
0010
0010
,
0202
0000
0000
0000
0000
0303
0000
0000
,
0010
0000
0010
0000
0010
0010
0010
0000
,
1000
0000
1010
0000
0001
0010
0001
0000
,
0010
0000
0010
0000
0010
0010
0010
0000
,
0001
0000
0011
0000
0100
0010
1000
0000
,
0010
0000
0010
0000
0010
0010
0010
0000
,
0100
0010
0100
0000
0001
0010
0001
0000
,
0010
0000
0101
0000
0010
0010
1001
0000
,
0010
0100
0001
0010
,
0010
0001
0100
0010
0100
0001
0010
0001
,
1000
0000
0000
0000
1001
0000
0000
0000
0010
0000
0000
0010
0000
0000
0010
0000
,
0200
0300
0002
0003
0200
0300
0002
0003
,
2000
3000
0002
0003
2000
3000
0002
0003
,
0010
0001
0010
0001
0100
0010
0100
0010
,
1000
0000
0001
0000
0100
0010
1000
0000
,
0011
0000
0000
0000
,
0001
0000
0011
0000
0001
0010
0001
0000
,
1000
0000
0010
0000
0100
0010
0100
0010
,
1000
0000
1010
0000
0100
0010
1000
0000
,
0001
0000
0010
0000
0001
0010
0001
0010
,
0001
1000
0010
0000
1000
0001
0010
0000
,
1001
0000
0101
0000
1001
0010
0101
0000
,
0010
0001
0100
0010
,
0100
0001
1000
0001
0010
0001
0100
0000
,
0010
0000
1000
0000
0010
0000
0001
0010
,
0000
2002
0000
3003
0000
0000
0000
0000
,
0010
0000
0001
0000
0010
0000
1000
0010
,
0000
2002
0000
3003
0000
0000
0000
0000
,
0001
0010
0001
0010
,
0100
0010
1000
0010
,
0001
0010
0001
0010
0001
1000
0010
0100
,
0001
0010
1000
0002
,
0000
0000
0000
0000
,
0003
0000
0000
0000
;

//--------------- dance-single - B. M'Rey ----------------
#NOTEDATA:;
#STEPSTYPE:dance-single;
#DESCRIPTION:B. M'Rey;
#DIFFICULTY:Hard;
#METER:14;
#CREDIT:B. M'Rey;
#RADARVALUES:0.550692,0.89046,0.417403,0.057291,0.409219,471,420,51,7,0,0,0.550692,0.89046,0.417403,0.057291,0.409219,471,420,51,7,0,0;
#NOTES:
0000
0000
0000
0000
,
0000
0000
0000
0000
,
0000
0000
0000
0000
,
0000
0000
0000
0000
,
0000
0000
0000
0000
,
1000
0000
0000
0000
0000
0000
0010
0000
0001
0000
0000
0100
0000
0000
0010
0000
,
0000
0000
0000
0000
0001
0000
0010
0000
0100
0000
0000
1000
0000
0000
0100
0000
,
0010
0001
0100
0010
1000
0100
0001
0010
,
0100
0010
0001
0010
0000
0000
0000
0000
,
1000
0100
0000
0000
0001
0010
0000
0000
0100
0010
0000
0000
0001
0010
0000
0000
,
0000
0000
0000
0000
0100
0010
0000
0001
0000
0010
0000
1000
0000
0100
0000
0000
,
0001
0010
0000
0000
0100
1000
0000
0000
0100
0010
0000
0000
0001
0010
0000
0000
,
0000
0000
0000
0000
0100
0010
0000
0001
0000
1000
0001
0000
0010
0000
0100
0000
,
0010
0001
0010
0100
,
1000
0000
0100
0010
0001
1000
0010
0100
,
0011
0110
0011
1010
,
0001
0000
0100
0000
0010
0001
0000
0010
0000
0100
0000
1000
0000
0010
0000
0000
,
0100
0010
0100
0000
0001
0010
0001
0000
0100
1000
0100
0000
0010
0100
0010
0000
,
0001
0000
0000
0000
0010
0100
0000
0010
0000
1000
0000
0001
0000
0010
0000
0000
,
0100
0010
1000
0000
0001
0010
0100
0000
0010
1000
0100
0000
0010
0100
0010
0000
,
0001
0000
0100
0000
0001
0010
0000
1000
0000
0100
0001
0000
0010
0000
0001
0000
,
0020
0230
2300
3002
,
0013
0000
0100
0010
0001
0010
0100
0010
,
1001
0110
0101
0110
,
1000
0001
0010
1000
0100
0001
0010
0001
,
0100
1000
0100
0001
,
0010
0000
0100
0000
0001
1000
0000
0100
,
0001
0010
1000
0010
0100
0000
0001
0010
,
0100
0000
1000
0000
0001
0010
0100
2000
,
0100
0000
0100
0001
3010
0100
0010
0001
,
1000
0000
0010
0000
0100
0000
0001
0010
,
0200
0000
0000
0000
0000
0000
0000
0310
,
0000
1001
0010
0101
1000
1010
0100
0101
,
0110
0011
1010
0110
,
0101
0010
1010
0100
0110
0001
0101
0010
,
1010
0101
0110
0101
,
1010
0100
0110
0001
0011
0010
1010
0100
,
0100
0001
0100
0001
0010
1000
0010
1000
,
0100
0010
0101
0010
1010
0100
0110
0001
,
0001
1000
0010
1000
0010
1000
0001
0010
,
0001
0010
0001
0100
0010
0100
0010
0100
,
1001
0000
0000
0000
1001
0000
0000
0000
1001
0000
0000
1001
0000
0000
1001
0000
,
1001
1000
0001
1000
0001
1000
0001
1000
,
0001
0100
0010
0100
0010
0100
0010
0100
,
0010
1000
0001
1000
0001
1000
0001
0010
0100
0010
0100
0010
1000
0010
1000
0010
,
2000
0000
0000
0000
,
3000
0000
0000
0000
,
0001
0010
0100
0010
1000
0100
0010
1000
,
0010
0001
0100
0010
1000
0001
0010
0100
,
1000
0010
0100
0001
0010
0001
0100
1000
,
0010
0100
1000
0010
0100
0001
0010
0001
,
0010
1000
0010
0100
1000
0010
0100
0001
,
0010
0001
1000
0100
0010
0100
1000
0100
,
1000
0010
0100
0001
0010
0001
0100
0010
,
0001
1000
0001
1000
0001
1000
0001
1000
,
0001
0110
0011
0110
,
1100
0000
0000
0000
0001
0010
0000
0001
0000
0010
0000
1000
0000
0100
0000
0000
,
0010
0011
0110
1010
,
0101
0000
0000
0000
0010
0100
0000
0100
0000
0001
0000
0010
0000
0100
0000
0000
,
1000
0110
0011
0110
,
1010
0000
0000
0000
0001
0010
0000
0010
0000
1000
0000
0100
0000
1000
0000
0000
,
0001
0010
0100
0010
1000
0001
1000
0010
,
0100
0010
1000
0200
0000
0000
0000
0000
,
0000
0000
0000
0000
,
0300
0000
0000
0000
;

//--------------- dance-single - B. M'Rey ----------------
#NOTEDATA:;
#STEPSTYPE:dance-single;
#DESCRIPTION:B. M'Rey;
#DIFFICULTY:Challenge;
#METER:15;
#CREDIT:B. M'Rey;
#RADARVALUES:0.61149,0.86427,0.409219,0.482878,0.56063,523,473,50,59,0,0,0.61149,0.86427,0.409219,0.482878,0.56063,523,473,50,59,0,0;
#NOTES:
0000
0000
0000
0000
,
0000
0000
0000
0000
,
0000
0000
0000
0000
,
0000
0000
0000
0000
,
0000
0000
0000
0000
,
0001
0010
0001
0010
0100
0010
0100
0010
,
0001
0100
0010
0001
0010
0100
0001
0010
,
0010
0100
0001
1000
0001
0100
0010
1000
0001
1000
0010
0100
0010
1000
0100
0020
,
0002
0000
0000
0000
0000
0000
0000
0030
0003
0000
0000
0000
0000
0000
0000
0000
,
1000
0000
0000
0001
0010
0000
0000
0100
0010
0000
0000
0002
2000
0003
3000
0000
,
0000
0000
0000
0000
0001
0010
0000
0110
0000
1000
0000
0011
0000
2000
0000
3000
,
0010
0000
0000
0100
0010
0000
0000
1000
0100
0000
0000
1000
0010
0000
0000
0000
,
0000
0000
0000
0000
0100
0010
0000
0011
0000
1000
0000
0110
0000
2000
0000
3000
,
0001
0010
0000
0000
0001
0100
0000
0000
0001
0010
0000
0002
0200
0000
0003
0300
,
0000
0000
0000
0010
0001
0100
0010
1000
,
0100
0010
0000
0000
0100
1000
0000
0000
0010
0100
0000
0000
0010
1000
0000
0000
,
0100
0010
1000
0001
0100
0010
0001
1000
0010
0100
0010
0100
0010
0100
0010
0100
,
0001
0000
0010
0001
1000
0000
0010
1000
0001
0000
0010
0002
0200
0000
0303
0000
,
0000
0000
0000
0000
0100
0010
0000
0011
0000
1000
0000
0110
0000
0002
0000
0003
,
0100
0000
0010
0100
0001
0000
0010
0001
1000
0000
0010
2000
0002
0000
3003
0000
,
0000
0000
0000
0000
0001
0010
0000
0110
0000
1000
0000
0011
0000
2000
0000
3000
,
0100
0010
0000
0000
0100
1000
0000
0000
0100
0010
0000
0000
0100
1000
0000
0000
,
0000
0000
0000
0010
0100
0001
0010
0100
,
0001
0010
0000
0000
0001
1000
0000
0000
0010
0001
0000
0000
0010
0100
0000
0000
,
1000
0010
0100
0001
0010
0001
1000
0001
,
1001
0000
0100
0010
1010
0000
0001
0010
,
0011
0000
0110
0000
0001
0010
0001
0100
,
0010
0001
0010
0100
0001
0010
0100
0010
,
0001
0000
0100
0010
0100
0001
0010
0001
,
1001
0000
0001
0010
0011
0000
0100
0010
,
1010
0000
0011
0000
0110
0000
0011
0010
,
2002
0000
0000
3003
,
0200
0010
0010
0310
0101
0010
1001
0010
,
0100
0001
0010
1000
0100
0000
0000
0000
0110
0000
0000
0001
0010
0000
0110
0000
,
0002
0010
0010
0013
1001
0010
0101
0010
,
0001
0100
0010
1000
0001
0000
0000
0000
0011
0000
0000
1000
0010
0000
0011
0000
,
0200
0010
0010
0310
0101
0010
1001
0010
,
0100
0001
0010
0001
0200
0000
0010
0300
0001
0100
0010
1000
0002
0000
0010
0003
,
0200
0310
0002
0013
2000
3010
0002
0013
,
0100
0001
0010
0001
1000
0001
0100
0010
1000
0001
1000
0010
0100
0001
0010
1000
,
0001
0010
0100
0001
0100
0010
0100
0010
1000
0001
1000
0010
0100
0001
0010
1000
,
0001
0000
0000
0000
1001
0000
0000
0000
0011
0000
0000
1010
0000
0000
1001
0000
,
0020
1030
0020
1030
0020
0031
0020
0031
,
0020
0030
1000
0000
0020
0030
0001
0000
0020
0030
1000
0001
0020
0030
1000
0000
,
0100
0001
0100
0010
1000
0100
1000
0010
0100
0001
1000
0100
0010
0001
0010
0100
,
0004
0000
0000
0000
0043
0000
0000
0000
0230
0300
0002
0000
1003
0000
0000
0000
,
1001
0000
0000
0000
,
0100
0010
2000
0000
3100
0000
1000
0000
0010
0100
0000
0010
1000
0000
1001
0000
,
0002
0010
0010
0013
0011
0001
0110
1000
,
1000
0010
0002
0000
1003
0000
0001
0000
0010
1000
0000
0001
0100
0000
0110
0000
,
2000
0010
0010
3010
1001
0010
0101
0010
,
0001
0100
0020
0000
0031
0000
0010
0000
0100
0001
0000
1000
0001
0000
0101
0000
,
0002
0013
0200
0310
0002
0013
2000
3010
,
0001
0010
0200
0000
1300
0000
0100
0000
0010
0001
0000
0100
0010
0000
0101
0000
,
0100
0010
0001
1000
0010
0001
0100
0010
1000
0010
0100
0002
0103
0000
0000
0000
,
0010
0000
1001
0000
0101
0000
0010
1001
,
0000
0000
0101
0000
0002
0010
0003
0200
0000
0010
0300
0002
0003
2000
0000
0000
,
3010
0000
0101
0000
1001
0000
0010
0101
,
0000
0000
1001
0000
0200
0010
0300
0002
0000
0010
0003
2000
3000
0002
0000
0003
,
0100
0010
0001
0010
1000
0010
0001
0010
,
0100
1000
0001
0001
0010
0001
0100
0010
,
1000
0100
1000
0010
0100
1000
0010
0001
1000
0001
0010
1000
0001
0010
0100
0001
,
0020
0000
0030
0200
0000
0300
2000
0000
0000
3000
0010
0000
0200
0000
0002
0000
,
0000
0000
0000
0000
0000
0000
0000
0000
0000
0000
0000
0000
0000
0000
0000
0300
,
0003
0000
0000
0000
;
