#VERSION:0.83;
#TITLE:Party 4U -holy nite mix-;
#ARTIST:Cranky;
#GENRE:RAVE;
#CREDIT:B. M'Rey;
#MUSIC:PARTY 4U -holy nite mix-.ogg;
#BANNER:PARTY 4U -holy nite mix-.png;
#BACKGROUND:PARTY 4U -holy nite mix--BG.png;
#CDTITLE:./CDTITLES/maimai PiNK.PNG;
#SAMPLESTART:52.828;
#SAMPLELENGTH:15;
#OFFSET:-0.029;
#BPMS:0=159;
#BGCHANGES:4.000=PARTY 4U -holy nite mix-.avi=1.000=0=0=1=====,;

//--------------- dance-single - B. M'Rey ----------------
#NOTEDATA:;
#STEPSTYPE:dance-single;
#DESCRIPTION:B. M'Rey;
#CREDIT:B. M'Rey;
#DIFFICULTY:Beginner;
#METER:5;
#RADARVALUES:0.199086,0.253124,0.32233,0,0,147,113,34,0,0,0,0.199086,0.253124,0.32233,0,0,147,113,34,0,0,0;
#NOTES:
0000
0000
0000
0000
,
0000
0000
0000
0000
,
0000
0000
0000
0000
,
0000
0000
0000
0000
,
0000
0000
0000
0000
,
0000
0000
0000
0000
,
0000
0000
0000
0000
,
0000
0000
0000
0000
,
0000
0000
0000
0000
,
1000
0000
0001
0000
,
0010
0000
0000
0000
,
0100
0000
0010
0000
,
1000
0000
0001
0000
,
1001
0000
0000
0000
,
0010
0000
0100
0000
,
0001
0000
0000
0000
,
1000
0000
0001
0000
,
0110
0000
0000
0000
,
1001
0000
1001
0000
,
0001
1000
0000
0000
,
0010
0000
0100
0000
,
0001
1000
0000
0000
,
0010
0000
0100
0000
,
0100
0010
0000
0000
,
0001
0000
1000
0000
,
0010
0100
0000
0000
,
0001
0000
1000
0000
,
0110
0000
0001
0000
,
1001
0000
0010
0000
,
1010
0000
0100
0000
,
0110
0000
0001
0000
,
0101
0000
0010
0000
,
1010
0000
0100
0000
,
0110
0000
0001
0000
,
1001
0000
0000
0000
,
0001
0000
1000
0000
,
0010
0010
0100
0100
,
0001
0000
0010
0000
,
0001
0001
1000
1000
,
0010
0000
0100
0000
,
0001
0001
1000
1000
,
0010
0000
0100
0000
,
0110
0000
0101
0000
,
0010
0000
1000
0000
,
0110
0000
0100
0000
,
1001
0000
0010
0000
,
0101
0000
1010
0000
,
0100
0000
0010
0000
,
0101
0000
0010
0000
,
1010
0000
0100
0000
,
0101
0000
1010
0000
,
0100
0000
0001
0000
,
1001
0000
0000
0000
,
0010
0000
0100
0000
,
1001
0000
0000
0000
,
0010
0000
0100
0000
,
0101
0000
0000
0000
,
0010
0000
1000
0000
,
0110
0000
0000
0000
,
0001
0000
1000
0000
,
0110
0000
0001
0000
,
1010
0000
0100
0000
,
0110
0000
0001
0000
,
0101
0000
0010
0000
,
1010
0000
0100
0000
,
0110
0000
0001
0000
,
1001
0000
0000
1001
;

//--------------- dance-single - B. M'Rey ----------------
#NOTEDATA:;
#STEPSTYPE:dance-single;
#DESCRIPTION:B. M'Rey;
#CREDIT:B. M'Rey;
#DIFFICULTY:Easy;
#METER:6;
#RADARVALUES:0.235653,0.348045,0.113763,0.00948,0,174,162,12,1,0,0,0.235653,0.348045,0.113763,0.00948,0,174,162,12,1,0,0;
#NOTES:
0000
0000
0000
0000
,
0000
0000
0000
0000
,
0000
0000
0000
0000
,
0000
0000
0000
0000
,
0000
0000
0000
0000
,
2000
0000
0000
0000
,
3002
0000
0000
0000
,
0203
0000
0000
0000
,
0320
0000
0000
0000
,
0031
1000
0000
1000
,
0000
1000
0000
0010
,
0000
0001
0000
0010
,
0001
1000
0000
1000
,
0010
1000
0000
0100
,
0000
0100
0000
1000
,
0000
0001
0000
0010
,
0000
1000
0000
0010
,
0002
0000
0000
0000
,
1003
1001
1001
1001
,
0010
1000
0010
0000
,
0010
0100
0001
0000
,
0001
1000
0010
0000
,
0110
0000
0101
0000
,
0001
0100
0001
0000
,
0100
0010
0100
0000
,
0001
1000
0010
0000
,
1001
0000
0110
0000
,
0010
0100
0010
1000
,
0001
0000
0001
0000
,
0001
0010
0100
1000
,
0100
0000
0100
0000
,
0001
1000
0001
0010
,
0001
0000
0100
0000
,
0100
1000
0100
1000
,
0010
0000
0010
0000
,
0001
0010
0001
0010
,
0100
0000
0100
0000
,
0100
0010
0001
0010
,
0001
0000
0100
0000
,
0100
1000
0001
1000
,
0001
0000
0001
0000
,
0100
0010
0100
1000
,
0100
0000
0001
0000
,
0001
0000
0100
0000
,
0100
0010
0100
0000
,
0001
0000
0001
0000
,
0010
1000
0100
0000
,
0100
0000
0100
0000
,
0001
1000
0001
0000
,
0001
0100
0010
0000
,
0010
1000
0010
0000
,
0001
1000
0001
0010
,
1001
0000
0000
0000
,
0001
1000
0100
1000
,
1100
0000
0000
0000
,
0010
1000
0010
1000
,
0101
0000
0000
0000
,
0100
1000
0100
1000
,
0100
0000
0000
0000
,
0001
0100
0010
0000
,
0100
0010
0100
0000
,
0001
0010
0100
0000
,
0100
1000
0100
0000
,
0001
0100
0010
0000
,
0001
0100
0001
0000
,
0010
1000
0001
0000
,
0110
0000
0000
0110
;

//--------------- dance-single - B. M'Rey ----------------
#NOTEDATA:;
#STEPSTYPE:dance-single;
#DESCRIPTION:B. M'Rey;
#CREDIT:B. M'Rey;
#DIFFICULTY:Medium;
#METER:9;
#RADARVALUES:0.396818,0.474607,0.388692,0.00948,0,293,252,41,1,0,1,0.396818,0.474607,0.388692,0.00948,0,293,252,41,1,0,1;
#NOTES:
0000
0000
0000
0000
,
0000
0000
0000
0000
,
0000
0000
0000
0000
,
0000
0000
0000
0000
,
0000
0000
0000
0000
,
2000
0000
0000
0000
,
3002
0000
0000
0000
,
0203
0000
0000
0000
,
0320
0000
0000
0000
,
0130
0001
1000
0000
0010
0000
0100
0000
,
0010
1000
0001
0010
,
0001
0010
0001
1000
,
0010
1000
0100
0010
,
0100
1000
0100
0000
0100
0000
1000
0000
,
0001
1000
0001
0010
,
0001
0010
0100
1000
,
0001
0100
0001
1000
,
0002
0000
0000
0000
,
1103
0011
1010
0101
,
0001
0010
1000
0000
0001
0000
0100
0000
,
0101
1100
0110
0101
,
0010
0001
1000
0000
0001
0000
0010
0000
,
0011
0110
1001
0110
,
0010
0001
0100
0000
0010
0000
1000
0000
,
0110
1001
0101
1010
,
0001
1000
0100
0000
0001
0000
0100
0000
,
0011
1100
0110
1001
,
0100
0001
1000
0000
0100
0001
0010
0000
,
0100
0010
0001
0010
,
0001
1000
0100
0000
0001
0010
0100
0000
,
0010
0100
0010
1000
,
0010
0001
1000
0000
0100
0010
1000
0000
,
0100
0010
0100
0010
,
0001
1000
0010
0000
0001
0100
1000
0000
,
0001
1000
0100
0000
,
0100
0010
0100
0010
,
0001
1000
0010
0000
0001
1000
0100
0000
,
0010
0100
0010
0100
,
0001
0100
0010
0000
0001
1000
0010
0000
,
0001
0100
0010
0100
,
0010
0001
0100
0000
0001
0100
1000
0000
,
0001
1000
0010
1000
,
0110
0101
1010
0110
,
0001
0100
0001
1000
,
0001
0010
0100
1000
,
0010
0100
0001
0100
,
1001
0110
0011
1100
,
0010
1000
0010
0100
,
0001
0010
0001
0010
,
0001
0100
0010
1000
,
0011
1100
0110
0110
,
0001
0100
0010
1000
,
0110
0000
0110
0000
,
0010
0100
0010
0100
,
1010
0000
1100
0000
,
0010
1000
0010
0100
,
0110
0000
0101
0000
,
0100
1000
0100
0010
,
0110
0000
0011
0000
,
0100
0001
1000
0000
0100
0001
1000
0000
,
0100
0010
0001
0010
,
0001
1000
0010
0000
0100
0010
1000
0000
,
0001
1000
0100
1000
,
0100
0001
0010
0000
0100
0010
1000
0000
,
0001
1000
0001
1000
,
0100
1000
0010
0000
0001
0100
0010
0000
,
0100
1000
0010
1001
;

//--------------- dance-single - B. M'Rey ----------------
#NOTEDATA:;
#STEPSTYPE:dance-single;
#DESCRIPTION:B. M'Rey;
#CREDIT:B. M'Rey;
#DIFFICULTY:Hard;
#METER:13;
#RADARVALUES:0.608093,0.66445,0.568817,0,0.180126,449,389,60,0,0,0,0.608093,0.66445,0.568817,0,0.180126,449,389,60,0,0,0;
#NOTES:
0000
0000
0000
0000
,
0000
0000
0000
0000
,
0000
0000
0000
0000
,
0000
0000
0000
0000
,
0000
0000
0000
0000
,
0200
0000
0000
0000
,
0320
0000
0000
0000
,
2030
0000
0000
0000
,
3002
0000
0000
0000
,
0103
1000
0100
0000
0001
0010
0100
0010
,
0000
0010
0001
0000
0010
1000
0010
0100
,
0010
0100
0001
0000
0001
1000
0000
0100
,
0000
1000
0010
0000
0010
0100
0001
0100
,
0001
0100
0010
0000
0010
1000
0001
1000
,
0000
0100
0010
0000
0010
1000
0000
0100
,
0000
0100
0010
0000
0010
1000
0010
1000
,
0100
1000
0001
0000
0001
1000
0001
0100
,
0010
0000
0000
0000
,
1001
1010
1010
0101
,
0001
0100
0010
0000
0010
1000
0010
1000
,
0011
0011
0110
1100
,
0100
1000
0010
0000
0010
0100
0010
0100
,
0011
0011
1100
1100
,
0010
1000
0010
0000
0001
1000
0001
0100
,
0011
0110
0110
1100
,
0001
0010
0001
0000
0010
1000
0010
1000
,
0110
0101
0011
0101
,
0010
0000
0000
0100
0000
0000
0100
0000
0001
0000
1000
0000
0010
0000
1000
0000
,
0010
0000
0000
1000
0000
0000
0010
0000
0100
0000
0010
0000
0001
0000
0010
0000
,
0100
0000
0000
1000
0000
0000
1000
0000
0100
0000
0010
0000
0001
0000
0010
0000
,
0001
0000
0000
0010
0000
0000
1000
0000
0100
0000
0000
1000
0000
0000
1000
0000
,
0010
0000
0000
0100
0000
0000
0100
0000
0001
0000
1000
0000
0001
0000
0010
0000
,
0100
0000
0000
0010
0000
0000
0010
0000
0001
0000
1000
0000
0010
0000
0100
0000
,
0010
0000
0000
0100
0000
0000
0100
0000
0001
0000
0010
0000
0100
0000
0010
0000
,
0110
0000
0101
0000
0101
0000
0010
0100
,
0010
1000
0000
1000
0010
0000
1000
0100
0000
0100
1000
0000
0100
0010
0100
0000
,
0100
0010
0001
0010
0100
1000
0010
1000
,
0100
1000
0000
1000
0001
0000
0100
0001
0000
0001
0100
0000
0010
1000
0010
0000
,
0010
1000
0010
0100
0001
1000
0100
0010
,
0001
0010
0000
0010
0001
0000
0010
0100
0000
0100
1000
0000
0100
1000
0100
0000
,
0100
0010
0001
0100
0001
1000
0001
1000
,
0100
1000
0000
1000
0100
0000
0010
0100
0000
0100
0010
0000
0001
0010
0001
0000
,
0101
1001
0110
1010
,
0100
1000
0100
1000
0010
0100
0010
0100
,
0010
1000
0100
1000
0100
1000
0010
0100
,
0010
0100
0010
1000
0001
0100
0001
0100
,
0110
1010
1100
1100
,
0001
0010
0001
0010
0100
0010
0001
1000
,
0001
1000
0100
1000
0010
0100
0010
0100
,
0010
1000
0100
0010
0100
0010
0100
1000
,
1010
1010
0011
0011
,
0001
0000
0000
0100
0000
0000
1000
0000
0010
0000
0001
0000
1000
0000
0100
0000
,
0101
0000
0000
0101
0000
0000
0101
0000
0000
1010
0000
0000
0010
0000
0000
0000
,
0010
0000
0000
0100
0000
0000
1000
0000
0001
0000
1000
0000
0001
0000
0010
0000
,
0110
0000
0000
0110
0000
0000
0110
0000
0000
0000
1000
0000
0001
0000
0000
0000
,
0001
0000
0000
0100
0000
0000
1000
0000
0010
0000
0100
0000
0001
0000
1000
0000
,
1100
0000
0000
1100
0000
0000
1100
0000
0000
0000
0110
0000
0100
0000
0000
0000
,
0100
0000
0000
1000
0000
0000
1000
0000
0010
0000
1000
0000
0010
0000
0100
0000
,
0110
0000
0000
0110
0000
0000
0110
0000
0000
0011
0000
0000
1100
0000
1001
0000
,
0001
1000
0001
0010
0001
1000
0010
0100
,
0001
0010
0100
1000
0001
1000
0001
1000
,
0010
0100
0010
0100
0010
1000
0001
1000
,
1001
0110
0011
1010
,
0100
0010
0100
0010
0100
1000
0001
0010
,
0001
0010
0100
0010
0100
1000
0100
1000
,
0010
1000
0010
0100
0010
1000
0100
1000
,
0110
0110
0011
0011
;
