#VERSION:0.83;
#TITLE:PARANOiA RE\:cursive;
#ARTIST:NaotoNekoCutie;
#GENRE:HARDCORE;
#CREDIT:B. M'Rey;
#MUSIC:PARANOiA REcursive.ogg;
#BANNER:PARANOiA REcursive-bn.png;
#BACKGROUND:PARANOiA REcursive-bg.png;
#CDTITLE:./CDTITLES/Dance Dance Revolution SPACE.PNG;
#SAMPLESTART:45.284;
#SAMPLELENGTH:15;
#OFFSET:-0.040;
#BPMS:0=190.020;

//--------------- dance-single - B. M'Rey ----------------
#NOTEDATA:;
#STEPSTYPE:dance-single;
#DESCRIPTION:B. M'Rey;
#DIFFICULTY:Beginner;
#METER:7;
#CREDIT:B. M'Rey;
#RADARVALUES:0,0,0,0,0;
#NOTES:
0000
0000
0000
0000
,
0000
0000
0000
0000
,
0000
0000
0000
0000
,
0000
0000
0000
0000
,
0001
0000
1000
0000
,
0010
0000
0100
0100
,
0001
0000
0010
0000
,
0001
0000
0000
0000
,
1000
0000
0010
0000
,
0100
0000
0001
0001
,
1000
0000
0010
0000
,
0100
0000
1001
1001
,
1001
0000
0001
0000
,
0010
0000
0100
0100
,
1000
0000
0001
0000
,
0010
0000
0001
0000
,
1001
0000
0000
0000
,
0110
0000
0000
0000
,
0101
0000
0000
0000
,
1010
0000
0000
0000
,
0110
0000
0000
0000
,
0101
0000
0000
0000
,
1010
0000
0000
0000
,
0110
0000
0000
0000
,
0001
0000
1000
0000
,
0010
0000
0100
0000
,
0001
0000
1000
0000
,
0010
0000
0000
0000
,
0100
0000
0001
0000
,
1000
0000
0010
0000
,
0100
0000
0001
0000
,
1000
0000
0000
0000
,
1001
0000
1001
0000
,
0010
0000
0100
0000
,
0101
0000
0101
0000
,
0010
0000
1000
0000
,
0110
0000
0110
0000
,
0001
0000
1000
0000
,
1010
0000
0101
0000
,
0010
0000
0000
0000
,
0101
0000
0101
0000
,
0010
0000
1000
0010
,
1010
0000
1010
0000
,
0001
0000
0100
0000
,
0101
0000
0101
0000
,
0010
0000
0100
0010
,
1001
0000
1001
0000
,
0010
0000
0100
0000
,
0001
0000
1000
0000
,
0010
0000
0100
0100
,
0010
0000
0001
0000
,
1000
0000
0001
0001
,
1000
0000
0010
0000
,
0100
0000
1000
1000
,
0010
0000
0100
0000
,
0010
0000
0001
0001
,
1000
0000
0010
0000
,
0100
0000
0100
0100
,
0010
0000
1000
0000
,
0001
0000
1001
1001
,
1001
0000
0010
0100
,
0001
0000
1000
0010
,
0100
0000
0001
0010
,
0100
0000
0001
1000
,
1001
0000
0000
0000
,
0000
0000
0010
0000
,
0101
0000
0000
0000
,
0000
0000
0000
0000
,
1010
0000
0000
0000
,
0000
0000
0100
0000
,
0110
0000
0000
0000
,
0000
0000
0000
0000
,
0001
1000
0010
0000
,
0001
0100
0010
0000
,
1000
0001
1000
0000
,
0010
1000
0100
0000
,
1001
0000
0010
0100
,
0001
0000
1000
0010
,
0110
0000
0001
0010
,
0001
0000
0000
1000
,
0010
0000
1000
0001
,
0100
0000
0010
0001
,
0101
0000
0010
1000
,
0100
0000
0010
0100
,
0101
0000
0010
1000
,
0100
0000
0010
0100
,
0101
0000
0010
1000
,
0100
0000
0010
0100
,
0101
0000
0010
1000
,
0100
0000
0001
0010
,
0101
0000
0010
1000
,
0100
0000
0010
1000
,
1010
0000
0010
0100
,
0010
0000
0001
1000
,
1001
0000
1001
0000
,
0000
0000
1001
0000
;

//--------------- dance-single - B. M'Rey ----------------
#NOTEDATA:;
#STEPSTYPE:dance-single;
#DESCRIPTION:B. M'Rey;
#DIFFICULTY:Easy;
#METER:10;
#CREDIT:B. M'Rey;
#RADARVALUES:0,0,0,0,0;
#NOTES:
0000
0000
0000
0000
,
0000
0000
0000
0000
,
0000
0000
0000
0000
,
0000
0000
0000
0000
,
0100
0010
0001
0000
,
0001
1000
0001
0000
,
0010
1000
0010
0000
,
0020
0000
0000
0030
,
0100
1000
0001
0000
,
0001
1000
0010
0000
,
0010
1000
0001
0000
,
0001
0100
0011
0110
,
1100
1000
0010
0000
,
0010
1000
0010
0000
,
0001
0010
0001
0000
,
0100
0010
0100
0000
,
0110
0001
0001
0000
,
0110
1000
0100
0000
,
0101
0100
0010
0000
,
0101
0100
0010
0000
,
1001
1000
0001
0000
,
0110
1000
0100
0000
,
1010
1000
0001
0000
,
0011
0010
0001
0000
,
0110
0100
0010
1000
,
0010
0100
0001
0010
,
0110
1000
0010
1000
,
0010
1000
0001
0100
,
0101
0100
0001
0010
,
0100
0010
0100
0010
,
1001
1000
0001
1000
,
0001
0100
0010
0000
,
0100
0010
0100
0010
,
0001
0010
0100
1000
,
0100
1000
0001
0100
,
0001
0010
0001
1000
,
0100
1000
0001
0100
,
0001
1000
0100
1000
,
0010
1000
0010
0100
,
0001
0010
0001
0000
,
0001
1000
0010
1000
,
0100
1000
0010
0100
,
0001
0100
0010
1000
,
0001
0100
0010
0100
,
0001
0100
0010
1000
,
0010
1000
0010
0100
,
0001
1000
0001
0010
,
0001
0010
1000
0000
0010
0001
0100
0000
,
1001
0000
0000
1010
0000
0000
0110
0000
,
0000
0110
0000
0000
0100
0000
0010
0000
,
1001
0000
0000
1010
0000
0000
0110
0000
,
0000
0011
0000
0000
0010
0000
1000
0000
,
0011
0000
0000
1100
0000
0000
0011
0000
,
0000
0101
0000
0000
0100
0000
1000
0000
,
0011
0000
0000
0110
0000
0000
1100
0000
,
0000
0101
0000
0000
0100
0000
0010
0000
,
0110
0000
0000
1100
0000
0000
0110
0000
,
0000
0011
0000
0000
0100
0000
1000
0000
,
0101
0000
0000
0110
0000
0000
0101
0000
,
0000
1001
0000
0000
0001
0000
0010
0000
,
0001
0100
0010
0100
,
0001
1000
0001
0010
,
0100
0010
0001
0010
,
0100
1000
0100
1000
,
0100
0010
0000
0000
0001
1000
0000
0000
,
0100
0010
0001
0010
,
0001
0100
0000
0000
0001
1000
0000
0000
,
0100
0000
0010
0000
0001
0100
0001
0000
,
0001
0010
0000
0000
0100
1000
0000
0000
,
0100
0010
0001
1000
,
0100
1000
0000
0000
0001
0100
0000
0000
,
1001
0010
0110
0010
,
0100
0001
0010
0000
0001
0000
1000
0000
,
0100
0000
0010
0100
0000
0100
1000
0000
,
0100
0010
0100
0000
0001
0000
0010
0000
,
0100
0010
0100
1000
,
0010
0100
1000
0000
0100
0000
1000
0000
,
0100
0000
0010
0100
0000
0100
1000
0000
,
0001
0100
0010
0000
0100
0000
1000
0000
,
0001
0100
0001
1000
,
0001
1000
0001
0000
0010
0000
1000
0000
,
0001
0100
0001
0000
0001
0000
1000
0000
,
0010
1000
0010
0000
0010
0000
0100
0000
,
0001
1000
0001
0000
0010
0000
0100
0000
,
0001
0010
0001
0000
0001
0000
0010
0000
,
0100
0010
0100
0000
0100
0000
1000
0000
,
0001
1000
0010
0000
0100
0000
1000
0000
,
0010
0001
0100
0000
0010
0000
0100
0000
,
0010
0100
1000
0000
0100
0000
0010
0000
,
0001
0010
1000
0000
0001
0000
1000
0000
,
0100
0001
1000
0000
0010
0000
0100
0000
,
0010
1000
0100
0000
0010
0000
1000
0000
,
0100
0001
1000
0000
0010
0000
1000
0000
,
0100
0001
0010
0000
0001
0000
1000
0000
,
0010
0100
1000
0000
0010
0001
0100
0000
,
0001
0100
0220
0000
,
0330
0000
0000
0000
;

//--------------- dance-single - B. M'Rey ----------------
#NOTEDATA:;
#STEPSTYPE:dance-single;
#DESCRIPTION:B. M'Rey;
#DIFFICULTY:Medium;
#METER:15;
#CREDIT:B. M'Rey;
#RADARVALUES:0,0,0,0,0;
#NOTES:
0000
0000
0000
0000
,
0000
0000
0000
0000
,
0000
0000
0000
0000
,
0000
0000
0000
0000
,
0100
0010
0001
0000
0100
1000
0001
0000
,
0001
1000
0100
1100
0000
0110
0000
0000
,
0001
1000
0010
0000
0001
0010
0001
0000
,
0200
0000
0000
0000
,
0301
0010
0100
0000
0010
0100
0010
0000
,
0001
1000
0001
0110
0000
0110
0000
0000
,
0010
0100
0001
0000
0010
1000
0100
0000
,
0100
1000
0010
0000
0010
1000
0100
1000
,
0010
0000
0100
0010
0100
0000
0100
1000
,
0001
0000
0000
0110
0000
0110
0000
1000
,
0000
0101
0000
1100
0000
0000
0100
1000
,
0001
0000
0001
0010
0001
0000
0010
1000
,
0100
0000
0100
1000
0100
1000
0000
0100
,
0001
0100
0010
0100
0000
1000
0000
0001
,
0100
0010
0001
0010
0100
1000
0000
1000
,
0010
0100
0010
1000
0000
0001
0000
0010
,
0100
0010
0100
0010
0001
0010
0000
1000
,
0010
0100
0010
1000
0000
0100
0001
0000
,
0010
1000
0001
1000
0100
0010
0000
1000
,
0001
1000
0001
2000
0000
0000
0000
3000
,
0001
1000
0100
0000
0001
0010
0001
0000
,
0100
0000
0001
0010
0000
0010
0100
0000
,
0100
1000
0001
0010
0100
0010
0000
0100
,
0010
1000
0010
1000
0000
1000
0100
0000
,
0100
0010
0001
0100
0001
0100
0000
1000
,
0010
1000
0010
0100
0000
0100
0001
0000
,
0001
0010
0100
0010
0001
1000
0000
0100
,
0001
0100
0010
0100
0000
0000
0000
0000
,
0010
1000
0010
0100
0010
0100
0000
0010
,
0001
1000
0100
0010
0000
1000
0100
0000
,
0010
1000
0010
0100
0001
0100
0000
1000
,
0001
0100
0001
1000
0000
1000
0100
0000
,
0010
0100
0010
1000
0010
1000
0000
1000
,
0100
0010
0100
0010
0000
0010
0001
0000
,
0100
0010
0100
0010
0100
1000
0000
0100
,
0010
0100
0001
0010
0000
1010
0000
0110
,
0001
1000
0001
0100
0001
1000
0000
1000
,
0010
0100
0010
1000
0000
1000
0001
0000
,
0100
1000
0100
0010
0001
0010
0000
0010
,
0001
0100
0010
0100
0000
1000
0001
0000
,
0001
0010
0100
1000
0001
0100
0000
1000
,
0100
0010
0100
0010
0000
1000
0001
0000
,
0001
0100
0010
1000
0010
1000
0000
0100
,
0010
1000
0001
0100
0010
0100
0001
1000
,
1001
0000
0110
0110
0000
0011
0011
0000
,
0110
0110
0000
1010
0000
1100
0000
0010
,
1100
0000
0110
0110
0000
1010
1010
0000
,
1100
1100
0000
0010
0001
0010
0100
0010
,
1100
0000
0110
0110
0000
0011
0011
0000
,
0110
0110
0000
1001
0000
0110
0000
1000
,
0100
0000
0101
0101
0000
1010
1010
0000
,
0101
0101
0000
1010
1010
0000
0001
1000
,
0001
0000
0011
0011
0000
1100
1100
0000
,
1001
1001
0000
1100
0000
1001
0000
0100
,
0010
0000
0110
0110
0000
0101
0101
0000
,
0110
0110
0000
0010
0001
1000
0100
1000
,
0010
0000
0010
1000
0010
0000
0100
0000
,
0001
1000
0100
1100
0000
1001
0000
0100
,
0000
0011
0000
0110
0000
1000
0010
0100
,
0000
0100
0010
0100
0000
1000
0010
1000
,
0001
1000
0000
0000
0001
1000
0000
0000
,
0010
0000
0010
0100
0000
0100
0010
0000
,
0010
1000
0000
0000
0001
1000
0000
0000
,
0001
0000
0010
0100
0000
1000
0100
0000
,
0100
0010
0000
0000
0001
1000
0000
0000
,
0001
0000
0100
1000
0000
0010
0001
0000
,
0001
0010
0000
0000
0010
0100
0000
0000
,
0100
0001
1000
0010
,
0100
0010
0001
0000
0001
1000
0100
0000
,
0001
0100
0010
0000
0010
0100
0001
0000
,
0010
0100
0010
0000
0001
1000
0010
0000
,
0100
1000
0100
0000
0100
1000
0010
0000
,
0001
0100
0010
0000
0001
0010
0001
0000
,
0100
0010
0001
0000
0001
0010
0100
0000
,
0001
0010
0100
0000
0100
0010
0001
0000
,
0001
0100
0001
0010
0100
0010
0100
0000
,
0001
0100
0001
0000
0001
0010
0100
0000
,
0001
0010
0100
0000
0100
0010
0100
0000
,
0001
0010
0100
0000
0001
1000
0001
0000
,
0001
0010
0100
0000
0001
0100
0010
0000
,
0001
1000
0001
0000
0001
1000
0010
0000
,
0001
0010
0100
0000
0100
1000
0010
0000
,
0010
0100
0001
0000
0001
0100
0010
0000
,
0001
1000
0010
0000
0010
0100
0010
0000
,
0100
0010
0001
0000
0010
1000
0010
0000
,
0001
0100
0001
0000
0100
1000
0010
0000
,
0010
0100
0010
0000
0001
0100
0001
0000
,
0010
1000
0010
0000
0001
0100
0010
0000
,
0001
1000
0001
0000
0001
0010
0100
0000
,
0100
0010
0001
0000
0001
0010
0001
0000
,
0100
1000
0100
0010
0001
1000
0010
0100
,
0010
0100
2002
0000
,
3003
0000
0000
0000
;

//--------------- dance-single - B. M'Rey ----------------
#NOTEDATA:;
#STEPSTYPE:dance-single;
#DESCRIPTION:B. M'Rey;
#DIFFICULTY:Hard;
#METER:16;
#CREDIT:B. M'Rey;
#RADARVALUES:0.834575,0.815753,0.665341,0.576088,0.020285,720,638,82,71,0,14,0.834575,0.815753,0.665341,0.576088,0.020285,720,638,82,71,0,14;
#NOTES:
0000
0000
0000
0000
,
0000
0000
0000
0000
,
0000
0000
0000
0000
,
0000
0000
0000
0000
,
1000
0001
0010
0000
0010
0001
1000
0000
,
0010
0100
0001
1000
0000
1001
0000
0000
,
0010
0100
1000
0000
0001
0010
0001
0000
,
0200
0010
0010
0010
,
0301
1000
0010
0000
0100
1000
0100
0000
,
0001
0010
0100
1000
0000
0110
0000
0000
,
0001
1000
0010
0000
0100
1000
0010
0000
,
0100
0001
1000
0000
0110
0011
1100
0110
,
0001
0010
1000
0000
0010
0100
0001
0000
,
0010
1000
0100
0001
0000
1010
0000
0000
,
0100
0010
0001
1000
0000
0010
0000
0100
,
0001
1000
0010
0000
1000
0010
0100
0000
,
0010
1000
0100
0001
0010
0100
0000
1000
,
0001
0010
0100
1000
0010
0100
0010
0001
,
0010
1000
0100
0001
0010
0100
0000
1000
,
0001
0010
0100
1000
0000
0010
0000
0200
,
0301
1000
0100
0001
0010
0100
0000
1000
,
0001
0010
0100
0020
1030
0200
0302
0013
,
0200
1300
0100
0001
0010
0100
0000
1000
,
0000
0000
0010
0000
0100
0000
0001
0000
0000
0000
0010
0100
0010
0000
1000
0000
,
0002
0013
0100
0010
1000
0100
0001
0010
,
0100
1000
0010
0200
0301
0020
0230
0310
,
0002
0013
1000
0100
0010
1000
0100
0001
,
0010
0100
1000
0001
0010
0001
0100
0010
,
2000
3001
0010
0001
0100
0010
1000
0100
,
0001
0010
0100
0002
1003
0020
0230
0310
,
0002
0013
0100
0001
0010
1000
0100
0001
,
0010
0001
0100
0010
0002
0000
0000
0000
,
1003
0010
1000
0010
1000
0010
1000
0010
,
1000
0100
0001
0011
0100
1000
0010
0100
,
1001
0010
0100
0001
0010
0100
1000
0010
,
0100
0001
0010
0001
0100
0010
1000
0010
,
0110
0001
0010
0100
0010
1000
0100
0010
,
1000
0100
0001
0110
0001
0100
0010
0100
,
1100
0001
0010
0001
0100
0010
0001
0100
,
1000
0001
0100
0010
,
1001
0001
0010
0100
0010
0001
1000
0010
,
0100
0001
0010
1100
0100
0010
0001
0100
,
0110
0001
0100
1000
0010
0100
0010
1000
,
0010
0001
0010
0100
0010
0001
1000
0000
,
1001
0010
0001
0010
0100
0010
1000
0010
,
0001
0010
0100
1001
0100
1000
0010
0001
,
0110
0100
0010
0001
0010
0100
0010
1000
,
0002
0023
2030
3200
,
1301
0010
1000
0000
0110
0001
0010
0000
,
0101
1000
0100
0002
0010
2003
0010
3000
,
0110
0001
1000
0000
0110
0001
1000
0000
,
0011
1000
0010
0100
0001
1000
0001
1000
,
1001
0010
0100
0000
0011
0001
0100
0000
,
1010
0100
0001
0210
0000
0312
0000
1003
,
1010
0100
0001
0000
0011
1000
0100
0000
,
0200
0010
0001
0010
,
1301
0010
0110
0000
0011
0100
1010
0000
,
0110
1000
0110
0002
0000
2003
0000
3010
,
0101
0010
0110
0000
1100
0001
0110
0000
,
0001
0000
1000
0000
1001
1001
1001
1001
,
0001
1000
0010
0100
0010
0001
0010
1000
,
0100
0001
0100
0011
0000
1100
0000
0001
,
0110
0000
0101
0010
1000
0010
0100
0001
,
0010
1000
0010
0100
0001
0010
0100
0010
,
1001
1001
0000
0000
0110
0110
0000
0000
,
1000
0000
0001
0010
0000
0100
1000
0000
,
0011
0011
0011
0000
1100
1100
1100
0000
,
0010
0000
0001
0000
0010
1000
0100
0000
,
0110
0110
0110
0000
0110
0110
0110
0000
,
0001
0000
1000
0010
0000
0100
0010
0000
,
1001
1001
1001
0000
1001
1001
1001
0000
,
0020
0000
0200
0000
,
2330
3001
0010
0001
0100
0010
1000
0100
,
0010
0001
0010
0002
0103
0020
0230
1300
,
2002
3013
0100
0010
0001
0010
1000
0010
,
0100
0010
0001
0010
1000
0100
1000
0001
,
0220
0331
1000
0010
0100
0010
1000
0100
,
0010
0001
0010
0200
1300
0002
0023
1030
,
0220
0331
0010
0001
0100
0010
1000
0100
,
0010
0100
0010
0100
0010
0001
0100
1000
,
2002
3013
0100
0010
0001
0010
0100
0010
,
1000
0100
0001
0020
0031
0200
2300
3001
,
0220
1330
0010
0100
0010
0001
0010
0100
,
1000
0010
0100
0010
1000
0100
0001
0010
,
2002
3013
0100
0001
0010
1000
0010
0100
,
0010
0001
1000
0200
1300
0020
0032
1003
,
0220
0331
0010
0100
0010
0100
0010
1000
,
0001
0100
0010
0001
0100
0010
0001
0100
,
2200
3301
0010
0100
0010
1000
0010
0100
,
0001
0010
1000
0020
0031
0200
2300
3010
,
2002
3013
0100
0010
1000
0010
0100
0010
,
0001
0010
0100
1000
0010
0100
0001
0100
,
0220
0331
0010
1000
0010
0100
1000
0100
,
0001
0100
0010
0002
1003
0020
0230
0301
,
1000
0001
1000
0001
1000
0000
0000
0000
0001
1000
0001
1000
0001
0000
0100
0000
,
0010
0001
1000
0010
0220
0000
0330
0000
;

//--------------- dance-single - B. M'Rey ----------------
#NOTEDATA:;
#STEPSTYPE:dance-single;
#DESCRIPTION:B. M'Rey;
#DIFFICULTY:Challenge;
#METER:18;
#CREDIT:B. M'Rey;
#RADARVALUES:0,0,0,0,0;
#NOTES:
0000
0000
0000
0000
,
0000
0000
0000
0000
,
0000
0000
0000
0000
,
0000
0000
0000
0000
,
1000
0100
1000
0000
0001
0000
0010
0100
0010
0000
0001
0000
1000
0010
1000
0000
,
0100
0001
1001
0101
0000
0110
0000
0001
,
0001
0100
0010
0000
0001
0000
0010
1000
0001
0000
0001
0000
1000
0100
0010
0000
,
0001
0000
1000
0000
0010
0000
0000
0000
0010
1000
0100
0010
0001
0000
0000
0000
,
0100
0000
0001
0010
0001
0000
0001
0000
0010
1000
0010
0000
0010
0000
0001
1000
,
0100
0001
0010
1001
0000
0101
0000
0010
,
0100
0010
0001
0000
0001
0000
0010
0100
0001
0000
0001
0000
0010
0100
0010
0000
,
0001
1000
0100
0000
0010
0000
0010
0000
0101
0000
1010
0000
0011
0000
0110
0000
,
0001
1000
0010
0000
0010
0000
0001
0100
0001
0000
0100
0000
0010
1000
0010
0000
,
0010
0000
0001
1000
0001
0000
0110
0000
0000
0000
0110
0000
0000
0000
0001
0000
,
0010
1000
0010
0000
0010
0000
0001
0000
0010
0000
0010
0000
0010
0100
0001
0000
,
0001
0100
0001
0000
0010
0000
0100
0010
0001
0000
0001
0100
0010
0000
0001
0100
,
0001
1000
0010
0100
0010
1000
0000
1000
,
0100
0000
0010
0000
0001
0000
1000
0000
0100
1000
0000
0001
1000
0000
1000
0100
,
0010
0100
0010
0100
0001
1000
0000
1000
,
0010
0000
1000
0000
0100
0000
0010
0000
0001
1000
0000
0100
0010
0000
0100
0001
,
0010
0100
0001
0010
0001
0010
0000
0010
,
0100
0000
1000
0000
0010
0000
1000
0000
0000
0000
0010
0000
0001
0000
0000
0010
,
0001
0010
0100
1000
0100
1000
0000
0010
,
0001
0000
0010
0000
0001
0000
0010
0000
0000
0000
1000
0100
1000
0000
0010
0000
,
0010
0100
0010
0100
0001
1000
0010
0100
,
0010
0100
0010
1000
0100
0010
0100
1000
,
0001
0010
0001
0100
0010
1000
0100
1000
,
0010
0100
0001
0010
0100
0010
0100
1000
,
0010
0100
0001
0010
0001
0010
0100
0010
,
0001
0100
0001
0010
0001
0010
0100
1000
,
0001
0100
0010
1000
0010
1000
0010
0100
,
0001
0010
0100
0010
0001
0100
0000
0101
,
0001
1000
0100
0000
0100
1000
0010
0000
0010
0100
0001
0000
0010
1000
0010
0000
,
0001
1000
0010
0000
0001
1000
0010
0000
1000
0000
0100
0000
0001
1000
0001
0000
,
0001
0010
0100
0000
0001
0100
0010
0000
0001
0100
0001
0000
0100
0010
0001
1000
,
0100
0000
0100
0000
0100
0000
0010
0100
0000
0100
0001
0000
0010
0000
0100
0000
,
0100
0010
0100
0000
0010
0100
0001
0000
0001
0100
0010
0000
0100
1000
0001
0000
,
0100
0010
0100
0000
0010
0100
0010
0000
0100
0000
0010
1000
0001
0000
0100
0000
,
0010
0100
0001
0000
0100
1000
0001
0000
0001
0100
0001
0000
0100
0010
0100
0000
,
0100
0010
0100
0010
0001
0000
0010
0000
,
0100
0010
0100
0000
0100
0010
0001
0000
0001
0010
0001
0000
0100
0010
0100
0000
,
0100
0010
0001
0000
0001
0010
0100
1000
0001
0100
0010
1000
0010
0100
0010
0000
,
0001
0010
0100
0000
0001
0000
0010
1000
0010
0000
0010
0000
0001
0100
0001
0000
,
0010
1000
0010
0100
0010
0100
0001
0000
0001
1000
0100
0000
0001
0010
0100
0000
,
0001
1000
0010
0000
0100
1000
0010
0000
0001
0100
0010
0000
0001
0010
0100
0000
,
0001
0010
0100
0000
0010
0100
0001
1000
0001
1000
0010
0100
0010
0100
0010
0000
,
0100
1000
0001
0000
0100
1000
0001
0000
0010
1000
0100
0000
0001
1000
0010
0000
,
0001
1000
0100
0010
0100
0000
0001
0000
0010
1000
0100
0010
0001
0000
0010
0000
,
1000
0100
1000
0100
1000
0000
0100
0010
0100
0010
0100
0000
0001
0010
0001
0010
,
0001
0000
0010
0100
0010
0100
1010
0000
1010
0000
0101
0000
0101
0000
1010
0000
,
1000
0010
1000
0010
1000
0000
0100
0001
0100
0001
0100
0000
0010
0100
0010
0100
,
0010
0000
0001
0010
0001
0010
0001
0000
0010
0000
0100
0000
0010
0000
0100
0000
,
0001
1000
0001
1000
0001
0000
0010
0100
0010
1000
0010
0000
0001
1000
0001
0010
,
0001
0000
0100
0010
0100
1000
0101
0000
0101
0000
1001
0000
1001
0000
0110
0000
,
0110
0000
0010
1000
0001
0000
0100
0010
0100
0010
0100
0000
0001
1000
0001
0010
,
0001
0000
0100
0010
0100
1000
0100
0000
0010
0000
0100
0000
0010
0000
0100
0000
,
0001
0010
0001
0010
0100
0000
0100
1000
0001
1000
0001
0000
0010
0100
0010
0100
,
0010
0000
0001
0010
0001
0010
1001
0000
1010
0000
1001
0000
0101
0000
0110
0000
,
0001
0100
0001
1000
0001
0000
0100
1000
0001
0100
0001
0000
0001
1000
0100
1000
,
0100
0000
0001
0100
0001
0100
0010
0000
1010
0000
1010
0000
1001
0000
0011
0000
,
0001
1000
0100
0000
0100
0010
0100
0000
0001
1000
0001
0000
0100
0010
0100
0000
,
0100
1000
0010
0000
0010
1000
0100
0000
0001
1000
0001
0000
0100
0010
0100
0000
,
0001
1000
0001
0000
0001
0010
0100
0000
0100
0010
0001
0000
0001
0100
0001
0000
,
0010
0100
0010
0000
0010
1000
0001
0000
0001
0100
0001
0000
0100
0010
0100
0000
,
1001
1001
0001
0000
0101
0110
0010
0000
,
0001
0100
0001
1000
0001
1000
0010
1000
,
0110
0110
0100
0000
0101
0101
0001
1000
,
0010
0000
1000
0000
0010
0000
1000
0000
0001
0100
0001
0100
0001
0000
0100
0000
,
0011
0011
0100
0000
1100
1100
0100
0000
,
0001
0010
0001
0010
0100
1000
0100
1000
,
0110
0000
0110
0000
0001
0000
0000
0000
0011
0000
0011
0000
0100
1000
0100
1000
,
0100
0010
0100
0010
0001
0010
0001
1000
,
0010
0100
0010
0000
0001
0100
0001
0000
0010
0100
0010
0000
0100
0010
0100
0000
,
0100
1000
0010
0000
0100
0010
0001
0000
0001
1000
0010
0000
0001
0100
0010
0000
,
0010
1000
0001
0000
0010
1000
0100
0000
0001
1000
0100
0000
0010
0100
0001
0000
,
0010
0100
0001
0000
0010
0100
0010
0000
0100
0010
0001
0000
0010
1000
0100
0000
,
0001
0100
0001
0000
0100
1000
0010
0000
0010
1000
0010
0000
0100
0010
0001
0000
,
0010
0100
0010
0000
0001
0010
0100
0000
0001
0100
0001
0000
0010
1000
0001
0000
,
0100
1000
0010
0000
0001
0010
0100
0000
0100
0010
0100
0000
0001
0100
0010
0000
,
0010
1000
0100
0010
0100
1000
0010
0100
,
0100
0010
0100
1000
0010
0000
0100
0010
0100
0010
0100
0000
0010
0000
0001
0010
,
0001
0100
0001
0000
0100
1000
0010
1000
0100
0000
1000
0000
0010
0000
0100
0000
,
0001
0100
0010
1000
0100
0000
0001
0100
0001
1000
0100
0000
0100
0000
0010
1000
,
0100
0000
0001
0100
0010
1000
0100
0000
0001
1000
0001
1000
0100
0000
0010
0000
,
0001
0010
0001
0100
0010
0000
0100
0010
0001
1000
0100
0000
0010
0000
0100
1000
,
0010
0000
0010
0100
0001
0010
0100
0000
0001
0000
0100
0000
0010
0000
0001
0000
,
0100
0010
0001
0010
0001
0000
0010
1000
0100
1000
0010
0000
0001
0010
0100
1000
,
0010
0000
0001
0010
0100
1000
0100
0000
0010
0000
0100
0000
0001
0000
0010
0000
,
0001
0100
0001
0010
0001
0000
0010
1000
0001
0010
0001
0000
0010
1000
0100
1000
,
0100
0000
0010
0100
0001
0010
0001
0000
0010
0000
0100
0000
0001
0000
0100
0000
,
0001
0010
0100
1000
0001
0000
0010
1000
0100
0010
0100
0000
0010
0100
0001
0010
,
0001
0000
0001
1000
0100
1000
0001
0000
0100
0000
0010
0000
1000
0000
0100
0000
,
0001
0100
0010
1000
0001
0000
0100
0010
0100
1000
0100
0000
0001
0100
0010
1000
,
0100
0000
0010
1000
0100
0010
0001
0000
0100
1000
0010
0100
0010
0000
0100
0000
,
0001
0010
0001
0010
0001
1000
0100
1000
0100
0010
0100
0010
0001
0010
0001
1000
,
0001
1000
0010
0100
2002
0000
0000
0000
,
3003
0000
0000
0000
;
