#TITLE:お嬢様の Bass House;
#ARTIST:riya;
#TITLETRANSLIT:Ojousama no Bass House;
#GENRE:BASS HOUSE;
#CREDIT:B. M'Rey;
#MUSIC:Ojousama no Bass House.ogg;
#BANNER:Ojousama no Bass House-bn.png;
#BACKGROUND:Ojousama no Bass House-bg.png;
#CDTITLE:./CDTITLES/Dance Dance Revolution SPACE.PNG;
#SAMPLESTART:51.58;
#SAMPLELENGTH:15;
#OFFSET:-0.151;
#BPMS:0=126;

//--------------- dance-single - B. M'Rey ----------------
#NOTES:
     dance-single:
     B. M'Rey:
     Beginner:
     4:
     0,0,0,0,0:
0000
0000
0000
0000
,
0000
0000
0000
0000
,
0000
0000
0000
0000
,
1000
0000
0000
0000
,
0010
0000
0000
0000
,
0100
0000
0000
0000
,
0001
0000
0000
0000
,
0001
0000
1000
0100
,
0000
0000
0001
0010
,
0100
0000
0000
0000
,
0000
0000
0000
0000
,
0001
0000
1000
0000
,
0010
0000
0100
0000
,
0001
0000
1000
0000
,
0010
0000
0100
0000
,
1001
0000
0001
0000
,
0010
0000
0100
0000
,
0001
0000
1000
0000
,
0010
0000
0100
0000
,
0001
0000
0000
0000
,
1000
0000
0000
0000
,
0010
0000
0000
0000
,
0100
0000
0000
0000
,
0001
0000
1000
0000
,
0001
0000
1000
0000
,
0001
1000
0001
1000
,
0000
0000
0010
0100
,
1001
0001
0001
0001
,
0001
0001
0001
0001
,
1001
1000
1000
1000
,
1000
1000
1000
1000
,
0110
0100
0100
0100
,
0100
0100
0100
0100
,
0110
0010
0010
0010
,
0010
0000
0001
0000
,
1001
0001
0000
1000
,
0000
0010
0100
0001
,
0001
0000
1000
0000
,
0010
0100
0001
0000
,
1001
0000
0010
0100
,
1000
0000
0001
0010
,
0101
0000
0010
1000
,
0100
0000
0001
0010
,
0001
0000
1000
0000
,
0010
0010
0100
1000
,
0001
0000
1000
0000
,
0010
0000
0100
0000
,
0001
0000
1000
0100
,
0010
0000
0001
0010
,
1001
1000
0000
0010
,
0100
0001
0000
0001
,
1001
0000
0000
0000
,
0010
0000
0000
0000
,
0100
0000
0000
0000
,
0001
0000
0000
0001
,
1001
0000
0000
0000
,
0100
0000
0000
0000
,
1000
0000
0000
0000
,
0001
0000
0000
0000
,
0010
0000
0000
0000
,
0000
0000
0000
0000
,
0000
0000
0000
1001
0000
0000
0000
0000
0000
0000
0000
0000
0000
0000
0000
0000
;

//--------------- dance-single - B. M'Rey ----------------
#NOTES:
     dance-single:
     B. M'Rey:
     Easy:
     6:
     0,0,0,0,0:
0000
0000
0000
0000
,
0000
0000
0000
0000
,
0000
0000
0000
0000
,
1000
0000
0010
0000
,
0100
0000
0001
0010
,
1000
0000
0100
0000
,
1000
0000
0000
0000
1000
0000
0100
0010
,
0001
0000
0000
0000
0001
0000
0010
0100
,
1000
0000
0000
0000
0010
0000
0100
0010
,
0001
0000
0000
2000
0000
0000
0000
0000
,
0000
0000
0000
0000
0000
3000
0000
0000
,
0001
0001
1000
1000
,
0010
0010
0100
0100
,
0001
0001
1000
1000
,
0001
0001
0010
0010
,
0110
1000
1000
0100
,
0100
0001
0001
0010
,
0010
0100
0100
1000
,
1000
0001
0001
0001
,
1001
0000
0000
0000
0001
0010
1000
0000
,
1010
0000
0000
0000
1000
0100
0010
0000
,
0101
0000
0000
0000
0001
0010
0100
0000
,
1001
0000
0000
0000
1000
0100
0010
0000
,
0110
0000
0101
0000
,
0110
0000
1010
0000
,
0101
0000
1001
0000
,
0000
0000
0000
0000
,
1001
0000
0001
0000
0001
1000
0001
0000
,
0001
0000
0001
1000
0001
0000
0010
0000
,
0110
0000
0010
0000
0100
0010
0100
0000
,
0100
0000
0010
0100
0010
0000
0100
0000
,
0110
0000
1000
0000
0100
1000
0100
0000
,
1000
0000
0100
1000
0100
0000
1000
0000
,
1001
0000
0001
0000
0001
0010
0001
0000
,
1001
0000
0101
0000
,
1001
0000
0001
0000
0010
0000
0100
1000
,
0100
0000
0010
0000
0001
0000
0001
0010
,
0100
0000
1000
0000
0100
0010
1000
0000
,
0001
0000
0010
0000
0001
0010
0100
0000
,
1001
0000
0001
0000
0010
0000
1000
0100
,
0010
0000
0001
0000
0010
0000
0001
0010
,
0100
0000
1000
0000
0010
0000
0100
1000
,
0100
0001
0001
0010
,
1001
0000
0101
0000
,
0001
0001
1000
1000
,
0010
0010
0100
0100
,
0001
0001
1000
1000
,
0020
0000
0031
1000
,
0200
0000
0301
0010
,
1001
0001
0001
1000
,
1000
0010
0010
0100
,
0101
0000
0001
0000
,
1000
0000
0010
0000
,
0100
0000
0001
0000
,
1000
0000
0010
0100
,
0101
0000
0010
0000
,
1000
0000
0010
0000
,
0100
0000
0001
0000
,
1000
0000
0010
0000
,
1001
0000
0000
0000
,
0000
0000
0000
0000
,
0000
0000
0000
1001
0000
0000
0000
0000
0000
0000
0000
0000
0000
0000
0000
0000
;

//--------------- dance-single - B. M'Rey ----------------
#NOTES:
     dance-single:
     B. M'Rey:
     Medium:
     9:
     0,0,0,0,0:
0000
0000
0000
0000
,
0000
0000
0000
0000
,
0000
0000
0000
0000
,
0001
0010
1000
0100
,
1000
0000
0001
0000
0010
0000
0001
0010
,
0100
1000
0100
1000
,
0100
0000
0010
0000
0001
0010
1000
0100
,
0020
0000
0000
0000
0031
0000
1000
0010
,
0200
0000
0000
0000
0301
0000
0010
0001
,
0020
0000
0000
2000
0000
0000
0000
0000
,
0000
0000
3000
0031
,
0001
0010
0001
0000
1000
0100
1000
0000
,
0010
0100
0010
0000
0001
0010
0001
0000
,
0001
1000
0010
0100
,
1000
0100
0001
0010
,
1001
0000
0001
0010
0001
0000
1000
0100
,
1000
0000
0010
0100
0010
0000
0001
0010
,
0001
1000
0010
0100
,
0001
0010
0001
1000
,
1001
0000
0000
0000
0010
0100
0001
0000
,
1001
0000
0000
0000
0001
0010
0100
0000
,
1010
0000
0000
0000
1000
0100
0010
0000
,
0101
0000
0000
0000
0001
0010
0001
0000
,
1001
0000
0101
0000
,
0110
0000
1010
0000
,
0101
1010
0101
1010
,
0000
0000
1001
0110
,
1001
0000
0001
0010
0001
0010
0001
0010
,
0001
0010
0001
0010
0001
0010
0001
0010
,
1001
0000
1000
0100
1000
0100
1000
0100
,
1000
0100
1000
0100
1000
0100
1000
0100
,
1001
0000
0001
1000
0001
1000
0001
1000
,
0001
1000
0001
1000
0001
1000
0001
1000
,
1001
0000
0001
0100
0001
0100
0001
0100
,
0001
0000
1000
0000
,
0101
0000
0010
1000
0100
0000
0001
0010
,
0100
0000
1000
0100
0010
0000
0001
0000
,
1001
0000
0001
0010
0100
0000
1000
0100
,
0010
0000
0001
0010
0100
0000
1001
0000
,
0101
0000
0001
0010
0010
0000
1000
0100
,
0100
0000
0001
0010
0010
0000
1000
0100
,
0100
0000
0001
0010
1000
0000
0100
0010
,
0001
0000
0001
0010
1000
0000
0100
0010
,
1001
0000
0101
0000
,
0001
0001
1000
1000
,
0001
0010
0001
0000
1000
0100
1000
0000
,
0010
0100
0010
0000
0001
0010
0001
0000
,
1000
0010
0100
0001
,
0010
0001
1000
0100
,
0001
1000
0001
0000
0010
0001
0010
0000
,
1000
0100
1000
0000
0010
0100
0010
0100
,
0001
1000
0100
1000
,
0100
0000
0010
0000
1000
0000
0001
0010
,
0001
0100
1000
0100
,
0010
0000
0001
0000
1000
0000
0001
1000
,
0010
0100
1000
0100
,
1000
0000
0010
0000
0100
0000
0001
0010
,
1000
0100
1000
0010
,
0001
0000
0010
0000
0100
0000
0010
0001
,
1000
0000
0000
0001
0010
0100
1000
0000
,
0000
0000
0000
0001
0001
0000
0000
0000
,
0000
0000
0000
1001
0000
0000
0000
0000
0000
0000
0000
0000
0000
0000
0000
0000
;

//--------------- dance-single - B. M'Rey ----------------
#NOTES:
     dance-single:
     B. M'Rey:
     Hard:
     12:
     0,0,0,0,0:
0000
0000
0000
0000
,
0000
0000
0000
0000
,
0000
0000
0000
0000
,
0100
0010
0100
0010
,
0100
1000
0001
0100
,
0010
0100
0010
1000
,
0001
0010
0001
1000
,
0200
0000
0000
0000
0000
0000
0310
0000
1000
0000
0000
1000
0000
0000
0100
0000
,
0020
0000
0100
0000
0031
0010
0001
0100
,
0002
0000
0013
1000
0002
0000
0010
0000
,
1000
0000
0000
0000
0100
0000
0003
0000
0010
0000
0000
0000
0100
0010
0100
0010
,
0001
1000
0001
0010
0001
0010
0100
1000
,
0100
1000
0100
0010
0001
0010
0001
0010
,
0100
1000
0100
1000
0001
1000
0001
0100
,
0001
0100
0010
0100
0010
1000
0010
1000
,
0002
0000
0013
0100
0001
0010
0100
0010
,
0100
0010
0001
1000
0001
1000
0001
0010
,
0100
0010
0100
0010
0001
0100
0001
0100
,
0001
0010
0100
0010
0100
0010
0001
1000
,
0010
0000
0001
0000
1000
0100
0010
0000
,
1000
0000
0100
0000
1000
0001
0010
0000
,
0100
0000
0001
0000
1000
0100
0001
0000
,
0010
0000
0100
0000
0010
1000
0001
0000
,
0110
0010
0110
0010
,
1001
0001
1001
0001
,
0010
0001
0010
0000
0010
0100
1000
0001
,
1000
0000
0100
0110
,
1001
0000
1000
0001
1000
0001
0010
0001
,
0010
0100
0010
0100
1000
0100
1000
0001
,
1001
0000
1000
0001
1000
0001
1000
0010
,
0100
0010
0100
0010
1000
0001
1000
0001
,
1001
0000
1000
0001
0100
0001
0100
0001
,
0010
0100
0010
0100
0010
0001
1000
0001
,
1001
0000
1000
0001
1000
0001
1000
0010
,
0100
0000
0000
0010
0000
0000
0001
0000
0000
1000
0000
0000
0100
0000
0000
0000
,
1000
0000
0001
0000
1000
0001
0000
0010
0000
1000
0000
0100
0000
0010
0001
0100
,
0010
0000
0001
0010
0000
0100
0000
1000
0000
0100
0000
1000
0001
0000
0100
0000
,
0110
0000
0001
0000
0010
0001
0000
0010
0000
0100
0000
1000
0000
0100
0010
0001
,
1000
0000
0000
0000
0000
0000
0001
0000
0000
1000
0000
0000
0000
0000
0000
0010
0000
0000
0000
0000
0000
0100
0000
0000
0000
0000
0000
0001
0000
0000
1000
0000
0000
0000
0001
0000
0000
0000
1000
0000
0000
0000
0001
0000
0000
0000
1000
0000
,
0110
0000
0000
0000
1000
0010
0000
0100
0000
0010
0000
0100
0000
0001
1000
0010
,
0100
0000
0010
0001
0100
0001
0000
0010
0000
0100
0010
0000
0001
0000
0100
0000
,
2000
0000
0000
0000
3100
0010
0000
1000
0000
0010
0100
1000
0100
0000
0001
0100
,
0001
0000
0001
0000
0010
0100
0000
0010
1000
0000
0100
0000
1000
0000
0010
0000
,
1000
0001
0100
0001
,
0110
0011
1100
1001
,
0100
0001
0100
0001
0100
0010
1000
0010
,
1000
0010
0100
0001
0100
0001
0100
0010
,
1000
0010
1000
0010
0100
0001
1000
0001
,
0100
0001
0010
0100
0010
0100
0010
0001
,
1001
0000
1000
0001
1000
0001
0010
0001
,
0010
0100
0010
0001
1000
0001
1000
0001
,
1000
0000
0001
0000
1000
0100
0001
0000
,
0100
0000
0001
0000
0100
1000
0010
0000
,
0100
0000
0001
0000
1000
0100
0001
0000
,
0010
0000
0001
0000
0010
1000
0100
0001
,
0010
0100
1000
0100
,
1000
0010
1000
0010
,
0100
0010
1000
0001
,
0010
0001
0010
0100
,
0000
0000
0000
0001
1000
0100
0010
0000
,
0000
0000
0000
1001
1001
0000
0000
0000
,
0000
0000
0000
1001
0000
0000
0000
0000
0000
0000
0000
0000
0000
0000
0000
0000
;

//--------------- dance-single - B. M'Rey ----------------
#NOTES:
     dance-single:
     B. M'Rey:
     Challenge:
     14:
     0,0,0,0,0:
0000
0000
0000
0000
,
0000
0000
0000
0000
,
0000
0000
0000
0000
,
1001
0000
0010
0000
0001
0010
0001
1000
,
0100
0000
1000
0000
0010
0100
0001
0010
,
0001
0000
0010
0000
0001
1000
0100
1000
,
0010
0000
0000
0000
0100
0000
0000
0000
0001
0000
0010
0001
1000
0000
0100
0000
,
0010
0000
0000
0000
0000
0000
0000
0001
0010
0000
0001
0000
1000
0000
0100
0000
,
0010
0000
0000
0000
0000
0000
0000
0000
0001
0010
0000
1000
0000
0100
0000
1000
,
0000
0000
0000
0000
0000
0020
0000
0000
0000
0000
0000
0000
0000
0000
0000
0000
,
0031
0000
0000
0000
0010
0000
0000
0000
1000
0000
0000
0000
0001
1000
0001
1000
,
0001
0001
0001
0010
0010
0100
0100
1000
,
1000
0100
0100
0010
0010
0001
0001
0010
,
0001
0001
0010
0010
0001
0001
0010
0010
,
0001
0001
0010
0010
0100
0100
1000
1000
,
0200
0000
0310
0010
0100
0100
1000
1000
,
0100
0100
1000
1000
0100
0100
0010
0010
,
0001
0001
0010
0010
0001
0001
0010
0010
,
0100
0100
1000
1000
0100
0100
1000
0100
,
1001
0000
0000
0010
0000
0000
1000
0000
0001
0000
0100
0000
0001
0000
0000
0000
,
0010
0000
0000
0001
0000
0000
0010
0000
1000
0001
1000
0000
0100
0000
0000
0000
,
0010
0000
0000
1000
0000
0000
0100
0000
0001
1000
0010
0000
0100
0000
0000
0000
,
0010
0000
0000
1000
0000
0000
0100
0000
0001
0000
0010
0001
0010
0001
0100
0000
,
1000
0000
0000
0100
0000
0000
0010
0100
0001
0000
0000
0001
0000
0000
0010
0001
,
1000
0000
0000
0100
0000
0000
0100
0010
0001
0000
0000
0001
0000
0000
0010
0001
,
0010
0000
0000
0001
0010
0001
0000
0001
0010
1000
0010
1000
0010
1000
0010
1000
,
0010
0000
1001
0110
,
0101
0000
0000
0000
0001
0010
0001
0000
1000
0100
1000
0000
0010
0100
0010
0000
,
0001
0010
0001
0000
0001
0010
0001
0000
1000
0100
1000
0000
0010
0100
0000
0000
,
0101
0000
0000
0000
0001
0010
0000
0000
0001
0010
0000
0000
0001
0010
0000
0000
,
1000
0100
0000
0000
1000
0100
0000
0000
1000
0100
0000
0000
0010
0001
0000
0000
,
0101
0000
0000
0000
0001
0010
0001
0000
0100
1000
0100
0000
0010
0100
0010
0000
,
0001
0010
0001
0000
0010
0100
0010
0000
0100
0001
0010
0000
0001
0010
1000
0000
,
1001
0000
0000
0000
0010
0100
0010
0000
0001
0010
0001
0000
0100
1000
0100
0000
,
1000
0000
0000
0001
0000
0000
0010
0000
0000
0100
0000
0000
0001
0000
0000
0000
,
1001
0000
0000
0000
0001
0010
0000
0001
0000
0100
0000
0010
0000
1000
0001
1000
,
0000
0000
0001
0100
0000
0001
0000
0010
0000
0001
0010
0001
0000
1000
0001
0100
,
0010
0000
0000
0000
0001
0010
0000
0001
0000
1000
0000
0100
0000
0010
0100
0010
,
0000
0000
1000
0100
0000
0001
0000
0010
0000
0001
1000
0001
1000
0010
0100
0001
,
1010
0000
0000
0000
0001
0010
0000
0001
0000
0100
0000
0010
0000
1000
0010
0100
,
0001
0000
0010
0001
0000
0100
0000
1000
0010
0001
1000
0010
0100
0001
1000
0010
,
0100
0000
0000
0000
0010
0001
0000
0010
0000
0001
0010
1000
0000
0100
0010
0100
,
0001
0000
1000
0010
0000
0100
0000
0001
0000
0010
0000
0000
0001
1000
0010
0000
,
1001
0010
0101
0010
0101
0010
1001
0010
,
1001
0101
0110
0111
,
0001
0010
1000
0000
0001
0100
0010
0000
0001
0010
0001
0000
0001
0010
0001
0000
,
1000
0100
1000
0000
0010
0100
0010
0000
0001
0010
0001
0000
1000
0001
1000
0000
,
0002
0000
0000
0000
0000
0000
0103
1000
0010
0000
0001
0010
0100
0000
1000
0000
,
0200
0000
0000
0000
0000
0000
0301
0010
0100
0010
0100
1000
0001
1000
0100
1000
,
0001
0000
0010
0000
0001
0010
0001
0000
1000
0100
1000
0000
0010
0100
0010
0000
,
0001
0010
0001
0000
1000
0100
1000
0000
0010
0100
0001
0000
0010
0001
0010
0000
,
1001
0010
0100
0010
0001
0010
0001
0010
,
1001
0010
0100
0010
1000
0100
0010
0001
,
0101
0010
1000
0100
1000
0100
0010
0001
,
0101
0010
1000
0100
1000
0100
0010
0001
,
1001
0000
0001
0100
0010
1000
0100
1000
,
1010
0000
0101
0000
0001
0010
0001
1000
,
1010
0000
0110
0000
0001
0010
0100
1000
,
1001
0000
0110
0000
0001
1000
0100
0010
,
1001
0000
0000
0000
0000
0000
0000
0010
1000
0100
1000
0010
0100
0001
0000
0000
,
0000
0000
0000
0000
0000
1010
0000
1100
0000
0000
0000
0000
0000
0000
0000
0000
,
0001
1000
0001
1010
0000
0000
0000
0000
0000
0000
0000
0000
0000
0000
0000
0000
;
