#TITLE:魔法のたまご;
#ARTIST:Dormir;
#TITLETRANSLIT:Mahou no tamago;
#GENRE:COSMO POP;
#CREDIT:B. M'Rey;
#MUSIC:Mahou no tamago.ogg;
#BANNER:Mahou no tamago-bn.png;
#BACKGROUND:Mahou no tamago-BG.png;
#CDTITLE:./CDTITLES/Pop'n Music 17 THE MOVIE.png;
#SAMPLESTART:13.601;
#SAMPLELENGTH:15;
#OFFSET:-0.110;
#BPMS:0=142;

//--------------- dance-single - B. M'Rey ----------------
#NOTES:
     dance-single:
     B. M'Rey:
     Beginner:
     2:
     0,0,0,0,0:
0000
0000
0000
0000
,
0000
0000
0000
0000
,
0000
0000
0000
0000
,
0000
0000
0000
0000
,
0001
0000
0000
0000
,
0100
0000
0000
0000
,
0010
0000
0000
0000
,
1000
0000
0000
0000
,
0110
0000
1000
0000
,
0001
0000
0010
0000
,
1000
0000
0001
0000
,
0100
0000
0010
0000
,
1000
0000
0000
0000
,
0010
0000
0000
0000
,
0001
0000
0000
0000
,
0100
0000
0000
0000
,
0010
0000
0000
0000
,
1000
0000
0000
0000
,
0100
0000
0000
0000
,
0001
0000
0000
0000
,
0010
0000
0000
0000
,
0100
0000
0000
0000
,
0010
0000
0000
0000
,
1000
0000
0000
0000
,
1001
0000
0000
0000
,
0000
0000
0000
0000
,
0011
0000
0000
0000
,
0000
0000
0000
0000
,
1100
0000
0000
0000
,
0000
0000
0000
0000
,
0011
0000
0000
0000
,
0000
0000
0000
0000
,
1000
0000
0000
0000
,
0010
0000
0000
0000
,
0100
0000
0000
0000
,
0001
0000
0000
0000
,
0010
0000
0000
0000
,
0001
0000
0000
0000
,
0100
0000
0000
0000
,
0010
0000
0000
0000
,
0110
0000
1000
0000
,
0101
0000
0000
0000
,
0010
0000
0100
0000
,
0001
0000
0000
0000
,
1000
0000
0010
0000
,
0100
0000
0000
0000
,
0001
0000
0010
0000
,
0001
0000
0000
0000
,
1001
0000
0000
0000
,
0000
0000
0000
0000
,
0000
0000
0000
0000
,
0000
0000
0000
0000
,
0110
0000
0000
0000
,
0000
0000
0000
0000
,
0000
0000
0000
0000
,
0000
0000
0000
0000
,
1001
0000
0000
0000
;

//--------------- dance-single - B. M'Rey ----------------
#NOTES:
     dance-single:
     B. M'Rey:
     Easy:
     5:
     0,0,0,0,0:
0000
0000
0000
0000
,
0000
0000
0000
0000
,
0000
0000
0000
0000
,
0000
0000
0000
0000
,
0001
0000
0100
0000
,
0001
0000
0100
0000
,
1000
0000
0010
0000
,
1000
0000
0010
0000
,
1000
0100
0001
0000
,
0001
0100
0010
0000
,
0010
1000
0001
0000
,
0001
0000
1000
0000
,
0100
0000
0000
1000
,
0010
0000
0000
0100
,
0010
0100
0001
0010
,
0002
0000
0000
0003
,
0100
0000
0010
1000
,
0100
1000
0100
0010
,
0100
0000
0001
0010
,
0001
0100
0010
1000
,
0100
0000
0100
0010
,
0100
1000
0010
1000
,
0010
1000
0100
0010
,
0001
0010
0100
1000
,
1100
0000
0000
0000
,
0100
0000
0000
0000
,
0101
0000
0000
0000
,
0100
0000
0000
0000
,
0100
0010
0100
0010
,
0100
0000
0001
0000
,
0010
0100
0001
1000
,
0100
0000
0010
0000
,
0001
0010
0001
0010
,
0001
1000
0100
0010
,
0100
1000
0001
1000
,
0100
1000
0001
0100
,
0001
1000
0100
1000
,
0100
1000
0010
0100
,
0001
0010
0001
0010
,
0001
0100
0010
1000
,
0010
0000
0010
0100
,
0001
0000
0010
0100
,
0001
0000
0001
0010
,
0100
0010
0100
0010
,
0001
0000
0100
0010
,
0100
0000
0100
0010
,
0001
0000
0001
0100
,
0010
0100
0010
1000
,
0001
0000
0000
0000
,
0001
0000
0000
0000
,
0100
0000
0000
0000
,
1000
0000
0000
0000
,
0010
0000
0000
0000
,
0100
0000
0000
0000
,
0001
0000
0000
0000
,
1000
0000
0000
0000
,
0010
0000
0000
0000
;

//--------------- dance-single - B. M'Rey ----------------
#NOTES:
     dance-single:
     B. M'Rey:
     Medium:
     9:
     0,0,0,0,0:
0000
0000
0000
0000
,
0000
0000
0000
0000
,
0000
0000
0000
0000
,
0000
0000
0000
0000
,
0001
0010
0001
1000
,
0010
0100
0001
0100
,
0001
0010
0001
1000
,
0010
0100
0001
0010
,
0001
1000
0001
0010
0000
1000
0100
0000
,
0001
1000
0001
0010
0000
0001
0100
0000
,
0010
1000
0001
2000
0000
3000
0100
0010
,
0100
0000
0001
1000
0001
0000
1010
0000
,
0020
0000
0100
0000
0001
0000
0130
0001
,
0200
0000
0010
0000
1000
0000
0310
1000
,
0100
0000
0001
0000
0100
0000
0100
1000
,
0100
0000
0010
0000
0001
0000
0010
0100
,
0110
0000
0100
0000
0001
0100
0001
1000
,
0000
0010
0000
0100
0000
1000
0010
0100
,
0001
0000
0010
0000
0100
1000
0001
0100
,
0000
1000
0010
0001
0000
0100
0001
0100
,
0001
0000
0100
0010
0100
1000
0010
0100
,
0000
0010
0000
1000
0000
0001
0100
1000
,
0000
0100
0010
0000
0001
1000
0001
1000
,
0000
0100
0000
0010
0000
1000
0001
0100
,
1001
0000
0100
0000
,
0010
0000
1000
0000
,
0011
0000
0100
0000
,
0010
0000
1000
0000
,
0001
1000
0001
0010
,
0100
0010
0000
0000
,
0010
1000
0001
1000
,
0100
0000
0010
0001
,
0010
0000
0010
0100
0001
0000
0100
0010
,
0001
0000
0010
0100
0010
0000
0100
0010
,
0100
0000
0100
1000
0000
0100
1000
0110
,
0000
0101
0000
0011
0000
1100
0000
0110
,
0000
0100
0001
0000
0001
1000
0010
0100
,
0000
1000
0010
0000
0001
1000
0010
2000
,
0000
0000
0000
3100
0001
1000
0010
0100
,
0000
1010
0000
1001
0000
1001
0000
0022
,
0000
0000
0033
0100
0010
0001
0100
0001
,
0000
0010
0000
0100
1000
0010
1000
0010
,
0000
0100
0000
0001
0100
0001
0010
0001
,
0000
1100
0000
0101
0000
1010
0000
0010
,
2000
0000
0000
3010
0100
0001
0010
0100
,
0000
0100
1000
0000
0100
0001
1000
0001
,
0000
0100
0010
0100
0000
0010
0000
0001
,
0000
0100
0000
1000
0000
0010
0000
0100
,
0001
0000
0100
0000
,
0001
0000
0100
0000
,
0010
0000
1000
0000
,
0100
0000
1000
0000
,
0001
0000
0100
0000
,
0010
0000
0001
0000
,
1000
0000
0100
0000
,
0001
0000
1000
0000
,
0100
1000
0010
0100
,
0001
0100
0001
0010
,
0001
0000
0000
0000
;

//--------------- dance-single - B. M'Rey ----------------
#NOTES:
     dance-single:
     B. M'Rey:
     Hard:
     11:
     0,0,0,0,0:
0000
0000
0000
0000
,
0000
0000
0000
0000
,
0000
0000
0000
0000
,
0000
0000
0000
0000
,
0100
0000
0010
0100
0010
0000
0010
0000
0100
0000
1000
0010
1000
0000
0100
0000
,
0010
0000
0100
0010
0100
0000
1000
0000
0100
0000
0010
0001
0010
0000
0010
0000
,
0001
0000
0100
0001
0100
0000
1000
0000
0010
0000
1000
0010
1000
0000
0100
0000
,
0001
0000
0010
0000
0001
0000
0020
0000
0000
0000
0200
0000
0000
0000
0000
0330
,
0001
0010
0001
0010
0000
0100
0001
0000
,
0010
1000
0001
1000
0000
0010
0001
0000
,
0001
0100
0001
0020
0000
0030
0001
1000
,
0020
0000
0000
1030
0100
0000
0001
0000
,
0200
0000
0300
1000
0100
0010
0001
1000
,
0200
0000
0000
0000
0301
0100
0010
0000
,
0100
0000
0011
0000
1100
0000
0100
1000
,
0100
0000
1000
0001
1000
0000
0010
0100
0010
0000
1000
0001
1000
0000
0100
0000
,
0010
0000
0010
1000
0100
0010
0001
1000
,
0010
0100
0000
0001
0000
1000
0000
0100
,
0010
0000
0010
1000
0001
1000
0010
0100
,
0000
1000
0001
0100
0000
1000
0100
0010
,
0001
0000
0100
1000
0001
0100
0010
0100
,
0000
0010
0000
0001
0000
0010
0100
1000
,
0001
0000
0000
1000
0000
0000
0010
0000
0100
0000
0010
0000
0100
0000
0010
0000
,
0000
1000
0000
0100
0000
1000
0010
0100
,
1010
0000
0100
0010
0001
0000
0010
0100
,
0001
0000
0001
0010
0001
0000
0100
1000
,
0010
0000
0001
0010
0100
0000
0001
0100
,
0010
0000
0010
0100
0001
0000
0001
0010
,
0001
0000
0110
0000
0110
0000
0001
0010
,
0110
0000
1100
0000
1001
0000
0001
1000
,
0110
0000
1010
0000
1010
0000
0100
0010
,
0110
0000
0101
0000
0110
0000
0010
1000
,
0010
0100
0001
1000
0100
1000
0001
1000
,
0010
0100
0010
1000
0001
1000
0001
0010
,
0100
0010
0001
1000
0100
0010
0100
1000
,
0001
0010
0100
0010
0100
1000
0001
1000
,
0100
1000
0001
0100
0010
1000
0010
0100
,
0010
0100
0001
0100
0001
0010
0001
1000
,
0100
0010
0001
0100
0001
1000
0100
1000
,
0010
0000
0100
0010
0100
0000
0100
0001
0100
0000
0100
0010
0100
0000
1000
0000
,
0101
0000
0010
1000
0100
0010
0001
0100
,
0010
0000
0001
0000
0010
0000
0100
1000
,
0001
0000
0010
0000
0001
1000
0001
0100
,
0000
0010
0000
1000
0000
1000
0010
0100
,
0001
0000
0100
1000
0100
0000
0100
0010
,
0001
0010
0001
1000
0010
0100
0010
1000
,
0100
0010
0100
1000
0001
1000
0010
1000
,
0010
0100
0001
1000
0001
1000
0100
1000
,
0011
0000
0100
0000
,
0001
0000
0010
0000
,
1010
0000
0010
0000
,
0001
0000
0010
0000
,
1001
0000
0100
0000
,
0001
0000
0100
0000
,
1001
0000
0001
0000
,
0010
0000
1000
0000
,
0001
1000
0010
1000
,
0010
0100
0010
0100
,
0001
0000
0000
0000
;
