#TITLE:Latch;
#ARTIST:Disclosure feat. Sam Smith;
#GENRE:POP;
#CREDIT:B. M'Rey;
#MUSIC:Latch.ogg;
#BANNER:Latch-bn.png;
#BACKGROUND:Latch-bg.png;
#CDTITLE:./CDTITLES/Dance Dance Revolution SPACE.PNG;
#SAMPLESTART:72.020;
#SAMPLELENGTH:15;
#OFFSET:-0.224;
#BPMS:0=122.020;

//--------------- dance-single - B. M'Rey ----------------
#NOTES:
     dance-single:
     B. M'Rey:
     Beginner:
     3:
     0.102,0.124,0.007,0.066,0:
0000
0000
0000
0000
,
0000
0000
0000
0000
,
0000
0000
0000
0000
,
0000
0000
0000
0000
,
0000
0000
0200
0000
,
0000
0000
0301
0000
,
0000
0010
0000
0000
,
1000
0000
0001
0000
,
0000
0000
0200
0000
,
0000
0000
0310
0000
,
0000
0000
0001
0000
,
1000
0000
0010
0000
,
0000
0000
0020
0000
,
0000
0000
0130
0000
,
0000
0000
1000
0000
,
0001
0000
0200
0000
,
0300
0000
0020
0000
,
0000
0000
0130
0000
,
0000
0000
1000
0000
,
0001
0000
0100
0000
,
0000
0000
0002
0000
,
0000
0000
0000
0000
,
0000
0000
2003
0000
,
0000
0000
0000
0000
,
0000
0000
3200
0000
,
0000
0000
0000
0000
,
0000
0000
0320
0000
,
0000
0000
0000
0000
,
0000
0000
1030
0000
,
1000
0000
0001
0000
,
0001
0000
0100
0000
,
0100
0000
0010
0000
,
0010
0000
1001
0000
,
0000
0000
0000
0100
,
0000
0100
0000
0000
,
0000
0000
0000
0000
,
0000
0000
1000
0000
,
0001
0000
1000
0000
,
0001
0000
0100
0000
,
0010
0000
0100
0000
,
0000
0000
1000
0000
,
0100
0000
1000
0000
,
0100
0000
0001
0000
,
0010
0000
0001
0000
,
0000
0000
0001
0000
,
1000
0000
0001
0000
,
1000
0000
0010
0000
,
0100
0000
0010
0000
,
0000
0000
0001
0000
,
0010
0000
0001
0000
,
0010
0000
1000
0000
,
0100
0000
1000
0000
,
0000
0000
1000
1000
,
1000
0000
0000
0000
,
0000
0000
0010
0010
,
0010
0000
0000
0000
,
0000
0000
0100
0100
,
0100
0000
0000
0000
,
0000
0000
0001
0001
,
0001
0000
0000
0000
,
0000
0000
0000
1000
,
0000
0010
0000
0100
,
0000
0001
0000
0010
,
0000
1000
0000
0000
,
0000
0000
0000
0001
,
0000
1000
0000
0010
,
0000
0100
0000
0001
,
0000
1000
0000
0100
;

//--------------- dance-single - B. M'Rey ----------------
#NOTES:
     dance-single:
     B. M'Rey:
     Easy:
     5:
     0.17,0.223,0.007,0.139,0:
0000
0000
0000
0000
,
0000
0000
0000
0000
,
0000
0000
0000
0000
,
0000
0000
0000
0000
,
0000
0000
0020
0000
,
0000
0130
0000
0001
,
0000
0100
0000
1000
,
0000
0100
0000
0000
,
0000
0000
0200
0000
,
0300
0010
0000
0001
,
0000
0100
0000
0010
,
0000
0010
0000
0000
,
0000
0000
2000
0000
,
0000
3001
0000
0001
,
0000
1000
0000
1000
,
0000
0001
0000
0100
,
0000
0000
0200
0000
,
0300
0001
0000
0010
,
0000
0001
0000
1000
,
0000
0010
1000
0000
,
0000
0000
0002
0000
,
0023
0000
0230
0000
,
2300
0000
3200
0000
,
0320
0000
0032
0000
,
0003
0000
0002
0000
,
0023
0000
0230
0000
,
2300
0000
3200
0000
,
0320
0000
0032
0000
,
0103
0000
0010
0010
,
0010
0010
0000
1000
,
0000
0100
0100
0100
,
0100
0100
0000
1000
,
0000
0010
0001
0000
,
1000
0000
0001
0000
,
1000
0000
0002
0000
,
0000
0000
0000
0000
,
0000
0000
1003
0100
,
0010
0000
0100
0100
,
0100
0000
0010
1000
,
0000
1000
0000
0000
,
0100
0000
0001
0100
,
0010
0000
0100
0100
,
0100
0000
0010
1000
,
0100
0000
0010
0000
,
0100
0000
1000
0100
,
0010
0000
0100
0100
,
0100
0000
0010
1000
,
0000
1000
0000
0000
,
0100
0000
0001
0100
,
0010
0000
0100
0100
,
0100
0000
0010
1000
,
0100
0000
0010
0000
,
1001
0000
0001
1000
,
0001
0001
0000
0100
,
0000
0100
0010
0100
,
0010
0010
0001
0000
,
1000
0000
0001
1000
,
0001
0001
0000
0100
,
0000
0100
0010
0100
,
0010
0010
0001
0000
,
1000
0000
0001
0001
,
0000
0010
0000
0100
,
0000
1000
0000
0100
,
0000
0010
0000
1000
,
0001
0010
1000
1000
,
0000
0100
0000
0010
,
0000
0001
0000
0010
,
0000
0100
0000
0001
,
1000
0000
0000
0000
;

//--------------- dance-single - B. M'Rey ----------------
#NOTES:
     dance-single:
     B. M'Rey:
     Medium:
     8:
     0.283,0.399,0.285,0.044,0.044:
0000
0000
0000
0000
,
0000
0000
0000
0000
,
0000
0000
0000
0000
,
0000
0000
0000
0000
,
1000
0001
0200
0000
,
0000
0310
0001
1000
,
0000
0010
0100
0001
,
1000
0010
0100
0000
,
1001
0000
0020
0000
,
0030
0100
0001
1000
,
0000
0010
0001
0100
,
1000
0100
1000
0000
,
1001
0000
0002
0000
,
0000
1003
0100
1000
,
0000
0001
0010
0001
,
0100
1000
0200
0000
,
0301
0000
0020
0000
,
0030
1000
0001
0100
,
0000
1000
0100
1000
,
0010
0100
0001
0000
,
1001
0000
1000
1000
,
0100
0100
0010
0010
,
0001
0001
0010
0010
,
0100
0100
1000
1000
,
1001
0000
1000
1000
,
0100
0100
0010
0010
,
0001
0001
0010
0010
,
0100
0100
1000
1000
,
1001
0000
0100
0010
,
0100
0010
0100
0010
,
0100
0001
1000
0001
,
1000
0001
1000
0001
,
1000
0100
1001
0000
,
0101
0000
1010
0000
,
0110
0000
0002
0000
,
0000
0000
0000
0000
,
0000
0000
1003
0010
,
0100
0001
0010
0010
,
0010
0000
0000
0000
0000
1000
0100
0000
0000
0001
0000
0000
,
0010
0000
1000
0001
0000
0000
0100
0000
0000
0010
0000
0000
,
1001
0000
1000
0010
,
0100
0001
0010
0010
,
0010
0000
0000
0000
0000
1000
0100
0000
0000
0001
0000
0000
,
0010
0000
1000
0001
0000
0000
0100
0000
0000
0000
0000
0000
,
1001
0000
0101
0101
,
1010
1010
1001
1001
,
0110
0000
1100
1100
,
0011
0011
1001
0000
,
1001
0000
1010
1010
,
0101
0101
1001
1001
,
0110
0000
0011
0011
,
1100
1100
1001
0000
,
1001
0000
1000
0001
,
1000
0000
0001
1000
0000
0000
0100
0000
0000
0010
0000
0000
,
0001
0010
0100
0010
,
0100
0000
0010
0100
0000
0000
1000
0000
0000
0010
0000
0000
,
0001
0010
1000
0001
,
1000
0000
0001
1000
0000
0000
0100
0000
0000
0010
0000
0000
,
0001
0010
0100
0010
,
0100
0000
0010
0100
0000
0000
1000
0000
0100
0010
0000
0000
,
0001
0000
0100
0010
0000
0000
1001
0000
0000
1000
0000
0000
,
1000
0100
0100
0010
,
0010
0001
0001
0010
,
0010
0000
0000
0100
0000
0000
0100
0000
0010
0001
0000
0000
,
1000
0000
0010
0100
0000
0000
1001
0000
0000
0001
0000
0000
,
0001
0010
0010
0100
,
0100
1000
1000
0100
,
0100
0010
0010
1000
,
0001
1000
0000
0000
;

//--------------- dance-single - B. M'Rey ----------------
#NOTES:
     dance-single:
     B. M'Rey:
     Hard:
     13:
     0.468,0.623,0.343,0.058,0.617:
0000
0000
0000
0000
,
0000
0000
0000
0000
,
0000
0000
0000
0000
,
0000
0000
0000
0000
,
1000
0001
0200
0000
,
0000
0000
0000
0310
0000
0001
0010
0000
0000
0100
0000
0000
,
0000
0000
0000
1000
0000
0100
0010
0000
0000
0001
0000
0000
,
1000
0010
0100
0000
,
0001
1000
0020
0000
,
0000
0000
0000
0130
0000
1000
0100
0000
0000
0010
0000
0000
,
0000
0000
0000
0001
0000
0010
0100
0000
0000
1000
0000
0000
,
0001
0100
0010
0000
,
1000
0001
0002
0000
,
0000
0000
0000
1003
0000
0010
1000
0000
0000
0001
0000
0000
,
0000
0000
0000
0100
0000
0001
1000
0000
0000
0010
0000
0000
,
0100
1000
0002
0013
,
0001
1000
2000
0000
,
0000
0000
0000
3001
0000
0100
0001
0000
0000
1000
0000
0000
,
0000
0000
0000
0010
0000
1000
0001
0000
0000
0100
0000
0000
,
0010
0001
1000
0000
,
0001
0000
0000
1000
0000
0000
0010
0100
0010
0100
0010
0100
,
0010
0001
0010
0001
0010
0001
0010
1000
0010
1000
0010
1000
,
0010
0100
0001
0100
0001
0100
0001
1000
0001
1000
0001
1000
,
0001
0100
0001
0100
0001
0100
0001
0010
0001
0010
0001
0010
,
0001
1000
0100
1000
0100
1000
0100
0010
0100
0010
0100
0010
,
0100
1000
0100
1000
0100
1000
0100
0001
0100
0001
0100
0001
,
0100
0010
1000
0010
1000
0010
1000
0001
1000
0001
1000
0001
,
1000
0010
1000
0010
1000
0010
1000
0000
0100
0010
0000
0001
,
0010
0000
1000
0100
0000
0000
0011
0000
0000
0110
0000
0000
,
0011
0000
0000
0110
0000
0000
0011
0000
0010
0100
0000
1000
,
0100
0000
0001
0010
0000
0000
1100
0000
0000
0110
0000
0000
,
1100
0000
0000
0110
0000
0000
1100
0000
0100
0010
0000
0001
,
0010
0000
1000
0100
0000
0000
0011
0000
0000
0000
0000
0000
,
1001
0000
0110
0000
,
1100
0000
0002
0000
,
0000
0000
0000
0000
,
0000
0000
0000
0000
0000
0000
1003
0000
0100
0010
0000
0001
,
0100
0000
0010
1000
0000
0100
0010
0000
0001
1000
0000
0000
,
0110
0000
0000
0000
0000
0001
0010
0000
0000
0100
0000
0000
,
1000
0001
0100
0010
0000
0000
1001
0000
0000
0110
0000
0000
,
0011
0000
0000
1100
0000
0000
0001
0000
0010
0100
0000
1000
,
0010
0000
0100
0001
0000
0010
0100
0000
1000
0001
0000
0000
,
0110
0000
0000
0000
0000
1000
0100
0000
0000
0010
0000
0000
,
0001
1000
0010
0100
0000
0000
1001
0000
0000
0000
0000
0000
,
1100
0000
0000
0011
0000
0000
1000
0000
0100
0010
0000
0001
,
0100
0000
0010
1000
0000
0100
0010
0000
0001
1000
0000
0000
,
0110
0000
0000
0000
0000
0001
0010
0000
0000
0100
0000
0000
,
1000
0001
0100
0010
0000
0000
1001
0000
0000
0110
0000
0000
,
0011
0000
0000
1100
0000
0000
0001
0000
0010
0100
0000
1000
,
0010
0000
0100
0001
0000
0010
0100
0000
1000
0001
0000
0000
,
0110
0000
0000
0000
0000
1000
0100
0000
0000
0010
0000
0000
,
0001
1000
0010
0100
0000
0000
1001
0000
0000
0110
0000
0000
,
1100
0011
0100
0100
,
1000
0001
0100
0010
0000
0000
1001
0000
0000
0110
0000
0000
,
0011
1100
0010
0010
,
0001
1000
0010
0100
0000
0000
1001
0000
0000
0110
0000
0000
,
1100
0011
0001
0001
,
0100
0010
0001
1000
0000
0000
0110
0000
0000
1001
0000
0000
,
1010
0101
1000
1000
,
0010
0100
1000
0001
0000
0000
0110
0000
0000
2002
0000
0000
,
0000
0000
0000
0000
0000
0000
0000
0000
0000
3003
0000
0000
0100
0000
0000
0000
0000
0000
0010
0000
0100
0000
0010
0000
,
0100
0010
0100
0010
0001
0010
0001
0010
0001
0010
1000
0010
,
1000
0010
1000
0010
0100
0001
0100
0001
0100
0001
1000
0001
,
1000
0001
1000
0001
0100
0001
0100
0001
0100
0001
0010
0001
,
0010
0001
0010
0001
1000
0100
1000
0100
1000
0100
0010
0100
,
0010
0100
0010
0100
1000
0100
1000
0100
1000
0100
0001
0100
,
0001
0100
0001
0100
0010
1000
0010
1000
0010
1000
0001
1000
,
0001
1000
0001
1000
0010
1000
0010
1000
0010
1000
0000
0000
,
1000
0001
0000
0000
;
