#VERSION:0.83;
#TITLE:LUCIA;
#ARTIST:SHIKI;
#GENRE:TRANCE;
#CREDIT:B. M'Rey;
#MUSIC:LUCIA.ogg;
#BANNER:LUCIA-bn.png;
#BACKGROUND:LUCIA-BG.png;
#CDTITLE:./CDTITLES/maimai GreeN.PNG;
#SAMPLESTART:13;
#SAMPLELENGTH:15;
#OFFSET:-0.590;
#BPMS:0=154;
#BGCHANGES:-1.090=LUCIA.AVI=1.000=0=0=1=====,;

//--------------- dance-single - B. M'Rey ----------------
#NOTEDATA:;
#STEPSTYPE:dance-single;
#DESCRIPTION:B. M'Rey;
#CREDIT:B. M'Rey;
#DIFFICULTY:Beginner;
#METER:3;
#RADARVALUES:0.133,0.16,0.062,0,0;
#NOTES:
0000
0000
0000
0000
,
0000
0000
0000
0000
,
0000
0000
0000
0000
,
0000
0000
0000
0000
,
1000
0000
0000
0000
,
0010
0000
0000
0000
,
0100
0000
0000
0000
,
0001
0000
0000
0000
,
1000
0000
0010
0000
,
0100
0000
0001
0000
,
0010
0000
0000
0000
,
0100
0000
0001
0000
,
1000
0000
0000
0000
,
0010
0000
0100
0000
,
0001
0000
1000
0000
,
0100
0000
0010
0000
,
1000
0000
0001
0000
,
0100
0000
0000
0000
,
0010
0000
0000
0000
,
0001
0000
1000
0000
,
0010
0000
0000
0000
,
0100
0000
0000
0000
,
0001
0000
1000
0000
,
0010
0000
0000
0000
,
0110
0000
0000
0000
,
0001
0000
0000
0000
,
1000
0000
0000
0000
,
0100
0000
0000
0000
,
0010
0000
0000
0000
,
1000
0000
0000
0000
,
0001
0000
0000
0000
,
0010
0000
0000
0000
,
1000
0000
0010
0000
,
0100
0000
0001
0000
,
1001
0000
0000
0000
,
0010
0000
0100
0000
,
0110
0000
0000
0000
,
0001
0000
0010
0000
,
0001
0000
0100
0000
,
0010
0000
0000
0000
,
1000
0000
0000
0010
,
0100
0000
0001
0000
,
1001
0000
0000
0100
,
0010
0000
1000
0000
,
1001
0000
0000
0010
,
0001
0000
0100
0000
,
0010
0000
1000
0000
,
0010
0000
0100
0000
,
0001
0000
0000
0000
,
1000
0000
0000
0000
,
0100
0000
0000
0000
,
0010
0000
0000
0000
,
1000
0000
0000
0000
,
0001
0000
0000
0000
,
0100
0000
0000
0000
,
0010
0000
0000
0000
,
1000
0000
0000
0000
,
0001
0000
0100
0000
,
0010
0000
0000
0000
,
1000
0000
0000
0000
,
0001
0000
0000
0000
,
0100
0000
0000
0000
,
0010
0000
1000
0000
,
0100
0000
0000
0000
,
0001
0000
0000
0010
,
0100
0000
1000
0000
,
0001
0000
0000
0100
,
0000
0000
0010
0000
,
0110
0000
0000
0000
,
1000
0000
0001
0000
,
0100
0000
0000
0000
,
0010
0000
1000
0000
,
1001
0000
0000
0000
;

//--------------- dance-single - B. M'Rey ----------------
#NOTEDATA:;
#STEPSTYPE:dance-single;
#DESCRIPTION:B. M'Rey;
#CREDIT:B. M'Rey;
#DIFFICULTY:Easy;
#METER:5;
#RADARVALUES:0.213,0.223,0.098,0,0;
#NOTES:
0000
0000
0000
0000
,
0000
0000
0000
0000
,
0000
0000
0000
0000
,
0000
0000
0000
0000
,
0010
0000
0000
0000
,
1000
0000
0000
0000
,
0001
0000
0000
0000
,
0100
0000
0001
0000
,
0100
1000
0010
0100
,
0001
0000
0100
0000
,
0010
0000
0000
1000
,
0100
0000
0001
1000
,
0010
0000
0001
1000
,
0001
0000
0010
0000
,
0100
0000
0001
0000
,
1000
0000
0001
0100
,
0010
1000
0100
1000
,
0010
0000
0001
0000
,
1000
0000
0000
0000
,
0001
0000
0010
0100
,
0010
0000
0100
0000
,
0001
0000
0010
0000
,
1000
0000
0010
0000
,
0100
0000
0010
0000
,
0001
0000
0001
0010
,
0100
0000
0010
0100
,
0001
0000
0001
0000
,
0010
0000
0100
0000
,
0001
0000
0100
1000
,
0001
0000
0001
0100
,
0010
0000
0001
0010
,
0001
0000
0010
0000
,
0100
0000
0100
1000
,
0010
0000
0001
0000
,
0101
0000
0001
0010
,
0100
0000
0001
0000
,
1010
0000
0100
0010
,
0001
0000
0100
0000
,
0010
0000
0001
1000
,
0100
0000
0001
0000
,
0110
0000
0001
0010
,
0100
0000
0100
0000
,
0101
0000
0010
1000
,
0100
0000
0001
0000
,
0110
0000
0001
0010
,
0001
0000
0100
0010
,
0100
0000
0100
0010
,
0001
0000
0001
0010
,
0100
0000
0000
0000
,
0010
0000
0000
0000
,
0001
0000
0000
0000
,
0001
0000
0000
0000
,
0010
0000
0000
0000
,
0100
0000
0000
0000
,
1000
0000
0000
0000
,
0100
0000
0000
0000
,
0100
0000
0001
1000
,
0001
0000
0010
0000
,
0110
0000
0001
0100
,
0001
0000
0001
0000
,
0110
0000
0001
1000
,
0100
0000
0010
0000
,
0100
0000
0001
0100
,
0010
0000
0100
0000
,
0110
0000
0001
0010
,
0001
0000
0001
0000
,
1100
0000
0100
0010
,
0100
0000
0010
0000
,
0101
0000
0010
0100
,
0001
0000
0100
0010
,
0100
0000
0010
0100
,
0001
0000
0010
0000
,
1001
0000
0000
0000
;

//--------------- dance-single - B. M'Rey ----------------
#NOTEDATA:;
#STEPSTYPE:dance-single;
#DESCRIPTION:B. M'Rey;
#CREDIT:B. M'Rey;
#DIFFICULTY:Medium;
#METER:9;
#RADARVALUES:0.394,0.351,0.106,0,0;
#NOTES:
0000
0000
0000
0000
,
0000
0000
0000
0000
,
0000
0000
0000
0000
,
0000
0000
0000
0000
,
0001
1000
0001
0000
,
0100
0010
0001
0000
,
0010
1000
0100
0000
,
0011
0000
0010
0000
,
0100
0001
0010
0000
0100
0010
1000
0000
,
0001
0100
0001
0100
,
0001
1000
0000
0010
,
0100
0000
0000
0000
0001
0010
0100
1000
,
0010
0000
0100
0000
0010
0000
1000
0001
,
0100
0000
1000
0000
0010
0000
0100
0001
,
0010
0000
1000
0000
0010
1000
0100
0000
,
0001
0000
0100
0010
,
0100
1000
0100
0000
0010
0001
0100
0000
,
0001
0010
0100
0010
,
0100
1000
0000
0000
,
0010
0000
0000
0000
0100
0001
0010
1000
,
0001
0000
0010
1000
,
0100
0000
0010
0000
0001
0000
0100
0010
,
0001
0000
0010
0000
0001
1000
0100
0000
,
0010
0000
0001
0000
,
0110
0000
0000
1000
0001
0000
0100
0000
,
0010
0000
0000
0100
0001
0000
1000
0000
,
0010
0000
0000
1000
0100
0000
0000
0100
,
0010
0000
0001
1000
,
0010
0000
0000
1000
0100
0000
0010
0000
,
0100
0000
0000
1000
0001
0010
1000
0000
,
0010
0000
0100
0010
,
0001
0000
0010
0100
,
0010
0000
1000
0000
0100
0000
0010
0001
,
0100
0000
1000
0010
0001
0000
0100
0000
,
1010
0000
1000
0000
0100
0010
1000
0000
,
0001
0100
0010
0000
0001
0000
0100
0000
,
0110
0000
1000
0000
0100
0001
0010
0000
,
0001
1000
0100
0000
0001
0000
0010
0000
,
0100
0000
0010
1000
0001
0000
0100
0010
,
0001
0010
0001
0100
,
0110
0000
1000
0000
0001
0010
0100
0000
,
0001
1000
0010
0000
0100
0000
0010
0000
,
1001
0000
0100
0000
0010
0001
1000
0000
,
0001
1000
0010
0000
0001
0000
0100
0000
,
0010
0001
1000
0000
0100
1000
0010
0000
,
0001
0000
1000
0000
0100
0001
0010
0000
,
0001
0000
1000
0000
0010
0001
0100
0000
,
0010
0000
0100
0000
0010
0001
1000
0000
,
0100
0010
0100
0010
,
0001
1000
0010
1000
,
0001
0010
0100
1000
,
0010
1000
0100
0010
,
0001
0010
0100
1000
,
0001
0010
0001
0010
,
0100
1000
0010
0100
,
0001
1000
0010
1000
,
0100
0000
0010
0000
0001
1000
0010
0001
,
0100
0000
0010
1000
0001
0000
0100
0000
,
0011
0000
0000
0000
0100
0010
0100
0000
,
0100
0000
0101
0000
,
1001
0000
0000
0000
0100
0001
1000
0010
,
1100
0000
0110
0000
,
0001
0010
0100
0000
0001
1000
0010
0000
,
0100
1000
0100
1000
,
0010
0001
1000
0000
0100
0001
0010
0000
,
0100
0000
1000
0000
0010
0001
0100
0000
,
0001
0000
0100
0000
0001
1000
0100
0001
,
0010
0000
1000
0000
0100
0001
0010
0000
,
0100
0000
0010
0000
0001
0000
1000
0100
,
0001
0000
0100
0000
0010
1000
0100
0000
,
0001
0100
0010
0000
0100
0001
1000
0000
,
0010
1000
0010
0100
,
1001
0000
0000
0000
;

//--------------- dance-single - B. M'Rey ----------------
#NOTEDATA:;
#STEPSTYPE:dance-single;
#DESCRIPTION:B. M'Rey;
#CREDIT:B. M'Rey;
#DIFFICULTY:Hard;
#METER:11;
#RADARVALUES:0.552,0.511,0.142,0,0.186;
#NOTES:
0000
0000
0000
0000
,
0000
0000
0000
0000
,
0000
0000
0000
0000
,
0000
0000
0000
0000
,
1000
0000
0000
0001
0000
0000
0100
0000
0000
0001
0000
0000
1000
0000
0001
0000
,
1000
0000
0000
0010
0000
0000
0100
0000
0000
0001
0000
0000
1000
0000
0010
0000
,
0001
0000
0000
1000
0000
0000
0100
0000
0000
0001
0000
0000
0010
0000
0100
0000
,
0010
0000
0010
1000
0100
1000
0010
0000
,
0001
0000
1000
0000
0001
0000
1000
0010
0000
0010
1000
0000
0001
0000
0010
0000
,
0001
0000
0000
0010
0000
0000
1000
0000
0000
0001
0000
0000
0100
0000
1000
0000
,
0010
0000
0000
1000
0000
0000
0100
0000
0000
0001
0000
0000
0010
0000
0100
0000
,
0001
0000
0010
0000
0001
0010
0100
1000
,
0001
0000
0000
0000
0100
0000
0010
0000
0001
0000
0000
1000
0000
0000
0010
0000
,
0001
0000
1100
0000
0100
1000
0100
0010
,
0001
0000
0000
0000
0100
0000
0010
0000
0100
0000
0000
0001
0000
0000
1000
0000
,
0001
0000
0000
0000
0010
0000
0000
0000
0010
0000
0000
1000
0000
0000
1000
0000
,
0100
0000
0010
0000
0100
0000
1000
0100
0000
0100
0010
0000
0001
0000
0100
0000
,
0001
0000
0000
0100
0000
0000
0010
0000
0000
0100
0000
0000
1000
0000
0010
0000
,
0100
0000
0000
0010
0000
0000
0001
0000
0000
0010
0000
0000
0001
0000
0010
0000
,
0100
0000
1000
0000
0100
0010
0001
0010
,
0001
0000
0000
0000
0100
0000
0010
0000
0100
0000
0000
1000
0000
0000
1000
0000
,
0001
0000
1001
0000
0001
0100
0010
1000
,
0010
0000
0000
0000
0100
0000
0010
0000
0100
0000
0000
0010
0000
0000
1000
0000
,
0010
0000
0100
0000
0001
0000
0010
0100
,
0001
0000
0000
0000
0001
0000
0010
0000
0001
0000
0000
0010
0000
0000
1000
0000
,
0010
0000
0010
0100
0001
1000
0001
1000
,
0100
0000
0001
0100
0001
0000
0010
0100
,
0001
0000
0001
0100
0001
0100
0010
1000
,
0010
0000
0000
0000
0001
0000
1000
0000
0010
0000
0000
0001
0000
0000
0100
0000
,
0010
0000
0010
1000
0010
1000
0001
1000
,
0100
0000
0000
0000
0100
0000
1000
0000
0100
0000
0000
0001
0000
0000
1000
0000
,
0001
0000
0001
0100
0010
0100
0010
1000
,
0010
0000
0001
1000
0001
0000
1000
0000
0001
0000
0100
0001
0100
0000
0100
0000
,
0010
0000
0010
1000
0010
0000
0001
0010
,
1001
0000
0100
0000
0100
0010
0100
1000
,
0001
0000
0001
1000
0100
0000
0100
0010
,
0100
0000
1001
0000
0001
0010
0001
1000
,
0010
0000
0010
1000
0100
0000
0100
1000
,
0001
0000
0001
1000
0010
0100
0010
0100
,
0010
0000
0000
0000
0001
0000
0100
0010
0100
0000
1000
0000
0010
0000
0100
0000
,
0010
0000
0000
0000
0010
0000
1000
0001
1000
0000
1000
0000
0001
0000
1000
0000
,
0100
0000
0000
0000
0001
0000
0010
0100
0010
0000
0010
0000
0100
0000
1000
0000
,
0100
0000
1001
0000
0001
0100
0001
0100
,
0010
0000
0000
0000
0010
0000
1000
0010
1000
0000
0000
0100
0000
0000
1000
0000
,
0100
0000
1100
0000
0001
0100
0001
0100
,
0001
0000
0000
0000
0100
0000
1000
0100
1000
0000
1000
0000
0001
0000
0010
0000
,
0100
0000
0000
0000
0100
0000
1000
0010
0100
0000
0100
0000
0001
0000
1000
0000
,
0100
0000
0010
0000
0100
1000
0001
1000
,
0001
1000
0010
1000
,
0001
1000
0010
0100
,
0010
1000
0010
1000
,
0001
0100
0001
0100
,
0001
1000
0010
1000
,
0010
1000
0100
0010
,
0001
1000
0100
1000
,
0100
0010
0100
1000
,
0010
1000
0100
0000
0100
1000
0100
0010
,
0001
0000
0000
0000
0001
0000
1000
0001
1000
0000
0000
0000
0100
0000
0010
0000
,
0100
0000
0000
0000
0100
1000
0100
1000
,
0010
0000
0000
0000
0000
0000
0100
0010
0100
0000
0000
0000
0001
0000
0000
0000
,
0100
0000
0000
0000
0001
1000
0100
1000
,
0101
0000
0000
0000
0000
0000
1010
0000
1010
0000
0000
0100
0000
0000
1000
0000
,
0001
0100
0010
0100
0010
1000
0001
0100
,
0101
0110
1010
1010
,
0100
0000
0010
0100
0010
0100
0001
0100
,
0001
0000
0010
1000
0100
0000
0010
0100
,
0001
0000
0101
0000
0010
1000
0100
1000
,
0010
0000
0000
0000
0100
0000
0100
0010
0100
0000
0000
0001
0000
0000
1000
0000
,
0010
0000
1010
0000
0001
0010
0001
0010
,
0001
0000
0000
0000
0100
0000
1000
0010
1000
0000
1000
0000
0010
0000
0100
0000
,
0010
0000
0000
0000
0001
0000
1000
0001
0010
0000
1000
0000
0100
0000
0010
0000
,
0100
0000
0100
1000
0001
0000
1000
0000
,
1001
0000
0000
0000
;
