#VERSION:0.83;
#TITLE:キミが好きで;
#ARTIST:Ryu☆ Ft. Puchi;
#TITLETRANSLIT:Kimigasukide;
#GENRE:J-POP;
#CREDIT:B. M'Rey;
#MUSIC:Kimigasukide.ogg;
#BANNER:Kimigasukide-bn.png;
#BACKGROUND:Kimigasukide-bg.png;
#CDTITLE:./CDTITLES/DANCE DANCE REVOLUTION SPACE.PNG;
#SAMPLESTART:68.854;
#SAMPLELENGTH:15;
#OFFSET:-0.229;
#BPMS:0=160;

//--------------- dance-single - B. M'Rey ----------------
#NOTEDATA:;
#STEPSTYPE:dance-single;
#DESCRIPTION:B. M'Rey;
#DIFFICULTY:Beginner;
#METER:5;
#RADARVALUES:0,0,0,0,0;
#CREDIT:B. M'Rey;
#NOTES:
0000
0000
0000
0000
,
0000
0000
0000
0000
,
0000
0000
0000
0000
,
0000
0000
0000
0000
,
0000
0000
0000
0000
,
0000
0000
0000
0000
,
0000
0000
0000
0000
,
0000
0000
0000
0000
,
0000
0002
0000
0000
,
0000
0103
0000
0001
,
0100
0020
0000
0000
,
0000
0130
0000
0002
,
0000
0203
0000
0320
,
0000
0230
0000
0000
,
0310
0002
0000
0203
,
0000
0310
0000
0010
,
1000
0200
0000
0000
,
0000
0300
0000
0000
,
0000
0000
0001
0100
,
0000
1000
0000
1000
,
0000
0000
0100
0010
,
0000
0100
0000
1000
,
0000
0000
0100
0000
,
0001
0000
0001
0000
,
0001
0100
0000
0010
,
0000
0001
0000
0000
,
0000
0000
0100
1000
,
0000
1000
0000
0010
,
0000
0000
0100
0010
,
0000
0100
0000
1000
,
0000
0000
0001
0000
,
0001
0010
0000
1000
,
0000
0010
0000
0100
,
0000
0010
0000
0100
,
0001
0002
0000
0000
,
0000
0103
0000
0100
,
0000
0010
0000
0001
,
0000
0100
0010
0100
,
0000
1000
2000
0000
,
0000
3002
0000
0000
,
0013
1000
0000
0010
,
0000
1000
0010
0100
,
0000
0100
0000
0010
,
0000
1000
0010
0000
,
0001
2000
0000
0000
,
0000
3000
0000
0000
,
0000
0010
1000
0010
,
1000
0010
1000
0001
,
0100
0010
0100
0001
,
1000
0010
0100
0001
,
0010
0001
1000
0001
,
0100
0001
0100
0010
,
1000
0100
0010
0001
,
1000
0001
0100
0010
,
1000
0001
0010
0100
,
1000
0001
1000
0100
,
1000
0010
1000
0100
,
0010
0100
0010
0001
,
1000
0010
1000
0001
,
0100
0010
0100
0001
,
0100
0001
0100
0001
,
0010
0001
0100
0101
,
0200
0000
0000
0000
,
0000
0000
0000
0000
,
0000
0300
0000
0000
,
0000
1001
0000
0000
,
0000
0002
0000
0000
,
0000
0013
0000
1000
,
0000
0002
0000
0000
,
0000
1003
0000
0010
,
0000
0200
0000
0301
,
0000
0002
0000
0000
,
0013
1000
0000
0000
,
0000
0000
0000
0000
,
0000
0001
0000
0010
,
0000
0100
0000
0010
,
0000
0001
0000
0010
,
0000
0100
0000
1000
,
0000
0001
0000
1000
,
0000
0010
0000
0100
,
0000
1001
0000
0000
;

//--------------- dance-single - B. M'Rey ----------------
#NOTEDATA:;
#STEPSTYPE:dance-single;
#DESCRIPTION:B. M'Rey;
#DIFFICULTY:Easy;
#METER:7;
#RADARVALUES:0,0,0,0,0;
#CREDIT:B. M'Rey;
#NOTES:
0000
0000
0000
0000
,
0000
0000
0000
0000
,
0000
0000
0000
0000
,
0000
0000
0000
0000
,
0000
0000
0000
0000
,
0000
0000
0000
0000
,
0000
0000
0000
0000
,
0000
0000
0000
0000
,
0000
0200
0000
0000
,
0300
0010
1000
0001
,
1000
0002
0000
0000
,
0003
0010
1000
0200
,
0000
0320
0000
0031
,
0010
0002
0000
0000
,
0103
0020
0000
0031
,
0010
0200
0000
0301
,
0100
2000
0000
0000
,
0000
3002
0000
0000
,
0000
0013
0100
0001
,
0000
0010
1000
0100
,
1000
0000
1000
0001
,
0000
0100
0010
0100
,
0010
0000
0100
0000
,
1000
0100
1000
0010
,
1000
0100
0010
0001
,
0010
0100
0000
0001
,
0000
0010
0100
0001
,
0000
0100
0010
0100
,
1000
0000
0100
0010
,
0000
0001
1000
0001
,
0010
0000
1000
0000
,
0010
0001
0100
0010
,
0000
0010
0100
0001
,
0020
0000
1030
0100
,
1000
0002
0000
0000
,
0013
0001
0010
0100
,
1000
0100
1000
0100
,
0010
0001
0010
0100
,
0010
0001
2000
0000
,
3100
0001
1000
0001
,
0010
0100
0010
0001
,
1000
0100
0010
0100
,
0000
0100
0000
0010
,
1000
0100
1000
0010
,
0000
2000
0000
0001
,
0000
3001
0000
0001
,
1000
0001
0010
0001
,
0010
0100
0010
0100
,
1000
0100
1000
0010
,
1000
0010
0100
0010
,
0100
0001
0000
0001
,
0010
0001
0000
0100
,
0010
0100
0000
0100
,
1000
0001
0000
0001
,
0100
0010
0100
0010
,
0100
0001
0010
0001
,
0010
0001
0100
0010
,
0100
0010
0100
0001
,
1000
0001
0000
0001
,
0010
0100
0000
0100
,
0010
0001
0000
0001
,
0010
0001
0010
0100
,
2000
0000
3001
0020
,
0000
0000
0000
0000
,
0000
0130
0000
1000
,
0000
0001
0000
0000
,
0000
0200
0000
0000
,
0000
0301
0010
0001
,
0100
0020
0000
0000
,
0000
0031
0100
0002
,
0000
0203
0000
0301
,
0100
0020
0000
0000
,
1030
0200
0000
0301
,
0100
0010
1000
0100
,
1000
0010
0100
0001
,
0100
0010
1000
0100
,
0010
0001
0100
0010
,
1000
0010
0100
0010
,
1000
0100
0010
0100
,
0010
0001
0100
0010
,
0100
1001
0000
0000
;

//--------------- dance-single - B. M'Rey ----------------
#NOTEDATA:;
#STEPSTYPE:dance-single;
#DESCRIPTION:B. M'Rey;
#DIFFICULTY:Medium;
#METER:9;
#RADARVALUES:0,0,0,0,0;
#CREDIT:B. M'Rey;
#NOTES:
0000
0000
0000
0000
,
0000
0000
0000
0000
,
0000
0000
0000
0000
,
0000
0000
0000
0000
,
0000
0000
0000
0000
,
0000
0000
0000
0000
,
0000
0000
0000
0000
,
0000
0000
0000
0000
,
0000
0000
0001
0100
0001
0000
0001
1000
,
0010
0000
0010
1000
0001
0000
0001
0010
,
0001
0000
0010
0000
0010
0100
0001
1000
,
0001
1000
0000
0010
0100
0010
0100
0010
,
0001
1000
0000
0000
0001
0000
0100
0000
,
0100
1000
0000
0000
0010
0000
0001
0010
,
0001
0000
0001
1000
0010
0000
0100
1000
,
0010
0000
0010
0000
0001
0100
0001
0000
,
0001
1000
0001
0000
0010
0000
0100
0000
,
1000
0001
0000
1000
,
0000
0001
1000
0010
,
0001
1000
0010
0000
0010
1000
0100
0000
,
0100
0000
0100
0000
0010
0100
0001
0000
,
0010
0000
0010
0100
0001
0000
0100
0010
,
0100
0000
0100
0000
0001
1000
0010
0000
,
0001
0100
0001
0000
0100
0000
0001
0000
,
0010
1000
0010
0000
1000
0000
0010
0000
,
0100
1000
0100
0000
0100
0000
1000
0000
,
0010
0000
0100
0000
0010
0100
0010
0000
,
0010
0100
0001
0000
0100
1000
0100
1000
,
0001
0001
0100
0001
,
0010
0100
0001
0000
0010
0100
0001
0010
,
0001
0000
0010
0000
0001
0010
0100
0000
,
0010
1000
0001
0000
0100
0000
0010
0000
,
0100
1000
0010
0000
1000
0000
0010
0000
,
1000
0010
0100
0001
,
1000
0010
0001
0000
0010
0000
0001
0000
,
0010
1000
0010
0000
0100
0000
0001
0000
,
0001
0010
0100
0000
1000
0000
0100
0000
,
0001
0000
0010
0000
0010
1000
0001
0000
,
0010
1000
0100
0000
0020
0000
0000
0000
,
0031
0001
0100
0100
,
0001
0100
0001
0000
0100
0000
1000
0000
,
0010
1000
0001
0100
,
0001
0100
0010
0000
0100
0000
0010
0000
,
0100
0010
1000
0100
,
1000
0100
2000
0000
0000
0000
0000
0001
,
0000
0010
3002
0000
0000
0000
0013
0000
,
1000
0000
0100
0000
0010
0100
0000
0000
,
0010
0000
0001
0000
0001
1000
0000
0000
,
0100
0000
0001
1000
0001
1000
0000
0000
,
0001
0010
0100
0000
0010
0000
0001
0000
,
1000
0010
0100
0001
,
1000
0100
1000
0010
,
0100
0000
0001
0000
0000
1000
0010
0000
,
0001
0001
0000
0100
,
0001
0000
0010
0000
0001
1000
0000
0000
,
0001
0000
0001
0000
0001
1000
0000
0000
,
0100
0000
0001
0000
0001
0010
0000
0000
,
0001
1000
0001
0000
0010
0000
0100
0000
,
0010
0000
1000
0000
0000
0000
0010
1000
,
0100
0001
0000
0001
,
0100
0000
0010
0000
0000
1000
0001
1000
,
0001
0100
1000
0100
,
0010
0200
0001
0002
,
0000
0000
0000
0000
,
0000
0303
0100
0000
1000
0000
0010
0000
,
1000
0100
0000
0100
,
0010
0001
1000
0001
,
1000
0000
0001
0010
0001
0000
0010
0100
,
0010
0010
0100
0001
,
0100
0000
0001
0010
0001
0000
0010
1000
,
0001
0000
0001
0000
1000
0000
0001
1000
,
0001
0010
0100
1000
,
0001
0010
0001
0000
0100
0000
1000
0000
,
0010
1000
0001
0010
,
0100
0001
1000
0001
,
1000
0001
0100
0010
,
0100
0010
0100
0001
,
1000
0001
1000
0001
,
0100
0010
0100
0010
,
0100
0001
0010
0001
,
0010
2002
0000
0000
,
3003
0000
0000
0000
;

//--------------- dance-single - B. M'Rey ----------------
#NOTEDATA:;
#STEPSTYPE:dance-single;
#DESCRIPTION:B. M'Rey;
#DIFFICULTY:Hard;
#METER:13;
#RADARVALUES:0,0,0,0,0;
#CREDIT:B. M'Rey;
#NOTES:
0000
0000
0000
0000
,
0000
0000
0000
0000
,
0000
0000
0000
0000
,
0000
0000
0000
0000
,
0000
0000
0000
0000
,
0000
0000
0000
0000
,
0000
0000
0000
0000
,
0000
0000
0000
0000
,
0000
0000
0001
1000
0001
1000
0001
0010
,
0100
0010
0100
0010
0001
1000
0001
1000
,
0001
0010
0100
1000
0001
1000
0001
1000
,
0010
0100
0001
0100
0001
0100
0010
1000
,
0010
1000
0010
0100
0001
0010
0001
0010
,
0001
1000
0010
0100
0010
0100
0010
1000
,
0100
1000
0100
1000
0010
0100
0010
0100
,
0010
1000
0001
1000
0001
1000
0010
0100
,
0010
0100
0100
0000
0010
0000
0001
0000
,
0010
0100
0000
1000
,
0000
0000
0100
0000
0100
1000
0001
0000
,
0001
1000
0100
1000
0100
1000
0001
0010
,
0100
0000
0010
0000
0100
0010
0001
0000
,
0001
0100
0001
0010
0100
0010
0100
0010
,
0001
0000
0010
0000
0001
0010
0100
0000
,
0001
0010
0100
0000
0001
0000
0100
0000
,
0100
0010
1001
0000
1001
0000
0101
0000
,
0010
1000
0100
0000
0100
1000
0001
0000
,
0100
1000
0001
0000
0101
0000
0110
0000
,
0010
0100
0001
1000
0100
0010
0001
1000
,
0001
0010
1100
1100
,
0100
0010
0001
1000
0010
1000
0001
1000
,
0001
0000
0100
0000
0001
0100
0001
0000
,
0001
0010
0100
0000
0100
0000
0010
0000
,
0010
0100
0010
0000
0001
0000
0100
0000
,
0001
0100
0000
0100
0010
0000
0001
0000
,
0100
0010
0001
0000
0001
0100
0010
0000
,
0010
1000
0100
0000
0001
2000
0000
0000
,
3010
1000
0100
0000
0100
0000
0001
0000
,
0100
0010
0000
1000
0001
0000
0001
0000
,
0010
0100
0001
0000
0200
0000
0001
0000
,
0301
0010
0001
0000
0010
1000
0000
0000
,
0010
0100
0001
0000
0001
0000
0010
1000
,
0001
0001
0010
0100
,
0001
1000
0100
0000
0100
0010
0100
2000
,
0000
0000
3001
1000
0010
0200
0000
0000
,
0301
0000
0000
1000
0020
0000
0000
0000
0100
0000
0000
0000
0100
0000
0000
0000
,
0100
1030
0000
2000
,
3020
0000
0130
0001
0100
0001
0000
0100
,
1000
0001
1000
0001
0100
0010
0000
0001
,
0010
0100
0010
0001
1000
0001
0000
0010
,
0100
0010
0100
0000
1001
0000
0110
0000
,
1100
0000
1100
0000
0100
0000
0010
0100
,
1000
0000
1000
0000
0100
0001
0010
0000
,
0010
0000
2000
0000
3100
0000
0100
0010
,
1000
0020
0130
2000
,
3002
0000
0013
0001
0010
0100
0000
0010
,
1000
0001
1000
0010
0100
0001
0000
0100
,
1000
0001
0100
0010
1000
0001
0000
0100
,
1000
0001
1000
0000
0110
0000
0110
0000
,
0101
0000
0011
0000
0010
0000
0100
0001
,
0010
2000
0100
3100
,
0010
0000
1000
0000
1000
0000
0010
0001
,
0100
0010
0010
1000
,
1000
0010
1000
0000
0200
0000
2300
0000
,
0001
0010
0100
0100
,
0001
3100
0010
1000
,
0100
1001
0000
0200
,
0320
0000
1030
0001
1000
0001
0100
0001
,
0100
0010
0100
0010
1000
0010
1000
0001
,
1000
0001
0010
0001
0010
0100
0010
0100
,
1000
0100
1000
0001
1000
0001
0100
0010
,
0100
0010
0100
0001
0010
0001
0010
0100
,
0010
0100
1000
0100
1000
0001
0010
0001
,
0010
0000
0001
0000
2000
0000
0000
0000
3002
0000
0000
0000
2003
0000
0000
3020
,
0032
0000
0000
0000
2003
0000
0000
0000
0020
3000
0000
0000
0230
0000
0000
0000
,
0320
0000
1030
0010
1000
0010
1000
0100
,
0010
0100
0010
0100
1000
0010
1000
0001
,
1000
0001
0010
0001
0010
0100
0010
0100
,
1000
0001
0100
0001
0100
0001
0010
0100
,
1000
0100
1000
0100
0010
0001
1000
0001
,
1000
0100
1000
0100
0010
0100
0010
0001
,
0010
2002
0000
0000
,
3003
0000
0000
0000
;
