#TITLE:風の行方 -2nd-;
#ARTIST:SENTIVE;
#TITLETRANSLIT:Kaze no Yukue -2nd-;
#GENRE:GAME;
#CREDIT:B. M'Rey;
#MUSIC:Kaze no Yukue -2nd-.ogg;
#BANNER:Kaze no Yukue -2nd--bn.png;
#BACKGROUND:Kaze no Yukue -2nd--bg.png;
#CDTITLE:./CDTITLES/Dance Dance Revolution SPACE.PNG;
#SAMPLESTART:40.835;
#SAMPLELENGTH:15;
#OFFSET:-0.104;
#BPMS:0=100;

//--------------- dance-single - B. M'Rey ----------------
#NOTES:
     dance-single:
     B. M'Rey:
     Beginner:
     2:
     0,0,0,0,0:
0000
0000
0000
0000
,
0000
0000
0000
0000
,
0000
0000
0000
0000
,
0000
0000
0000
0000
,
0000
1000
0000
0000
0000
0000
0000
0000
,
0000
0001
0000
0000
0000
0000
0000
0000
,
0000
0100
0000
0000
0000
0000
0000
0000
,
0000
0010
0000
0000
0000
0000
0000
0000
,
0000
0001
0000
0000
0000
0000
0000
0000
,
0000
0100
0000
0000
0000
0000
0000
0000
,
0000
1000
0000
0000
0000
0000
0000
0000
,
0000
0001
0000
0000
0000
0000
0000
0000
,
0000
0100
0000
0000
0000
0000
0000
0000
,
0000
0010
0000
0000
0000
0000
0000
0000
,
0000
1000
0000
0000
0000
0000
0000
0000
,
0000
0001
0000
0000
0000
0000
0000
0000
,
0000
0010
0000
0000
0000
0000
0000
0000
,
0000
1000
0000
0000
0000
0001
0000
0000
,
0000
0100
0000
0000
0000
0010
0000
0000
,
0000
1000
0000
0000
0000
0100
0000
0000
,
0000
0001
0000
0000
0000
0010
0000
0000
,
0000
0110
0000
0000
0000
1000
0000
0000
,
0000
0001
0000
0000
0000
0010
0000
0000
,
0000
0001
0000
0000
0000
0100
0000
0000
,
0000
0010
0000
0000
0000
1000
0000
0000
,
0000
0001
0000
0000
0000
0000
0000
0000
,
0000
0100
0000
0000
0000
0000
0000
0000
,
0000
0010
0000
0000
0000
0000
0000
0000
,
0000
1000
0000
0000
0000
0000
0000
0000
,
0000
0001
0000
0000
0000
0000
0000
0000
,
0000
0100
0000
0000
0000
0000
0000
0000
,
0000
1000
0000
0000
0000
0001
0000
0000
,
0000
1000
0000
0000
0000
0000
0000
0000
,
0000
0010
0000
0000
0000
0000
0000
0000
,
0000
0100
0000
0000
0000
0000
0000
0000
,
0000
0001
0000
0000
0000
0000
0000
0000
,
0000
1000
0000
0000
0000
0000
0000
0000
,
0000
0010
0000
0000
0000
0000
0000
0000
,
0000
0100
0000
0000
0000
0000
0000
0000
,
0000
0010
0000
0000
0000
0100
0000
0000
,
0000
0010
0000
0000
0000
0000
0000
0000
,
0000
0001
0000
0000
0000
1000
0000
0000
,
0000
0010
0000
0000
0000
0100
0000
0000
,
0000
0010
0000
0000
0000
0001
0000
0000
,
0000
1000
0000
0000
0000
0010
0000
0000
,
0000
0100
0000
0000
0000
0010
0000
0000
,
0000
1001
0000
0000
0000
0010
0000
0000
,
0000
0100
0000
0000
0000
0001
0000
0000
,
0000
1000
0000
0000
0000
0010
0000
0000
,
0000
0100
0000
0000
0000
0010
0000
0000
,
0000
0001
0000
0000
0000
0000
0000
0000
,
0000
0100
0000
0000
0000
0000
0000
0100
,
0000
0100
0000
0000
0000
0000
0000
0000
,
0000
1000
0000
0000
0000
0000
0000
0001
,
0000
0001
0000
0000
0000
0000
0000
0000
,
0000
0100
0000
0000
0000
0000
0000
0010
,
0000
0010
0000
0000
0000
1000
0000
1000
,
0000
0000
0000
0001
0000
0000
0000
1000
,
0000
0000
0000
0010
0000
0000
0000
0100
,
0000
0000
0000
0001
0000
0000
0000
1000
,
0000
0000
0000
0010
0000
0000
0000
0100
,
0000
0000
0000
0001
0000
0000
0000
1001
,
0000
0000
0000
0100
0000
0000
0000
0010
,
0000
0000
0000
1000
0000
0000
0000
0100
,
0000
0000
0000
0001
0000
0000
0000
0010
,
0000
0000
0000
1000
0000
0000
0000
0000
;

//--------------- dance-single - B. M'Rey ----------------
#NOTES:
     dance-single:
     B. M'Rey:
     Easy:
     4:
     0,0,0,0,0:
0000
0000
0000
0000
,
0000
0000
0000
0000
,
0000
0000
0000
0000
,
0000
0000
0000
0000
,
0000
0001
0000
1000
0000
0001
0000
0000
,
0000
0001
0000
0010
0000
0100
0000
0010
,
0000
0001
0000
0010
0000
0001
0000
1000
,
0000
0001
0000
0000
0000
1100
0000
0000
,
0000
0100
0000
0010
0000
0100
0000
0010
,
0000
0001
0000
0010
0000
0001
0000
1000
,
0000
0001
0000
1000
0000
0010
0000
1000
,
0000
0100
0000
0010
0000
0001
0000
0010
,
0000
0001
0000
0010
0000
0100
0000
1000
,
0000
0001
0000
1000
0000
0001
0000
1000
,
0000
0010
0000
0100
0000
0001
0000
0100
,
0000
0010
0000
0100
0000
0001
0000
0010
,
0000
0011
0000
0000
0000
0101
0000
0000
,
0000
0010
0000
1000
0000
0100
0000
0000
,
0000
0100
0000
0010
0000
0100
0000
0000
,
0000
0001
0000
0010
0000
0001
0000
0000
,
0000
0001
0000
0010
0000
0100
0000
0000
,
0000
0110
0000
0010
0000
0001
0000
0000
,
0000
0001
0000
0100
0000
0001
0000
0000
,
0000
0100
0000
0010
0000
0100
0000
0010
,
0000
0001
0000
0000
0000
0001
0000
0000
,
0000
0001
0000
1000
0000
0000
0000
0000
,
0000
0100
0000
0010
0000
0100
0000
1000
,
0000
0010
0000
1000
0000
0000
0000
0000
,
0000
0001
0000
0010
0000
0001
0000
0010
,
0000
0001
0000
1000
0000
0000
0000
0000
,
0000
0010
0000
0100
0000
0010
0000
0000
,
0000
1100
0000
0000
0000
1100
0000
0000
,
0000
0001
0000
0000
0000
0100
0000
0000
,
0000
0001
0000
1000
0000
0000
0000
0000
,
0000
0001
0000
1000
0000
0001
0000
0100
,
0000
0001
0000
1000
0000
0000
0000
0000
,
0000
0100
0000
1000
0000
0100
0000
1000
,
0000
0001
0000
1000
0000
0000
0000
0000
,
0000
0001
0000
0010
0000
0100
0000
0010
,
0000
0100
0000
0000
0000
1000
0000
0000
,
0000
0001
0000
1000
0000
0010
0000
0100
,
0000
0101
0000
0000
0000
0101
0000
0000
,
0000
0010
0000
1000
0000
0010
0000
0000
,
0000
0010
0000
0100
0000
0001
0000
0000
,
0000
0001
0000
0100
0000
0010
0000
1000
,
0000
0100
0000
0010
0000
0001
0000
0010
,
0000
0100
0000
0010
0000
0100
0000
0000
,
0000
0100
0000
1000
0000
0010
0000
0000
,
0000
0010
0000
0100
0000
0010
0000
1000
,
0000
0100
0000
0000
0000
0100
0000
0010
,
0000
0100
0000
0000
0000
0001
0000
0000
,
0000
0100
0000
0000
0000
0002
0000
0000
,
0000
0013
0000
0000
0000
0100
0000
0000
,
0000
1000
0000
0000
0000
0200
0000
0000
,
0000
0301
0000
0000
0000
0010
0000
0000
,
0000
0001
0000
0000
0000
2000
0000
0000
,
0000
3010
0000
1000
0000
0010
0000
1000
,
0000
0000
0000
0000
0000
0000
0002
0000
0000
0000
0000
0000
0000
0000
0000
0000
0000
0000
0010
0003
0000
0000
0000
0000
0000
0000
0000
0000
0000
0000
0001
0000
0000
0000
0000
0000
0000
0000
0000
0000
0000
0000
0010
0000
0000
0000
0000
0000
,
0000
0001
0000
0100
0000
0000
0000
0100
,
0000
0010
0000
0100
0000
0000
0000
1000
,
0000
0001
0000
1000
0000
0000
0000
0010
,
0000
0100
0000
0010
0000
0000
0000
1000
,
0000
0100
0000
0010
0000
0000
0000
0010
,
0000
0001
0000
0010
0000
0000
0000
1000
,
0000
0100
0000
1000
0000
0000
0000
0010
,
0000
0001
0000
0010
0000
0001
0000
0000
;

//--------------- dance-single - B. M'Rey ----------------
#NOTES:
     dance-single:
     B. M'Rey:
     Medium:
     7:
     0,0,0,0,0:
0000
0000
0000
0000
,
0000
0000
0000
0000
,
0000
0000
0000
0000
,
0000
0000
0000
0000
,
0001
0010
0000
1000
0000
0010
0000
0000
,
0100
0000
0010
0000
0100
0000
0001
0000
0010
1000
0000
0000
0010
0000
0100
0000
,
0001
0010
0000
1000
0100
1000
0000
0001
,
0010
0001
0000
0000
0000
1000
0000
0001
,
0000
1000
0000
0010
0000
0100
0000
0001
,
0000
0001
1000
0001
0000
0010
1000
0100
,
0000
0001
0000
1000
0000
0010
0100
0001
,
0000
0010
1000
0100
0000
0001
0010
0001
,
0000
0100
0000
0010
0000
1000
0100
1000
,
0000
0001
0010
0001
0000
0010
0000
0100
,
0000
0001
0010
0001
0000
1000
0100
1000
,
0000
0010
0100
0010
0000
0001
0010
0001
,
0000
1000
0000
0010
0000
0100
0010
0001
,
0001
1000
0001
0000
0000
0000
0010
0000
0000
0000
0100
0000
0000
0000
0000
0000
,
1000
0000
0100
0000
1000
0000
0010
0000
0001
1000
0000
0000
0000
0000
0000
0000
,
0010
0100
0001
0000
0000
0000
0010
0000
0000
0000
1000
0000
0000
0000
0010
0000
,
0100
0001
0000
0010
1000
0100
0000
0010
,
0001
0010
0001
0000
0000
0000
1000
0000
0000
0000
0010
0000
0000
0000
0100
0000
,
0010
0000
1000
0000
0100
0000
1000
0000
0001
0010
0000
0000
0100
0000
0010
0000
,
0001
0010
0000
1000
0100
1000
0000
0010
,
0100
0000
0001
0000
0000
0000
0010
0000
0000
0000
1001
0000
0000
1001
0000
1001
,
0000
0001
1000
0010
0100
0000
0000
0000
,
0000
0001
0000
0010
0000
0100
0000
1000
,
0000
0010
0100
0010
0001
0000
0000
0000
,
0000
1000
0000
0010
0000
0100
0000
0010
,
0000
1000
0100
1000
0100
0000
0000
0000
,
0000
0000
0001
0000
0000
0000
0010
0000
0000
0000
0100
0000
0000
0010
0000
0100
,
0000
0001
0000
1000
0001
0000
0010
0100
,
0000
0001
0000
0010
0000
0001
0000
0100
,
0000
0010
1000
0010
0100
0000
0000
0010
,
0001
0010
0000
0100
1000
0100
0010
0001
,
0000
0001
1000
0010
1000
0000
0000
0100
,
0000
0010
0000
0001
0000
1000
0000
0010
,
0000
0100
0010
0100
1000
0000
0001
0010
,
0000
0100
0000
0010
0000
1000
0100
1000
,
0000
0001
0000
0010
0001
0000
0100
0010
,
0000
1000
0000
0010
0000
0100
0000
0001
,
0000
0001
0000
1000
0000
0010
0100
1001
,
0001
1000
0001
0000
0000
0000
1000
0000
0000
0000
0010
0000
0000
0000
0100
0000
,
1000
0000
0100
0000
0010
0000
0001
0000
0010
0001
0000
0000
1000
0000
0010
0000
,
1000
0010
1000
0000
0100
0000
0010
0000
0001
0010
0001
0000
0010
0000
0100
0000
,
0010
1000
0000
0010
0000
0100
0000
0001
,
0001
0010
0001
0000
0000
0000
0100
0000
0000
0000
0010
0000
0000
0000
1000
0000
,
0100
0000
1000
0000
0010
0000
0100
0000
0001
0010
0000
0000
1000
0000
0100
0000
,
0010
1000
0000
0010
0100
1000
0000
0100
,
0001
0000
0010
0000
0000
0000
0100
0000
0000
0000
1001
0000
0000
1001
0000
1001
,
0000
0001
0000
1000
0000
0010
0000
0000
,
0100
0000
1000
0000
0100
0000
0010
0000
1000
0010
0000
0000
0000
0000
0000
0000
,
0001
0100
0001
0000
0000
0000
0010
0000
0000
0000
1000
0000
0000
0000
0100
0000
,
1000
0000
0010
0000
0100
0010
0100
0000
,
0001
0010
0001
0000
0000
0000
0010
0000
0000
0000
1000
0000
0000
0000
0000
0000
,
0100
0000
1000
0000
0100
0000
0010
0000
0001
0010
0000
0000
0010
0000
0100
0000
,
0010
1000
0000
0001
0010
0100
0000
0001
,
0010
1001
0000
0101
0000
0101
0000
0001
,
1000
0100
1000
0100
1000
0010
0100
0010
,
0100
0000
0010
0000
1000
0001
0000
0000
1000
0000
0100
0000
1000
0001
1000
0000
,
0010
0001
1000
0001
1000
0100
1000
0100
,
0010
0000
0001
0000
1000
0000
0100
0000
1000
0000
0001
0000
1000
0001
1000
0000
,
0100
0001
0100
0010
1000
0010
1000
0010
,
0100
0000
0001
0000
0100
0001
0000
0000
0100
0000
0010
0000
1000
0000
0010
0000
,
0000
0010
0100
0001
0000
0001
0010
0001
,
0000
0000
0100
0000
0010
0000
0100
0000
0000
1000
0000
1000
0000
0000
0000
0000
;

//--------------- dance-single - B. M'Rey ----------------
#NOTES:
     dance-single:
     B. M'Rey:
     Hard:
     12:
     0.389683,0.564215,0.046851,0,0.32015,524,515,9,0,0,0,0.389683,0.564215,0.046851,0,0.32015,524,515,9,0,0,0:
0000
0000
0000
0000
,
0000
0000
0000
0000
,
0000
0000
0000
0000
,
0000
0000
0000
0000
,
0001
0010
0001
0000
0000
0000
1001
0000
0000
0000
0110
0000
0000
0000
0000
0000
,
0001
0000
0010
0000
0001
0000
0100
0000
0010
1000
0000
0000
0100
0000
0010
0000
,
0001
1000
0000
0010
0100
0001
0000
0010
,
1000
0000
0100
0000
0000
0000
0000
0000
0000
0000
0001
0000
1000
0000
0001
1000
,
0000
0001
1000
0000
0010
0000
0100
0000
0000
0001
0010
0000
0001
0000
1000
0000
,
0000
0010
1000
0000
0010
0000
1000
0000
0000
0010
0100
0000
0010
0000
0001
0000
,
0000
0000
0010
0000
0000
1000
0010
0000
1000
0000
0010
0000
0000
0010
0100
0000
,
0010
0001
0100
0000
0001
0000
1000
0000
0000
0010
1000
0000
0010
0000
0100
0010
,
0000
0000
0001
1000
0100
0010
0100
0010
0100
1000
0001
1000
0100
1000
0100
0010
,
0100
1000
0010
1000
0010
1000
0100
0010
0100
0010
0001
0010
0001
0100
0001
0010
,
0100
0010
0100
0010
0001
1000
0001
0010
0001
1000
0100
0010
0100
0010
0100
1000
,
0001
0010
0001
0010
0001
1000
0100
1000
0100
1000
0001
0000
0000
0000
0010
1000
,
0000
0000
1001
0000
0000
0101
0000
0100
0001
0100
0001
0000
1000
0001
0010
0000
,
0001
0010
0001
0000
0010
0100
0010
0000
0100
1000
0100
0000
0001
0000
0010
0000
,
0001
0010
1000
0000
0100
0000
0001
0000
0010
1000
0000
0100
0010
0100
0010
0000
,
0010
1000
0001
0000
0100
0000
0010
0001
0010
0000
0100
0000
1000
0100
1000
0000
,
0100
0010
0001
0000
1000
0100
0010
0000
0100
0010
0001
0000
1000
0100
0010
0000
,
0001
0010
0001
0000
0010
0100
0010
0000
0100
1000
0100
0000
0001
0000
0010
0000
,
0100
0000
0001
0000
1000
0000
0010
0000
0001
1000
0000
0000
0110
0000
0101
0000
,
0110
1010
0000
0100
0010
0100
0000
0001
,
0010
0000
0001
0000
1000
0001
1000
0001
1000
0000
0110
0000
0000
0101
0000
1010
,
0000
0000
0001
1000
0001
0000
0010
0000
0200
0000
0000
0000
0000
0000
0000
0000
,
1300
0010
0001
0000
0001
0000
1000
0000
0100
0000
1000
0000
0100
0000
1000
0000
,
0010
0000
0001
1000
0001
0000
0100
0000
0020
0000
0000
0000
0000
0000
0000
0000
,
0130
0010
0100
0000
0001
0000
1000
0000
0001
0000
0100
0000
0001
0000
0100
0000
,
0010
0000
0001
0010
0001
0000
0001
0000
0020
0000
0000
0000
0000
0000
0000
0000
,
0130
1000
0001
0000
0001
0000
0010
0000
0100
0000
1100
0000
0000
1100
0000
2002
,
0000
0000
3103
0000
1000
0100
0010
0000
0100
0000
0001
0000
0010
1000
0001
0000
,
0100
0001
1000
0100
0010
0100
1000
0200
,
0000
0000
0301
1000
0001
0000
0001
0000
1000
0000
0000
0000
0100
0000
0010
0000
,
0100
0010
0100
0000
0100
0000
0001
0000
1000
0000
0001
0000
1000
0000
0001
0000
,
0000
0000
0010
0100
1000
0000
0010
0000
0100
0000
0000
0000
0100
0000
0001
0000
,
0100
0010
0001
0000
0010
0000
0001
0000
0010
0000
0100
0000
0010
0000
0100
0000
,
1000
0000
0100
1000
0100
0000
0001
0000
1000
0000
0000
0000
0010
0000
0100
0000
,
0010
0001
0100
0000
0010
0000
0001
0000
1000
0000
0001
0000
1000
0000
0001
0000
,
0100
0110
0000
0010
0110
0000
0010
0001
,
0010
0001
0000
1000
0000
0001
0000
1000
,
0000
0000
0001
0000
1000
0000
0100
0000
1000
0100
1000
0100
1000
0000
0001
0000
,
1000
0010
1000
0000
0010
0100
0010
0000
0100
0001
0100
0000
1000
0000
0010
0000
,
1000
0010
0001
0000
0100
0000
1000
0000
0010
0001
0000
0100
0010
0100
0010
0000
,
0010
0001
1000
0000
0100
0000
0010
1000
0010
0000
0100
0000
0001
0100
0001
0000
,
0100
0010
1000
0000
0001
0100
0010
0000
0100
0010
1000
0000
0001
0100
0010
0000
,
1000
0010
1000
0000
0010
0100
0010
0000
0100
0001
0100
0000
1000
0000
0010
0000
,
0100
0000
1000
0000
0001
0000
0010
0000
1000
0001
0000
0000
0110
0000
1100
0000
,
0110
0011
0000
0100
0010
0100
0000
1000
,
0010
0000
1000
0000
0001
1000
0001
1000
0001
0000
0110
0000
0000
1100
0000
0011
,
0100
0010
0100
0000
0000
0000
0101
0000
0000
0000
1010
0000
0000
0000
0000
0000
,
0010
0000
0100
0000
0001
0000
0010
0000
1000
0010
0000
0000
0010
1000
0010
1000
,
0010
0100
0011
0000
0000
0000
1001
0000
0000
0000
0110
0000
0000
0000
0010
0000
,
0100
0000
0000
0000
0000
0000
0000
0000
0001
0000
0000
0000
0000
0000
0000
0000
0010
0000
0000
0000
1000
0000
0010
0000
1000
0010
1000
0010
1000
0000
0010
0000
,
1000
0110
0000
0011
0000
0110
0000
0000
,
0001
0000
0000
0000
0100
0000
0000
0000
0010
0000
0000
0000
0100
0000
0000
0000
0001
0000
0010
0000
0001
0010
0001
0010
0001
0000
0000
0000
1000
0000
0000
0000
,
0010
1000
0000
0010
0100
0001
0000
0010
,
1000
0000
0000
0000
1000
0001
1000
0001
1000
0000
0000
0000
0110
0000
0000
0000
0000
0000
0000
0000
0101
0000
0000
0000
0000
0000
0000
0000
0001
0000
0000
0000
,
0010
0100
0010
0000
0100
1000
0100
0000
0001
0000
0010
0000
0001
0010
1000
0000
,
0100
0000
0001
0000
0010
1000
0000
0100
0010
0100
0010
0000
0010
1000
0001
0000
,
0100
0000
0010
0001
0010
0000
0100
0000
1000
0100
1000
0000
0100
0010
0001
0000
,
1100
0000
0010
0000
0100
0010
0001
0000
1000
0100
0010
0000
0001
0010
0001
0000
,
0010
0100
0010
0000
0100
1000
0100
0000
0001
0000
0010
0000
0100
0000
0001
0000
,
1000
0000
0010
0000
0001
1000
0000
0000
0110
0000
0101
0000
0110
0000
1010
0000
,
0000
0100
0010
0100
0000
0001
0010
0001
,
1000
0001
1000
0001
1000
0000
0110
0000
0000
0101
0000
1010
0000
0000
0000
0000
;
